<?xml version="1.0" standalone="no"?>
<!DOCTYPE svg PUBLIC "-//W3C//DTD SVG 1.1//EN" "http://www.w3.org/Graphics/SVG/1.1/DTD/svg11.dtd" >
<svg xmlns="http://www.w3.org/2000/svg" xmlns:xlink="http://www.w3.org/1999/xlink" version="1.1">
<metadata>
Created by FontForge 20170731 at Thu May  6 13:46:52 2021
 By Aleksey,,,
Font software Copyright 1990, 1991, 1998 Adobe Systems Incorporated. Typeface designs Copyright The Monotype Corporation. All rights reserved.
</metadata>
<defs>
<font id="GillSans-CondensedBold" horiz-adv-x="1067" >
  <font-face 
    font-family="Gill Sans"
    font-weight="700"
    font-stretch="condensed"
    units-per-em="2048"
    panose-1="2 11 8 6 2 1 4 2 2 3"
    ascent="1397"
    descent="-651"
    x-height="946"
    cap-height="1399"
    bbox="-367 -487 2062 1913"
    underline-thickness="102"
    underline-position="-307"
    unicode-range="U+0020-FB04"
  />
<missing-glyph horiz-adv-x="1024" 
d="M25 0v1362h972v-1362h-972zM180 1266l332 -498l330 498h-662zM123 1178v-992q0 -1 82.5 123t164.5 249l83 124zM901 1178l-332 -496l332 -498v994zM842 98l-330 496l-332 -496h662z" />
    <glyph glyph-name="fi" unicode="fi" horiz-adv-x="1130" 
d="M147 0v778h-106v168h106v88q0 183 81.5 283t238.5 100q75 0 160 -33v-196q-98 31 -141.5 -2.5t-43.5 -138.5v-101h154v-168h-154v-778h-295zM719 0v946h295v-946h-295zM702 1229q0 68 47.5 116t114.5 48q68 0 116 -48.5t48 -115.5q0 -66 -48.5 -114t-115.5 -48t-114.5 48
t-47.5 114z" />
    <glyph glyph-name="fl" unicode="fl" horiz-adv-x="1130" 
d="M143 0v778h-104v168h104v76q0 188 104 291.5t279 103.5q70 0 162 -18h322v-1399h-295v1176q-62 26 -129 26q-148 0 -148 -190v-66h150v-168h-150v-778h-295z" />
    <glyph glyph-name="f_f" unicode="ff" horiz-adv-x="1169" 
d="M147 0v778h-92v168h92v68q0 199 102.5 301t270.5 102q54 0 146 -20v-209q-55 14 -103 14q-71 0 -96 -40t-25 -124v-92h277v68q0 197 111.5 300t281.5 103q76 0 158 -18v-209q-65 12 -105 12q-80 0 -115.5 -42t-35.5 -122v-92h151v-168h-151v-778h-295v778h-277v-778h-295
z" />
    <glyph glyph-name="f_f_i" unicode="ffi" horiz-adv-x="1701" 
d="M719 946v88q0 184 81 283.5t238 99.5q75 0 160 -33v-196q-98 31 -141 -2.5t-43 -138.5v-101h153v-168h-153v-778h-295v778h-277v-778h-295v778h-92v168h92v68q0 199 102.5 301t270.5 102q54 0 146 -20v-209q-55 14 -103 14q-71 0 -96 -40t-25 -124v-92h277zM1290 0v946
h295v-946h-295zM1274 1229q0 68 47.5 116t114.5 48t115 -48t48 -116q0 -66 -48 -114t-115 -48t-114.5 48t-47.5 114z" />
    <glyph glyph-name="f_f_l" unicode="ffl" horiz-adv-x="1705" 
d="M719 946v76q0 188 104 291.5t279 103.5q70 0 162 -18h321v-1399h-295v1176q-62 26 -129 26q-147 0 -147 -190v-66h149v-168h-149v-778h-295v778h-277v-778h-295v778h-92v168h92v68q0 199 102.5 301t270.5 102q54 0 146 -20v-209q-55 14 -103 14q-71 0 -96 -40t-25 -124
v-92h277z" />
    <glyph glyph-name=".notdef" horiz-adv-x="1024" 
d="M25 0v1362h972v-1362h-972zM180 1266l332 -498l330 498h-662zM123 1178v-992q0 -1 82.5 123t164.5 249l83 124zM901 1178l-332 -496l332 -498v994zM842 98l-330 496l-332 -496h662z" />
    <glyph glyph-name=".null" horiz-adv-x="0" 
 />
    <glyph glyph-name="nonmarkingreturn" horiz-adv-x="682" 
 />
    <glyph glyph-name="space" unicode=" " horiz-adv-x="681" 
 />
    <glyph glyph-name="exclam" unicode="!" horiz-adv-x="555" 
d="M276 307q68 0 116 -47.5t48 -114.5t-48 -115t-116 -48q-67 0 -114 47.5t-47 115.5t47 115t114 47zM317 410h-77q-43 113 -85 372t-42 400q0 116 42 175.5t124 59.5q165 0 165 -235q0 -141 -42 -400t-85 -372z" />
    <glyph glyph-name="quotedbl" unicode="&#x22;" horiz-adv-x="970" 
d="M557 1466h307v-247l-53 -273h-201l-53 273v247zM106 1466h308v-247l-54 -273h-200l-54 273v247z" />
    <glyph glyph-name="numbersign" unicode="#" horiz-adv-x="1366" 
d="M70 1034h309l80 375h215l-80 -375h326l79 375h215l-79 -375h161v-215h-206l-58 -272h264v-215h-309l-80 -375h-215l80 375h-326l-79 -375h-215l79 375h-161v215h206l58 272h-264v215zM549 819l-57 -272h325l57 272h-325z" />
    <glyph glyph-name="dollar" unicode="$" horiz-adv-x="1044" 
d="M82 59v242q112 -55 193 -75.5t178 -22.5v342q-197 75 -291 171t-94 242q0 155 108 264t277 124v71h145v-67q176 -6 303 -64v-235q-97 44 -160.5 59.5t-142.5 17.5v-333q186 -63 282.5 -170t96.5 -250q0 -154 -108 -264.5t-271 -122.5v-224h-145v218q-201 6 -371 77z
M598 487v-264q119 40 119 127q0 43 -27.5 74.5t-91.5 62.5zM453 846v268q-136 -35 -136 -133q0 -44 32.5 -76.5t103.5 -58.5z" />
    <glyph glyph-name="percent" unicode="%" horiz-adv-x="1515" 
d="M911 358q0 179 73.5 275t209.5 96q137 0 211 -96.5t74 -274.5q0 -177 -74 -272.5t-211 -95.5q-136 0 -209.5 95.5t-73.5 272.5zM1122 358q0 -123 16 -172t56 -49q41 0 57.5 49t16.5 172q0 125 -16.5 174.5t-57.5 49.5q-40 0 -56 -50t-16 -174zM37 1047q0 179 73 274.5
t209 95.5q137 0 211 -96t74 -274q0 -177 -74 -273t-211 -96q-136 0 -209 96t-73 273zM248 1047q0 -123 15.5 -172.5t55.5 -49.5q41 0 57.5 49.5t16.5 172.5q0 124 -16.5 173.5t-57.5 49.5q-40 0 -55.5 -49t-15.5 -174zM264 -53l785 1507h196l-776 -1507h-205z" />
    <glyph glyph-name="ampersand" unicode="&#x26;" horiz-adv-x="1236" 
d="M1204 0h-334l-69 117q-150 -135 -324 -135q-167 0 -280 112.5t-113 278.5q0 258 289 434q-82 171 -82 274q0 146 96.5 241t247.5 95q142 0 238 -89.5t96 -221.5q0 -97 -56.5 -180.5t-175.5 -163.5l121 -199q46 79 82 170h264q-41 -120 -84 -203.5t-119 -193.5zM672 326
l-180 284q-72 -59 -101 -104t-29 -100q0 -64 46 -112t108 -48q76 0 156 80zM623 954q68 48 95 85t27 75q0 40 -31 70t-71 30t-68 -27t-28 -65q0 -71 76 -168z" />
    <glyph glyph-name="quotesingle" unicode="'" horiz-adv-x="487" 
d="M90 1466h307v-247l-53 -273h-201l-53 273v247z" />
    <glyph glyph-name="parenleft" unicode="(" horiz-adv-x="724" 
d="M434 471q0 -326 64 -541.5t213 -404.5h-207q-199 246 -293 473.5t-94 472.5t94 472.5t293 473.5h207q-149 -189 -213 -404.5t-64 -541.5z" />
    <glyph glyph-name="parenright" unicode=")" horiz-adv-x="724" 
d="M291 471q0 326 -64 541.5t-213 404.5h207q199 -246 293 -473.5t94 -472.5t-94 -472.5t-293 -473.5h-207q149 189 213 404.5t64 541.5z" />
    <glyph glyph-name="asterisk" unicode="*" horiz-adv-x="1024" 
d="M563 911l-39 -20l105 -324q11 -33 -12 -44t-105 -11q-86 0 -107 11t-10 46l105 322l-37 18l-238 -245q-20 -25 -40 -13t-58 80q-45 80 -48 109.5t30 33.5l335 72v37l-307 68q-56 12 -59 33t45 106q25 42 41 63.5t29.5 25t21.5 -2t23 -21.5l223 -237l39 20l-105 324
q-11 33 12 44t105 11q86 0 107 -11t10 -46l-105 -322l37 -18l238 246q20 24 40 12t58 -80q45 -80 48 -109.5t-30 -33.5l-335 -72v-37l307 -67q56 -12 59 -33.5t-45 -106.5q-25 -42 -41 -63.5t-29.5 -25t-21.5 2t-23 21.5z" />
    <glyph glyph-name="plus" unicode="+" horiz-adv-x="1366" 
d="M121 807h438v438h248v-438h438v-248h-438v-438h-248v438h-438v248z" />
    <glyph glyph-name="comma" unicode="," horiz-adv-x="555" 
d="M113 -311v51q49 43 73.5 101t32.5 149q-55 22 -85 64t-30 98q0 67 47 114t115 47q86 0 139.5 -64.5t53.5 -170.5q0 -145 -88.5 -245t-257.5 -144z" />
    <glyph glyph-name="hyphen" unicode="-" horiz-adv-x="704" 
d="M76 334v272h551v-272h-551z" />
    <glyph glyph-name="period" unicode="." horiz-adv-x="555" 
d="M279 307q67 0 114 -47t47 -115t-47 -115.5t-114 -47.5q-68 0 -116 48t-48 115t48 114.5t116 47.5z" />
    <glyph glyph-name="slash" unicode="/" horiz-adv-x="575" 
d="M12 -18l340 1417h211l-342 -1417h-209z" />
    <glyph glyph-name="zero" unicode="0" 
d="M74 698q0 349 118.5 534t344.5 185q117 0 205.5 -53t142.5 -150t81 -226t27 -290t-27 -289.5t-81.5 -225t-144 -149t-208.5 -52.5q-223 0 -340.5 184.5t-117.5 531.5zM391 696q0 -68 1 -115t4 -100.5t9 -88.5t16.5 -70t25.5 -55t36 -32t49 -12q85 0 114.5 106t29.5 369
q0 250 -28 364t-116 114q-32 0 -56 -15.5t-39 -49t-24.5 -71t-14 -98t-6 -114t-1.5 -132.5z" />
    <glyph glyph-name="one" unicode="1" 
d="M375 0v1399h317v-1399h-317z" />
    <glyph glyph-name="two" unicode="2" 
d="M938 276v-276h-903v23q45 41 167.5 218.5t238.5 394.5t116 316q0 90 -56.5 149.5t-142.5 59.5q-124 0 -282 -102v254q175 104 362 104q180 0 297 -107.5t117 -273.5q0 -142 -80 -318.5t-272 -441.5h438z" />
    <glyph glyph-name="three" unicode="3" 
d="M102 53v250q89 -44 151 -62t124 -18q104 0 167.5 53.5t63.5 141.5q0 89 -71 143t-193 47v234q108 -4 172 42t64 126q0 76 -55 121t-144 45q-110 0 -258 -74v250q108 37 177.5 51t148.5 14q198 0 323 -105t125 -272q0 -105 -51 -176t-160 -121q240 -94 240 -344
q0 -183 -136 -300t-350 -117q-144 0 -338 71z" />
    <glyph glyph-name="four" unicode="4" 
d="M571 0v360h-530v228l543 829h282v-839h123v-218h-123v-360h-295zM571 578v483h-4l-313 -483h317z" />
    <glyph glyph-name="five" unicode="5" 
d="M125 35v246q122 -58 250 -58q109 0 177.5 56t68.5 145q0 91 -74 144t-201 53q-74 0 -164 -19v797h723v-277h-452v-274q225 -1 355 -114.5t130 -307.5q0 -200 -141 -322t-373 -122q-156 0 -299 53z" />
    <glyph glyph-name="six" unicode="6" 
d="M844 1417l-322 -532q44 8 86 8q95 0 171 -37t123 -100t72 -141t25 -164q0 -200 -129.5 -334.5t-324.5 -134.5q-207 0 -336 134.5t-129 352.5q0 125 46 254.5t161 316.5l229 377h328zM387 453q0 -105 44 -167.5t118 -62.5q72 0 114 60t42 163q0 106 -41.5 165t-116.5 59
q-74 0 -117 -58.5t-43 -158.5z" />
    <glyph glyph-name="seven" unicode="7" 
d="M213 94l373 1028h-516v277h905v-62l-486 -1355z" />
    <glyph glyph-name="eight" unicode="8" 
d="M303 725q-190 102 -190 309q0 167 119.5 275t304.5 108q180 0 297.5 -108.5t117.5 -274.5q0 -210 -194 -309q123 -51 181 -132t58 -202q0 -54 -15.5 -109t-52 -109.5t-89 -96.5t-133.5 -68t-179 -26q-117 0 -208 35t-145 94t-81.5 129t-27.5 147q0 124 56 204t181 134z
M408 1022q0 -217 129 -217q120 0 120 217q0 199 -125 199q-60 0 -92 -50.5t-32 -148.5zM383 393q0 -100 40 -157.5t109 -57.5t108.5 58t39.5 161q0 104 -39.5 164t-108.5 60q-70 0 -109.5 -60.5t-39.5 -167.5z" />
    <glyph glyph-name="nine" unicode="9" 
d="M229 -18l322 532q-44 -8 -86 -8q-94 0 -170 36.5t-124 98.5t-73.5 141t-25.5 166q0 200 129.5 334.5t324.5 134.5q207 0 337 -135t130 -352q0 -230 -151 -479l-287 -469h-326zM686 946q0 105 -44 167.5t-118 62.5q-72 0 -114.5 -60.5t-42.5 -163.5q0 -106 42 -164.5
t117 -58.5q72 0 116 59t44 158z" />
    <glyph glyph-name="colon" unicode=":" horiz-adv-x="555" 
d="M279 924q67 0 114 -47t47 -115t-47 -116t-114 -48t-115.5 48t-48.5 116q0 67 48 114.5t116 47.5zM279 307q67 0 114 -47t47 -115t-47 -115.5t-114 -47.5q-68 0 -116 48t-48 115t48 114.5t116 47.5z" />
    <glyph glyph-name="semicolon" unicode=";" horiz-adv-x="555" 
d="M113 -311v51q49 43 73.5 101t32.5 149q-55 22 -85 64t-30 98q0 67 47 114t115 47q86 0 139.5 -64.5t53.5 -170.5q0 -145 -88.5 -245t-257.5 -144zM279 924q67 0 114 -47t47 -115t-47 -116t-114 -48t-115.5 48t-48.5 116q0 67 48 114.5t116 47.5z" />
    <glyph glyph-name="semicolon" unicode="&#x37e;" horiz-adv-x="555" 
d="M113 -311v51q49 43 73.5 101t32.5 149q-55 22 -85 64t-30 98q0 67 47 114t115 47q86 0 139.5 -64.5t53.5 -170.5q0 -145 -88.5 -245t-257.5 -144zM279 924q67 0 114 -47t47 -115t-47 -116t-114 -48t-115.5 48t-48.5 116q0 67 48 114.5t116 47.5z" />
    <glyph glyph-name="less" unicode="&#x3c;" horiz-adv-x="1366" 
d="M123 569v226l1120 467v-269l-780 -311l780 -311v-269z" />
    <glyph glyph-name="equal" unicode="=" horiz-adv-x="1366" 
d="M121 565h1124v-248h-1124v248zM121 1047h1124v-248h-1124v248z" />
    <glyph glyph-name="greater" unicode="&#x3e;" horiz-adv-x="1366" 
d="M1243 569l-1120 -467v269l780 311l-780 311v269l1120 -467v-226z" />
    <glyph glyph-name="question" unicode="?" horiz-adv-x="724" 
d="M354 410h-75q-82 121 -82 235q0 63 21.5 127.5t48 108.5t48 97t21.5 95q0 54 -36.5 91.5t-90.5 37.5q-73 0 -135 -59l-27 6l64 246q87 22 165 22q168 0 270.5 -88.5t102.5 -234.5q0 -70 -31 -141.5t-75 -131.5t-87.5 -118t-74.5 -121.5t-31 -120.5q0 -23 4 -51zM317 307
q68 0 116 -47.5t48 -114.5t-48 -115t-116 -48q-67 0 -114 47.5t-47 115.5t47 115t114 47z" />
    <glyph glyph-name="at" unicode="@" horiz-adv-x="1996" 
d="M1399 1034l-125 -790q-8 -38 -0.5 -58t35.5 -20q24 0 59 15.5t78 53.5t79 92t60.5 141.5t24.5 190.5q0 261 -150.5 415.5t-406.5 154.5q-194 0 -345.5 -91.5t-235 -257.5t-83.5 -380q0 -315 178.5 -507t470.5 -192q145 0 270 45t248 142h226q-118 -155 -321.5 -255
t-418.5 -100q-232 0 -421 113t-296.5 311.5t-107.5 442.5q0 82 13.5 166.5t44 173.5t75.5 169.5t113 152.5t151.5 124t196.5 82.5t242 30.5q145 0 266 -41t205.5 -111t143.5 -164.5t86.5 -201.5t27.5 -222q0 -110 -27.5 -208t-73.5 -168t-102.5 -126t-117.5 -90
t-116.5 -51.5t-101.5 -17.5q-63 0 -100 28.5t-56 90.5q-67 -65 -120.5 -92t-118.5 -27q-145 0 -235.5 119t-90.5 311q0 153 52 298.5t152.5 244t223.5 98.5q73 0 126.5 -33.5t109.5 -113.5l18 112h195zM743 373q0 -102 36 -159.5t102 -57.5q57 0 112 55q54 54 88.5 205.5
t34.5 294.5q0 90 -33.5 138t-97.5 48q-74 0 -130.5 -77t-84 -194.5t-27.5 -252.5z" />
    <glyph glyph-name="A" unicode="A" horiz-adv-x="1087" 
d="M12 0l367 1407h330l366 -1407h-307l-66 291h-315l-68 -291h-307zM432 518h223l-108 508h-4z" />
    <glyph glyph-name="B" unicode="B" horiz-adv-x="1153" 
d="M135 0v1399h473q103 0 184.5 -31t130 -82.5t73 -113t24.5 -128.5q0 -94 -48.5 -167t-140.5 -117q236 -109 236 -348q0 -174 -123 -293t-332 -119h-477zM453 227h102q195 0 195 189q0 81 -43 135.5t-132 54.5h-122v-379zM453 834h67q182 0 182 170q0 85 -44.5 126
t-137.5 41h-67v-337z" />
    <glyph glyph-name="C" unicode="C" 
d="M969 358v-272q-132 -104 -326 -104q-253 0 -410 192t-157 512q0 332 154.5 531.5t412.5 199.5q165 0 315 -78v-268q-142 82 -239 82q-144 0 -232 -113.5t-88 -334.5q0 -223 77.5 -341t225.5 -118q119 0 267 112z" />
    <glyph glyph-name="D" unicode="D" horiz-adv-x="1236" 
d="M135 0v1399h414q127 0 230.5 -39t172 -105t114.5 -155.5t66.5 -186.5t20.5 -202q0 -101 -19 -198t-64 -191t-111 -164.5t-167.5 -114t-226.5 -43.5h-430zM453 236h75q84 0 143.5 31.5t93.5 93t49 142.5t15 191q0 469 -284 469h-92v-927z" />
    <glyph glyph-name="E" unicode="E" horiz-adv-x="1044" 
d="M135 0v1399h815v-242h-497v-326h462v-241h-462v-348h516v-242h-834z" />
    <glyph glyph-name="F" unicode="F" horiz-adv-x="917" 
d="M135 0v1399h735v-242h-417v-330h403v-241h-403v-586h-318z" />
    <glyph glyph-name="G" unicode="G" horiz-adv-x="1216" 
d="M1126 754v-609q-215 -163 -454 -163q-170 0 -305.5 89.5t-212 248.5t-76.5 358q0 212 80.5 381t224.5 263.5t324 94.5q189 0 370 -110v-291q-94 77 -164.5 107t-162.5 30q-166 0 -257.5 -122.5t-91.5 -348.5q0 -201 70.5 -318.5t202.5 -117.5q71 0 135 37v235h-158v236
h475z" />
    <glyph glyph-name="H" unicode="H" horiz-adv-x="1259" 
d="M137 0v1399h318v-572h350v572h317v-1399h-317v586h-350v-586h-318z" />
    <glyph glyph-name="I" unicode="I" horiz-adv-x="598" 
d="M139 0v1399h318v-1399h-318z" />
    <glyph glyph-name="J" unicode="J" horiz-adv-x="598" 
d="M-37 -446l-18 256q43 -11 59 -11q137 0 137 185v1415h318v-1397q0 -112 -22.5 -199t-57 -138t-81.5 -84t-89.5 -44.5t-87.5 -11.5q-67 0 -158 29z" />
    <glyph glyph-name="K" unicode="K" horiz-adv-x="1193" 
d="M111 0v1399h317v-678h4l350 678h318l-348 -666l436 -733h-354l-402 676h-4v-676h-317z" />
    <glyph glyph-name="L" unicode="L" horiz-adv-x="980" 
d="M135 0v1399h318v-1147h512v-252h-830z" />
    <glyph glyph-name="M" unicode="M" horiz-adv-x="1492" 
d="M139 0v1399h287l322 -576l321 576h287v-1399h-299v895h-4l-275 -530h-61l-275 530h-4v-895h-299z" />
    <glyph glyph-name="N" unicode="N" horiz-adv-x="1259" 
d="M141 0v1399h295l379 -791h4v791h299v-1399h-276l-398 825h-4v-825h-299z" />
    <glyph glyph-name="O" unicode="O" horiz-adv-x="1259" 
d="M78 713q0 138 31 255t84.5 198.5t124 139t149.5 84.5t162 27q81 0 157.5 -24t148.5 -79t126 -136t86.5 -204.5t32.5 -275.5q0 -158 -35 -284t-90.5 -205t-129.5 -132t-147 -74t-149 -21q-83 0 -161 25t-149.5 82t-124.5 140t-84.5 207.5t-31.5 276.5zM401 700
q0 -221 51.5 -332.5t176.5 -111.5q76 0 124.5 40t75.5 139.5t27 264.5q0 99 -9.5 172.5t-33 138t-70 98.5t-114.5 34q-123 0 -175.5 -112.5t-52.5 -330.5z" />
    <glyph glyph-name="P" unicode="P" horiz-adv-x="1110" 
d="M135 0v1399h453q117 0 208.5 -37t145 -99t80.5 -134t27 -150q0 -51 -10 -101.5t-41.5 -108t-80 -100.5t-134.5 -71.5t-197 -28.5h-133v-569h-318zM453 811h92q103 0 144.5 44.5t41.5 127.5q0 75 -41 124.5t-135 49.5h-102v-346z" />
    <glyph glyph-name="Q" unicode="Q" horiz-adv-x="1259" 
d="M508 -4q-208 54 -319 239.5t-111 471.5q0 177 47 316.5t125.5 223t175.5 127t203 43.5q107 0 204 -42.5t166 -119.5q181 -202 181 -557q0 -256 -93 -432t-266 -248q44 -53 104.5 -83.5t121.5 -30.5q26 0 40.5 3.5t51.5 18.5l10 4l29 -18l-172 -229q-165 4 -300.5 98
t-197.5 215zM401 700q0 -226 52.5 -334t175.5 -108q122 0 174.5 104.5t52.5 337.5q0 106 -10 182t-34 137.5t-69.5 92.5t-111.5 31q-122 0 -176 -110.5t-54 -332.5z" />
    <glyph glyph-name="R" unicode="R" horiz-adv-x="1130" 
d="M135 0v1399h457q211 0 330.5 -108t119.5 -283q0 -119 -55.5 -197.5t-179.5 -130.5q44 -24 83 -97.5t65 -154t68 -210.5t77 -218h-330l-76 262q-24 83 -39 130.5t-33 88.5t-31.5 59t-36 31.5t-43.5 16t-58 2.5v-590h-318zM453 831h100q81 0 126.5 43t45.5 125t-43.5 120
t-132.5 38h-96v-326z" />
    <glyph glyph-name="S" unicode="S" horiz-adv-x="917" 
d="M90 92v301q99 -81 165.5 -114t129.5 -33q57 0 93 32.5t36 83.5q0 47 -32.5 99.5t-80.5 97.5t-105 102t-105 113t-80.5 131.5t-32.5 155.5q0 151 115.5 253.5t285.5 102.5q146 0 305 -86v-262q-104 58 -160.5 79t-109.5 21q-57 0 -93 -26.5t-36 -69.5q0 -38 33.5 -86.5
t84 -95t109 -106.5t109 -119.5t84 -137t33.5 -155.5q0 -167 -116.5 -279t-289.5 -112q-157 0 -342 110z" />
    <glyph glyph-name="T" unicode="T" horiz-adv-x="1024" 
d="M352 0v1157h-319v242h956v-242h-319v-1157h-318z" />
    <glyph glyph-name="U" unicode="U" horiz-adv-x="1216" 
d="M119 1399h317v-963q0 -86 44.5 -138t127.5 -52q172 0 172 207v946h318v-920q0 -236 -123 -366.5t-367 -130.5q-229 0 -359 121t-130 372v924z" />
    <glyph glyph-name="V" unicode="V" horiz-adv-x="1110" 
d="M481 -18l-469 1417h322l215 -721h4l203 721h321l-448 -1417h-148z" />
    <glyph glyph-name="W" unicode="W" horiz-adv-x="1744" 
d="M453 -18l-439 1417h305l199 -740h4l223 740h254l220 -740h4l202 740h306l-437 -1417h-137l-285 905h-4l-278 -905h-137z" />
    <glyph glyph-name="X" unicode="X" horiz-adv-x="1236" 
d="M35 0l409 741l-368 658h348l199 -385l200 385h346l-368 -658l409 -741h-346l-241 459l-242 -459h-346z" />
    <glyph glyph-name="Y" unicode="Y" horiz-adv-x="1110" 
d="M406 0v639l-388 760h340l211 -430l174 430h338l-350 -760v-639h-325z" />
    <glyph glyph-name="Z" unicode="Z" horiz-adv-x="1024" 
d="M27 0l499 1157h-444v242h876l-495 -1157h495v-242h-931z" />
    <glyph glyph-name="bracketleft" unicode="[" horiz-adv-x="768" 
d="M182 -451v1850h563v-213h-274v-1424h274v-213h-563z" />
    <glyph glyph-name="backslash" unicode="\" horiz-adv-x="575" 
d="M563 -18h-207l-344 1417h213z" />
    <glyph glyph-name="bracketright" unicode="]" horiz-adv-x="768" 
d="M586 -451h-563v213h274v1424h-274v213h563v-1850z" />
    <glyph glyph-name="asciicircum" unicode="^" horiz-adv-x="1193" 
d="M115 692l370 799h224l370 -799h-284l-197 490l-199 -490h-284z" />
    <glyph glyph-name="underscore" unicode="_" horiz-adv-x="1024" 
d="M-12 -154h1048v-102h-1048v102z" />
    <glyph glyph-name="grave" unicode="`" horiz-adv-x="681" 
d="M553 1075h-154l-379 342h361z" />
    <glyph glyph-name="a" unicode="a" horiz-adv-x="980" 
d="M963 242v-168q-149 -90 -246 -90q-131 0 -152 131q-75 -72 -137 -102.5t-137 -30.5q-103 0 -173.5 68t-70.5 169q0 57 25.5 105.5t66 85t109.5 72t137 61.5t168 59v33q0 67 -28.5 98t-90.5 31q-77 0 -152.5 -33.5t-170.5 -109.5v215q98 70 187.5 99.5t205.5 29.5
q344 0 344 -273v-385q0 -67 5 -84.5t24 -17.5q33 0 86 37zM553 244v227q-126 -46 -183 -88t-57 -102q0 -44 28.5 -72.5t74.5 -28.5q35 0 62.5 13t74.5 51z" />
    <glyph glyph-name="b" unicode="b" horiz-adv-x="1110" 
d="M119 0v1399h295v-498q117 64 219 64q172 0 283.5 -138t111.5 -352q0 -207 -112 -346t-281 -139q-65 0 -116 21.5t-105 70.5v-82h-295zM414 688v-395q66 -88 151 -88q72 0 114 71t42 195q0 128 -45 203.5t-123 75.5q-68 0 -139 -62z" />
    <glyph glyph-name="c" unicode="c" horiz-adv-x="874" 
d="M809 270v-227q-148 -61 -264 -61q-202 0 -336.5 138t-134.5 347q0 217 133.5 357.5t337.5 140.5q116 0 252 -64v-223q-102 61 -191 61q-98 0 -161.5 -73t-63.5 -187q0 -123 65 -198.5t170 -75.5q90 0 193 65z" />
    <glyph glyph-name="d" unicode="d" horiz-adv-x="1110" 
d="M696 0v94q-65 -60 -125.5 -86t-130.5 -26q-157 0 -260.5 139.5t-103.5 351.5q0 217 104.5 354.5t268.5 137.5q68 0 123 -23.5t124 -81.5v539h295v-1399h-295zM696 301v361q-43 43 -75.5 60t-73.5 17q-78 0 -121 -69.5t-43 -198.5q0 -127 41 -197.5t115 -70.5q86 0 157 98
z" />
    <glyph glyph-name="e" unicode="e" horiz-adv-x="960" 
d="M856 254v-178q-158 -94 -344 -94q-101 0 -180 31.5t-126.5 80t-78 113.5t-42 125.5t-11.5 122.5q0 221 119 365.5t301 144.5q175 0 284 -136.5t105 -400.5h-510q10 -121 71.5 -185.5t165.5 -64.5q116 0 246 76zM373 563h237q-3 234 -116 234q-59 0 -90 -61t-31 -173z" />
    <glyph glyph-name="f" unicode="f" horiz-adv-x="598" 
d="M147 0v778h-92v168h92v68q0 100 31.5 178.5t86 127t124.5 73t152 24.5q75 0 157 -18v-209q-64 12 -104 12q-152 0 -152 -164v-92h152v-168h-152v-778h-295z" />
    <glyph glyph-name="g" unicode="g" horiz-adv-x="980" 
d="M975 791h-187q51 -55 73 -108t22 -118q0 -126 -95 -221q-44 -44 -107.5 -68t-119.5 -29t-106.5 -9t-80.5 -17.5t-30 -44.5q0 -32 40.5 -44t106 -13.5t137 -5t146.5 -26.5t121 -69q78 -78 78 -190q0 -134 -117.5 -218.5t-351.5 -84.5q-107 0 -190.5 18t-132 45t-80.5 63
t-43 67t-11 61q0 75 55.5 130.5t155.5 78.5v4q-137 43 -137 153q0 56 39.5 98t115.5 62q-92 58 -135 132t-43 173q0 152 116.5 253.5t313.5 101.5h447v-174zM365 594q0 -203 133 -203q131 0 131 201q0 92 -34 141t-99 49q-63 0 -97 -48.5t-34 -139.5zM299 -197
q0 -116 217 -116q215 0 215 112q0 119 -217 119q-98 0 -156.5 -31t-58.5 -84z" />
    <glyph glyph-name="h" unicode="h" horiz-adv-x="1087" 
d="M115 0v1399h295v-576h4q99 142 262 142q59 0 111 -19t96 -58t70 -109t26 -163v-616h-295v580q0 88 -25.5 129t-87.5 41q-51 0 -82.5 -29t-78.5 -115v-606h-295z" />
    <glyph glyph-name="i" unicode="i" horiz-adv-x="532" 
d="M119 0v946h295v-946h-295zM268 1411q68 0 115 -47.5t47 -114.5q0 -68 -47.5 -116t-114.5 -48q-68 0 -116 48.5t-48 115.5t48 114.5t116 47.5z" />
    <glyph glyph-name="j" unicode="j" horiz-adv-x="532" 
d="M72 -475l-78 258q79 31 104 69t25 117v977h295v-960q0 -96 -17 -169t-45.5 -121.5t-74.5 -83.5t-94.5 -54t-114.5 -33zM268 1411q68 0 115 -47.5t47 -114.5q0 -68 -47.5 -116t-114.5 -48q-68 0 -116 48.5t-48 115.5t48 114.5t116 47.5z" />
    <glyph glyph-name="k" unicode="k" 
d="M119 0v1399h295v-926h4l284 473h310l-279 -465l330 -481h-322l-323 473h-4v-473h-295z" />
    <glyph glyph-name="l" unicode="l" horiz-adv-x="532" 
d="M119 0v1399h295v-1399h-295z" />
    <glyph glyph-name="m" unicode="m" horiz-adv-x="1665" 
d="M117 0v946h295v-145h4q113 164 280 164q94 0 162.5 -50.5t102.5 -142.5q99 193 288 193q55 0 107 -19.5t97.5 -58t73 -105.5t27.5 -153v-629h-294v514q0 83 -6.5 128.5t-30 74t-68.5 28.5q-96 0 -172 -131v-614h-295v557q0 90 -28 139t-82 49q-45 0 -84.5 -33.5
t-81.5 -105.5v-606h-295z" />
    <glyph glyph-name="n" unicode="n" horiz-adv-x="1087" 
d="M115 0v946h295v-133h4q104 152 266 152q138 0 219.5 -88.5t81.5 -249.5v-627h-295v580q0 170 -115 170q-101 0 -161 -152v-598h-295z" />
    <glyph glyph-name="o" unicode="o" 
d="M993 469q0 -216 -129.5 -355t-331.5 -139q-199 0 -328.5 140.5t-129.5 353.5q0 115 39 210.5t103.5 157t146 95t169.5 33.5q91 0 174 -35t147 -97.5t102 -157t38 -206.5zM682 469q0 281 -150 281q-151 0 -151 -281q0 -144 37 -211.5t114 -67.5q78 0 114 67t36 212z" />
    <glyph glyph-name="p" unicode="p" horiz-adv-x="1110" 
d="M119 -451v1397h295v-90q124 109 256 109q157 0 258.5 -141.5t101.5 -358.5q0 -207 -102 -345t-254 -138q-125 0 -260 106v-539h-295zM414 655v-362q73 -82 151 -82q72 0 115 73t43 197q0 127 -39.5 198t-108.5 71q-43 0 -80 -22t-81 -73z" />
    <glyph glyph-name="q" unicode="q" horiz-adv-x="1110" 
d="M696 -451v502q-106 -69 -217 -69q-172 0 -285.5 138t-113.5 347q0 101 26 186t68 141t95.5 96t107 57.5t104.5 17.5q116 0 215 -74v55h295v-1397h-295zM696 264v404q-36 45 -67 63.5t-70 18.5q-80 0 -126 -74t-46 -203q0 -127 47.5 -201.5t128.5 -74.5q69 0 133 67z" />
    <glyph glyph-name="r" unicode="r" horiz-adv-x="811" 
d="M115 0v946h272v-358h4q47 187 111 277.5t149 90.5q82 0 170 -55l-63 -262q-68 47 -123 47q-56 0 -100.5 -47.5t-71 -126t-40 -172.5t-13.5 -195v-145h-295z" />
    <glyph glyph-name="s" unicode="s" horiz-adv-x="811" 
d="M82 61v220q173 -99 303 -99q49 0 79 21.5t30 60.5q0 26 -23.5 47t-61.5 37t-83.5 33.5t-91 41.5t-83.5 54t-61.5 78.5t-23.5 108.5q0 133 96.5 217t249.5 84q152 0 307 -86v-195q-95 51 -170 74q-70 20 -139 20q-54 0 -84.5 -18t-30.5 -49q0 -25 25.5 -46t66 -37.5
t89.5 -34.5t98.5 -43.5t90 -58t66 -85t25.5 -117.5q0 -135 -99 -221t-254 -86q-148 0 -321 79z" />
    <glyph glyph-name="t" unicode="t" horiz-adv-x="811" 
d="M752 279v-218q-84 -44 -144 -61.5t-123 -17.5q-46 0 -88.5 10t-84 33.5t-72 59.5t-49.5 92t-19 126v457h-135v37l379 442h51v-293h270v-186h-270v-402q0 -149 106 -149q64 0 179 70z" />
    <glyph glyph-name="u" unicode="u" horiz-adv-x="1087" 
d="M678 0v121h-4q-78 -139 -262 -139q-63 0 -117 20t-97.5 61t-68.5 111.5t-25 163.5v608h295v-592q0 -82 27.5 -119.5t87.5 -37.5q59 0 101 40t63 109v600h295v-946h-295z" />
    <glyph glyph-name="v" unicode="v" horiz-adv-x="980" 
d="M426 -18l-399 964h282l191 -500h4l168 500h284l-376 -964h-154z" />
    <glyph glyph-name="w" unicode="w" horiz-adv-x="1449" 
d="M377 -18l-354 964h280l152 -485h4l168 485h196l168 -485h4l152 485h280l-352 -964h-149l-199 559h-4l-195 -559h-151z" />
    <glyph glyph-name="x" unicode="x" horiz-adv-x="980" 
d="M23 0l299 481l-299 465h327l135 -239l129 239h330l-291 -461l308 -485h-328l-137 256l-146 -256h-327z" />
    <glyph glyph-name="y" unicode="y" horiz-adv-x="980" 
d="M86 -451l256 625l-332 772h299l180 -432l170 432h299l-573 -1397h-299z" />
    <glyph glyph-name="z" unicode="z" horiz-adv-x="917" 
d="M37 0l385 731h-342v215h768l-375 -731h375v-215h-811z" />
    <glyph glyph-name="braceleft" unicode="{" horiz-adv-x="796" 
d="M63 352v242q131 3 175.5 84.5t44.5 290.5q0 173 16.5 246t71.5 128q91 91 278 91h99v-242h-54q-32 0 -67 -8.5t-49 -22.5q-24 -24 -31.5 -81.5t-7.5 -129t-3.5 -147t-29 -151t-74.5 -124.5q-35 -35 -76 -55q41 -20 76 -55q49 -49 74.5 -124.5t29 -151t3.5 -147t7.5 -129
t31.5 -81.5q14 -14 49 -22.5t67 -8.5h54v-241h-99q-188 0 -278 90q-55 55 -71.5 128t-16.5 246q0 209 -44.5 290.5t-175.5 84.5z" />
    <glyph glyph-name="bar" unicode="|" horiz-adv-x="1159" 
d="M453 1399h249v-1702h-249v1702z" />
    <glyph glyph-name="braceright" unicode="}" horiz-adv-x="796" 
d="M733 594v-242q-131 -3 -175 -84t-44 -291q0 -173 -16.5 -246t-71.5 -128q-90 -90 -279 -90h-98v241h53q32 0 67.5 8.5t49.5 22.5q24 24 31.5 81.5t7.5 129t3.5 147t29 151t74.5 124.5q36 36 75 55q-39 19 -75 55q-49 49 -74.5 124.5t-29 151t-3.5 147t-7.5 129
t-31.5 81.5q-14 14 -49.5 22.5t-67.5 8.5h-53v242h98q188 0 279 -91q55 -55 71.5 -128t16.5 -246q0 -210 44 -291t175 -84z" />
    <glyph glyph-name="asciitilde" unicode="~" horiz-adv-x="1366" 
d="M1243 915v-253q-163 -144 -319 -144q-42 0 -92.5 13.5t-84.5 27.5t-88 39q-55 28 -83 41t-70.5 26t-75.5 13q-149 0 -307 -152v256q164 142 326 142q62 0 133.5 -24.5t125.5 -54.5t120 -54.5t118 -24.5q129 0 297 149z" />
    <glyph glyph-name="uni00A0" unicode="&#xa0;" horiz-adv-x="681" 
 />
    <glyph glyph-name="exclamdown" unicode="&#xa1;" horiz-adv-x="555" 
d="M276 639q-67 0 -114 47t-47 115t47 116t114 48q68 0 116 -48.5t48 -115.5t-48 -114.5t-116 -47.5zM238 537h77q43 -113 85 -372.5t42 -400.5q0 -116 -42 -175.5t-124 -59.5q-165 0 -165 235q0 141 42 400.5t85 372.5z" />
    <glyph glyph-name="cent" unicode="&#xa2;" horiz-adv-x="874" 
d="M827 1288l-100 -356q21 -6 74 -31v-223q-86 50 -131 53l-142 -508q50 -18 93 -18q89 0 190 65v-227q-145 -61 -262 -61q-41 0 -88 8l-107 -377h-96l111 403q-139 57 -217 175.5t-78 275.5q0 215 134 356.5t337 141.5q29 0 90 -7l94 330h98zM449 291l124 444
q-192 -52 -192 -258q0 -97 68 -186z" />
    <glyph glyph-name="sterling" unicode="&#xa3;" horiz-adv-x="1044" 
d="M113 -18h-37q58 349 119 583h-107v248h166q70 311 204.5 457.5t321.5 146.5q66 0 107 -14l86 -258q-59 16 -121 16q-113 0 -173 -82.5t-106 -265.5h170v-248h-237q-48 -196 -57 -260q27 10 81 10q40 0 144 -26.5t141 -26.5q74 0 164 43v-287q-117 -36 -213 -36
q-73 0 -212 26.5t-210 26.5q-123 0 -231 -53z" />
    <glyph glyph-name="currency" unicode="&#xa4;" horiz-adv-x="1366" 
d="M141 1059l162 162l135 -136q53 32 120.5 50t123.5 18q130 0 244 -68l135 136l162 -162l-136 -135q66 -121 66 -242q0 -131 -68 -244l138 -137l-162 -162l-137 137q-115 -67 -242 -67q-135 0 -242 67l-137 -137l-162 162l138 137q-31 43 -50.5 110.5t-19.5 133.5
q0 134 67 242zM682 926q-101 0 -172.5 -71.5t-71.5 -172.5t71.5 -173.5t172.5 -72.5t173.5 72.5t72.5 173.5t-72.5 172.5t-173.5 71.5z" />
    <glyph glyph-name="yen" unicode="&#xa5;" horiz-adv-x="1110" 
d="M406 215h-388v154h388v116h-388v152h390l-390 762h340l211 -430l174 430h338l-350 -760h350v-154h-350v-116h350v-154h-350v-215h-325v215z" />
    <glyph glyph-name="brokenbar" unicode="&#xa6;" horiz-adv-x="1159" 
d="M453 430h249v-733h-249v733zM453 1399h249v-733h-249v733z" />
    <glyph glyph-name="section" unicode="&#xa7;" 
d="M70 539q0 198 174 338q-92 112 -92 227q0 136 113.5 224.5t303.5 88.5q151 0 253 -68.5t102 -170.5q0 -60 -44.5 -101t-109.5 -41q-47 0 -73 20.5t-35 50t-17 59.5t-30 50.5t-62 20.5q-54 0 -87.5 -28t-33.5 -68q0 -42 31 -86.5t81 -85t110 -84.5t120.5 -94t110.5 -103
t81 -121.5t31 -142.5q0 -99 -46.5 -198t-123.5 -169q88 -104 88 -223q0 -137 -106 -220t-281 -83q-161 0 -269.5 68.5t-108.5 169.5q0 59 43 99t106 40q45 0 71 -20t36 -48t19.5 -56.5t33 -48.5t65.5 -20q54 0 87.5 23.5t33.5 60.5q0 46 -52.5 106t-118 109t-147 110.5
t-118.5 98.5q-139 139 -139 316zM688 213q55 70 55 147q0 50 -32.5 96.5t-73.5 78t-119.5 89.5t-130.5 103q-59 -65 -59 -147q0 -31 10 -57.5t25 -47.5t50 -50.5t66.5 -53t94 -70.5t114.5 -88z" />
    <glyph glyph-name="dieresis" unicode="&#xa8;" horiz-adv-x="681" 
d="M537 1354q46 0 78 -32.5t32 -78.5t-32 -78t-78 -32t-78.5 32t-32.5 78t32.5 78.5t78.5 32.5zM145 1354q46 0 78.5 -32.5t32.5 -78.5t-32.5 -78t-78.5 -32t-78 32t-32 78t32 78.5t78 32.5z" />
    <glyph glyph-name="dieresis" unicode="&#x308;" horiz-adv-x="681" 
d="M537 1354q46 0 78 -32.5t32 -78.5t-32 -78t-78 -32t-78.5 32t-32.5 78t32.5 78.5t78.5 32.5zM145 1354q46 0 78.5 -32.5t32.5 -78.5t-32.5 -78t-78.5 -32t-78 32t-32 78t32 78.5t78 32.5z" />
    <glyph glyph-name="copyright" unicode="&#xa9;" horiz-adv-x="1511" 
d="M940 616l162 -55q-37 -124 -124 -191t-212 -67q-175 0 -280 115t-105 307q0 198 104.5 314t282.5 116q126 0 208 -60t126 -184l-162 -39q-28 73 -70 106.5t-106 33.5q-98 0 -153.5 -75t-55.5 -208q0 -132 52 -208.5t143 -76.5q72 0 118.5 41.5t71.5 130.5zM756 1495
q209 0 385 -102.5t278.5 -278.5t102.5 -385t-102.5 -385t-278.5 -278.5t-385 -102.5t-385 102.5t-278.5 278.5t-102.5 385t102.5 385t278.5 278.5t385 102.5zM756 1346q-125 0 -239.5 -49t-197 -131.5t-131.5 -197t-49 -239.5t49 -239t131.5 -196.5t197 -131.5t239.5 -49
q167 0 309 82.5t224.5 224.5t82.5 309q0 125 -49 239.5t-131.5 197t-196.5 131.5t-239 49z" />
    <glyph glyph-name="ordfeminine" unicode="&#xaa;" horiz-adv-x="618" 
d="M625 995v-135q-103 -57 -170 -57q-41 0 -64.5 15.5t-40.5 53.5q-53 -40 -88 -54.5t-80 -14.5q-72 0 -120 44.5t-48 110.5q0 75 74 129.5t250 106.5q0 36 -14.5 53t-51.5 17q-51 0 -98.5 -21.5t-118.5 -75.5v162q70 45 128.5 63.5t133.5 18.5q234 0 234 -180v-221
q0 -49 10 -49q2 0 12.5 5.5t27 15t24.5 13.5zM338 979v106q-78 -29 -103.5 -47.5t-25.5 -44.5q0 -45 53 -45q35 0 76 31z" />
    <glyph glyph-name="guillemotleft" unicode="&#xab;" horiz-adv-x="1044" 
d="M727 471l270 -471h-237l-271 471l271 471h237zM293 471l270 -471h-237l-271 471l271 471h237z" />
    <glyph glyph-name="logicalnot" unicode="&#xac;" horiz-adv-x="1366" 
d="M121 1047h1124v-730h-248v482h-876v248z" />
    <glyph glyph-name="uni00AD" unicode="&#xad;" horiz-adv-x="704" 
d="M76 334v272h551v-272h-551z" />
    <glyph glyph-name="registered" unicode="&#xae;" horiz-adv-x="1511" 
d="M410 319v814h165h220q138 0 206 -64.5t68 -165.5q0 -91 -59 -152t-160 -73v-4q48 -16 79.5 -50.5t76.5 -111.5l112 -193h-205l-67 132q-61 119 -108 160.5t-120 41.5h-43v-334h-165zM575 782h181q64 0 101.5 31.5t37.5 81.5q0 109 -170 109h-150v-222zM756 1495
q209 0 385 -102.5t278.5 -278.5t102.5 -385t-102.5 -385t-278.5 -278.5t-385 -102.5t-385 102.5t-278.5 278.5t-102.5 385t102.5 385t278.5 278.5t385 102.5zM756 1346q-125 0 -239.5 -49t-197 -131.5t-131.5 -197t-49 -239.5t49 -239t131.5 -196.5t197 -131.5t239.5 -49
q167 0 309 82.5t224.5 224.5t82.5 309q0 125 -49 239.5t-131.5 197t-196.5 131.5t-239 49z" />
    <glyph glyph-name="macron" unicode="&#xaf;" horiz-adv-x="681" 
d="M47 1200v154h590v-154h-590z" />
    <glyph glyph-name="degree" unicode="&#xb0;" horiz-adv-x="819" 
d="M410 1325q-63 0 -108.5 -45.5t-45.5 -108.5t45.5 -108t108.5 -45t108 45t45 108t-45 108.5t-108 45.5zM410 1491q132 0 225.5 -94t93.5 -226t-93.5 -225.5t-225.5 -93.5t-226 93.5t-94 225.5t94 226t226 94z" />
    <glyph glyph-name="plusminus" unicode="&#xb1;" horiz-adv-x="1368" 
d="M123 182h1124v-248h-1124v248zM123 991h438v439h248v-439h438v-248h-438v-438h-248v438h-438v248z" />
    <glyph glyph-name="two.superior" unicode="&#xb2;" horiz-adv-x="618" 
d="M4 688v31q84 78 194.5 234.5t110.5 224.5q0 37 -29 60.5t-73 23.5q-70 0 -178 -58v158q113 55 225 55q113 0 184.5 -57t71.5 -146q0 -72 -41.5 -149.5t-151.5 -214.5h244v-162h-557z" />
    <glyph glyph-name="three.superior" unicode="&#xb3;" horiz-adv-x="641" 
d="M53 717v153q115 -43 174 -43q55 0 89 22.5t34 59.5q0 36 -33 58t-88 22q-12 0 -32 -2v148q65 -3 103 16.5t38 52.5q0 29 -31.5 48.5t-77.5 19.5q-64 0 -163 -41v149q115 37 204 37q122 0 198.5 -55.5t76.5 -144.5q0 -47 -21 -80t-75 -68q64 -36 90 -75t26 -95
q0 -97 -84 -159t-215 -62q-81 0 -213 39z" />
    <glyph glyph-name="acute" unicode="&#xb4;" horiz-adv-x="681" 
d="M129 1075l172 342h361l-379 -342h-154z" />
    <glyph glyph-name="mu" unicode="&#xb5;" horiz-adv-x="1251" 
d="M190 946h295v-547q0 -202 150 -202q129 0 129 202v547h295v-946h-271v113h-4q-6 -55 -49 -91t-100 -36q-54 0 -98 36.5t-48 90.5h-4v-471h-295v1304z" />
    <glyph glyph-name="paragraph" unicode="&#xb6;" horiz-adv-x="1138" 
d="M633 -303h-238v878q-186 13 -289.5 120t-103.5 286q0 84 25.5 156.5t76.5 132.5t138.5 94.5t201.5 34.5h689v-262h-113v-1440h-238v1440h-149v-1440z" />
    <glyph glyph-name="periodcentered" unicode="&#xb7;" horiz-adv-x="555" 
d="M279 862q67 0 114 -47t47 -115t-47 -115.5t-114 -47.5q-68 0 -116 48t-48 115t48 114.5t116 47.5z" />
    <glyph glyph-name="periodcentered" unicode="&#x22c5;" horiz-adv-x="555" 
d="M279 862q67 0 114 -47t47 -115t-47 -115.5t-114 -47.5q-68 0 -116 48t-48 115t48 114.5t116 47.5z" />
    <glyph glyph-name="periodcentered" unicode="&#x387;" horiz-adv-x="555" 
d="M279 862q67 0 114 -47t47 -115t-47 -115.5t-114 -47.5q-68 0 -116 48t-48 115t48 114.5t116 47.5z" />
    <glyph glyph-name="cedilla" unicode="&#xb8;" horiz-adv-x="681" 
d="M137 -471v147q86 0 127 17.5t41 56.5q0 28 -24.5 47t-63.5 15l92 202l180 -10l-43 -94q56 -19 89.5 -63t33.5 -101q0 -93 -78.5 -155t-214.5 -62h-139z" />
    <glyph glyph-name="one.superior" unicode="&#xb9;" horiz-adv-x="618" 
d="M203 688v719h213v-719h-213z" />
    <glyph glyph-name="ordmasculine" unicode="&#xba;" horiz-adv-x="681" 
d="M35 1106q0 135 87 223t220 88t219 -88t86 -225q0 -135 -86 -223t-219 -88q-134 0 -220.5 88.5t-86.5 224.5zM256 1106q0 -83 20.5 -120.5t65.5 -37.5q44 0 64 38.5t20 125.5q0 150 -84 150q-46 0 -66 -37t-20 -119z" />
    <glyph glyph-name="guillemotright" unicode="&#xbb;" horiz-adv-x="1044" 
d="M752 471l-271 471h238l270 -471l-270 -471h-238zM317 471l-270 471h238l270 -471l-270 -471h-238z" />
    <glyph glyph-name="onequarter" unicode="&#xbc;" horiz-adv-x="1515" 
d="M1204 0v178h-311v131l326 420h184v-416h72v-135h-72v-178h-199zM1204 313v191h-4l-143 -191h147zM203 688v719h213v-719h-213zM262 -53l787 1507h194l-774 -1507h-207z" />
    <glyph glyph-name="onehalf" unicode="&#xbd;" horiz-adv-x="1515" 
d="M203 688v719h213v-719h-213zM227 -53l787 1507h194l-774 -1507h-207zM899 0v31q84 78 194.5 234t110.5 224q0 37 -29 60.5t-73 23.5q-72 0 -178 -57v158q113 55 225 55q113 0 184.5 -57t71.5 -146q0 -72 -41.5 -149.5t-151.5 -214.5h244v-162h-557z" />
    <glyph glyph-name="threequarters" unicode="&#xbe;" horiz-adv-x="1515" 
d="M1204 0v178h-311v131l326 420h184v-416h72v-135h-72v-178h-199zM1204 313v191h-4l-143 -191h147zM53 717v153q115 -43 174 -43q55 0 89 22.5t34 59.5q0 36 -33 58t-88 22q-12 0 -32 -2v148q65 -3 103 16.5t38 52.5q0 29 -31.5 48.5t-77.5 19.5q-64 0 -163 -41v149
q115 37 204 37q122 0 198.5 -55.5t76.5 -144.5q0 -47 -21 -80t-75 -68q64 -36 90 -75t26 -95q0 -97 -84 -159t-215 -62q-81 0 -213 39zM262 -53l787 1507h194l-774 -1507h-207z" />
    <glyph glyph-name="questiondown" unicode="&#xbf;" horiz-adv-x="724" 
d="M371 537h75q82 -121 82 -236q0 -63 -21.5 -127.5t-48 -108.5t-48 -97t-21.5 -95q0 -54 36.5 -91.5t90.5 -37.5q73 0 135 59l27 -6l-64 -246q-87 -22 -165 -22q-168 0 -270.5 89t-102.5 235q0 70 31 141.5t75 131t87.5 117.5t74.5 121.5t31 120.5q0 24 -4 52zM406 639
q-68 0 -115 47.5t-47 114.5q0 68 47.5 116t114.5 48t115 -48t48 -116q0 -67 -47.5 -114.5t-115.5 -47.5z" />
    <glyph glyph-name="Agrave" unicode="&#xc0;" horiz-adv-x="1087" 
d="M12 0l367 1407h330l366 -1407h-307l-66 291h-315l-68 -291h-307zM432 518h223l-108 508h-4zM756 1501h-154l-379 342h361z" />
    <glyph glyph-name="Aacute" unicode="&#xc1;" horiz-adv-x="1087" 
d="M12 0l367 1407h330l366 -1407h-307l-66 291h-315l-68 -291h-307zM432 518h223l-108 508h-4zM332 1501l172 342h360l-379 -342h-153z" />
    <glyph glyph-name="Acircumflex" unicode="&#xc2;" horiz-adv-x="1087" 
d="M12 0l367 1407h330l366 -1407h-307l-66 291h-315l-68 -291h-307zM432 518h223l-108 508h-4zM236 1493l176 350h264l176 -350h-182l-125 176l-127 -176h-182z" />
    <glyph glyph-name="Atilde" unicode="&#xc3;" horiz-adv-x="1087" 
d="M12 0l367 1407h330l366 -1407h-307l-66 291h-315l-68 -291h-307zM432 518h223l-108 508h-4zM330 1546h-123q0 104 57 174t150 70q53 0 143.5 -35t120.5 -35q58 0 82 70h123q-4 -107 -63.5 -175.5t-147.5 -68.5q-56 0 -136.5 36t-113.5 36q-74 0 -92 -72z" />
    <glyph glyph-name="Adieresis" unicode="&#xc4;" horiz-adv-x="1087" 
d="M12 0l367 1407h330l366 -1407h-307l-66 291h-315l-68 -291h-307zM432 518h223l-108 508h-4zM739 1780q46 0 78.5 -32.5t32.5 -78.5t-32.5 -78t-78.5 -32t-78 32t-32 78t32 78.5t78 32.5zM348 1780q46 0 78.5 -32.5t32.5 -78.5t-32.5 -78t-78.5 -32t-78 32t-32 78t32 78.5
t78 32.5z" />
    <glyph glyph-name="Aring" unicode="&#xc5;" horiz-adv-x="1087" 
d="M12 0l367 1407h330l366 -1407h-307l-66 291h-315l-68 -291h-307zM432 518h223l-108 508h-4zM545 1913q91 0 155 -64t64 -155t-64 -155t-155 -64t-155 64t-64 155t64 155t155 64zM545 1819q-53 0 -89 -36.5t-36 -88.5t36 -88.5t89 -36.5t89 36.5t36 88.5t-36 88.5
t-89 36.5z" />
    <glyph glyph-name="AE" unicode="&#xc6;" horiz-adv-x="1685" 
d="M-18 0l540 1399h1049v-242h-457v-328h418v-241h-418v-346h473v-242h-790v588h-289l-211 -588h-315zM588 815h209v412h-66z" />
    <glyph glyph-name="Ccedilla" unicode="&#xc7;" 
d="M410 -188l86 190q-192 52 -306 233t-114 451q0 332 154.5 531.5t412.5 199.5q165 0 315 -78v-268q-142 82 -239 82q-144 0 -232 -113.5t-88 -334.5q0 -223 77.5 -341t225.5 -118q119 0 267 112v-272q-125 -99 -297 -102l-33 -74q56 -19 89.5 -63t33.5 -101
q0 -93 -78.5 -155t-214.5 -62h-139v147q86 0 127 17.5t41 56.5q0 28 -24.5 47t-63.5 15z" />
    <glyph glyph-name="Egrave" unicode="&#xc8;" horiz-adv-x="1044" 
d="M135 0v1399h815v-242h-497v-326h462v-241h-462v-348h516v-242h-834zM735 1501h-153l-379 342h360z" />
    <glyph glyph-name="Eacute" unicode="&#xc9;" horiz-adv-x="1044" 
d="M135 0v1399h815v-242h-497v-326h462v-241h-462v-348h516v-242h-834zM311 1501l172 342h361l-379 -342h-154z" />
    <glyph glyph-name="Ecircumflex" unicode="&#xca;" horiz-adv-x="1044" 
d="M135 0v1399h815v-242h-497v-326h462v-241h-462v-348h516v-242h-834zM215 1493l176 350h264l176 -350h-182l-125 176l-127 -176h-182z" />
    <glyph glyph-name="Edieresis" unicode="&#xcb;" horiz-adv-x="1044" 
d="M135 0v1399h815v-242h-497v-326h462v-241h-462v-348h516v-242h-834zM719 1780q46 0 78 -32.5t32 -78.5t-32 -78t-78 -32t-78.5 32t-32.5 78t32.5 78.5t78.5 32.5zM328 1780q46 0 78 -32.5t32 -78.5t-32 -78t-78 -32t-78.5 32t-32.5 78t32.5 78.5t78.5 32.5z" />
    <glyph glyph-name="Igrave" unicode="&#xcc;" horiz-adv-x="598" 
d="M139 0v1399h318v-1399h-318zM512 1501h-154l-378 342h360z" />
    <glyph glyph-name="Iacute" unicode="&#xcd;" horiz-adv-x="598" 
d="M139 0v1399h318v-1399h-318zM88 1501l172 342h361l-379 -342h-154z" />
    <glyph glyph-name="Icircumflex" unicode="&#xce;" horiz-adv-x="598" 
d="M139 0v1399h318v-1399h-318zM-8 1493l176 350h264l176 -350h-182l-125 176l-127 -176h-182z" />
    <glyph glyph-name="Idieresis" unicode="&#xcf;" horiz-adv-x="598" 
d="M139 0v1399h318v-1399h-318zM496 1780q46 0 78 -32.5t32 -78.5t-32 -78t-78 -32t-78.5 32t-32.5 78t32.5 78.5t78.5 32.5zM104 1780q46 0 78.5 -32.5t32.5 -78.5t-32.5 -78t-78.5 -32t-78 32t-32 78t32 78.5t78 32.5z" />
    <glyph glyph-name="Eth" unicode="&#xd0;" horiz-adv-x="1236" 
d="M135 0v602h-160v195h160v602h414q127 0 230.5 -39t172 -105t114.5 -155.5t66.5 -186.5t20.5 -202q0 -101 -19 -198t-64 -191t-111 -164.5t-167.5 -114t-226.5 -43.5h-430zM453 236h75q84 0 143.5 31.5t93.5 93t49 142.5t15 191q0 469 -284 469h-92v-366h245v-195h-245
v-366z" />
    <glyph glyph-name="Ntilde" unicode="&#xd1;" horiz-adv-x="1259" 
d="M141 0v1399h295l379 -791h4v791h299v-1399h-276l-398 825h-4v-825h-299zM416 1546h-123q0 104 57 174t150 70q53 0 143.5 -35t120.5 -35q58 0 82 70h123q-4 -107 -63.5 -175.5t-147.5 -68.5q-56 0 -136.5 36t-113.5 36q-74 0 -92 -72z" />
    <glyph glyph-name="Ograve" unicode="&#xd2;" horiz-adv-x="1259" 
d="M78 713q0 138 31 255t84.5 198.5t124 139t149.5 84.5t162 27q81 0 157.5 -24t148.5 -79t126 -136t86.5 -204.5t32.5 -275.5q0 -158 -35 -284t-90.5 -205t-129.5 -132t-147 -74t-149 -21q-83 0 -161 25t-149.5 82t-124.5 140t-84.5 207.5t-31.5 276.5zM401 700
q0 -221 51.5 -332.5t176.5 -111.5q76 0 124.5 40t75.5 139.5t27 264.5q0 99 -9.5 172.5t-33 138t-70 98.5t-114.5 34q-123 0 -175.5 -112.5t-52.5 -330.5zM842 1501h-154l-379 342h361z" />
    <glyph glyph-name="Oacute" unicode="&#xd3;" horiz-adv-x="1259" 
d="M78 713q0 138 31 255t84.5 198.5t124 139t149.5 84.5t162 27q81 0 157.5 -24t148.5 -79t126 -136t86.5 -204.5t32.5 -275.5q0 -158 -35 -284t-90.5 -205t-129.5 -132t-147 -74t-149 -21q-83 0 -161 25t-149.5 82t-124.5 140t-84.5 207.5t-31.5 276.5zM401 700
q0 -221 51.5 -332.5t176.5 -111.5q76 0 124.5 40t75.5 139.5t27 264.5q0 99 -9.5 172.5t-33 138t-70 98.5t-114.5 34q-123 0 -175.5 -112.5t-52.5 -330.5zM418 1501l172 342h360l-379 -342h-153z" />
    <glyph glyph-name="Ocircumflex" unicode="&#xd4;" horiz-adv-x="1259" 
d="M78 713q0 138 31 255t84.5 198.5t124 139t149.5 84.5t162 27q81 0 157.5 -24t148.5 -79t126 -136t86.5 -204.5t32.5 -275.5q0 -158 -35 -284t-90.5 -205t-129.5 -132t-147 -74t-149 -21q-83 0 -161 25t-149.5 82t-124.5 140t-84.5 207.5t-31.5 276.5zM401 700
q0 -221 51.5 -332.5t176.5 -111.5q76 0 124.5 40t75.5 139.5t27 264.5q0 99 -9.5 172.5t-33 138t-70 98.5t-114.5 34q-123 0 -175.5 -112.5t-52.5 -330.5zM322 1493l176 350h264l176 -350h-182l-125 176l-127 -176h-182z" />
    <glyph glyph-name="Otilde" unicode="&#xd5;" horiz-adv-x="1259" 
d="M78 713q0 138 31 255t84.5 198.5t124 139t149.5 84.5t162 27q81 0 157.5 -24t148.5 -79t126 -136t86.5 -204.5t32.5 -275.5q0 -158 -35 -284t-90.5 -205t-129.5 -132t-147 -74t-149 -21q-83 0 -161 25t-149.5 82t-124.5 140t-84.5 207.5t-31.5 276.5zM401 700
q0 -221 51.5 -332.5t176.5 -111.5q76 0 124.5 40t75.5 139.5t27 264.5q0 99 -9.5 172.5t-33 138t-70 98.5t-114.5 34q-123 0 -175.5 -112.5t-52.5 -330.5zM416 1546h-123q0 104 57 174t150 70q53 0 143.5 -35t120.5 -35q58 0 82 70h123q-4 -107 -63.5 -175.5t-147.5 -68.5
q-56 0 -136.5 36t-113.5 36q-74 0 -92 -72z" />
    <glyph glyph-name="Odieresis" unicode="&#xd6;" horiz-adv-x="1259" 
d="M78 713q0 138 31 255t84.5 198.5t124 139t149.5 84.5t162 27q81 0 157.5 -24t148.5 -79t126 -136t86.5 -204.5t32.5 -275.5q0 -158 -35 -284t-90.5 -205t-129.5 -132t-147 -74t-149 -21q-83 0 -161 25t-149.5 82t-124.5 140t-84.5 207.5t-31.5 276.5zM401 700
q0 -221 51.5 -332.5t176.5 -111.5q76 0 124.5 40t75.5 139.5t27 264.5q0 99 -9.5 172.5t-33 138t-70 98.5t-114.5 34q-123 0 -175.5 -112.5t-52.5 -330.5zM825 1780q46 0 78.5 -32.5t32.5 -78.5t-32.5 -78t-78.5 -32t-78 32t-32 78t32 78.5t78 32.5zM434 1780
q46 0 78.5 -32.5t32.5 -78.5t-32.5 -78t-78.5 -32t-78 32t-32 78t32 78.5t78 32.5z" />
    <glyph glyph-name="multiply" unicode="&#xd7;" horiz-adv-x="1368" 
d="M152 1034l176 176l356 -356l356 356l177 -176l-357 -356l357 -356l-175 -175l-358 359l-358 -359l-174 175l356 356z" />
    <glyph glyph-name="Oslash" unicode="&#xd8;" horiz-adv-x="1259" 
d="M842 907l-365 -579q33 -36 67.5 -54t84.5 -18q76 0 124.5 40t75.5 139.5t27 264.5q0 116 -14 207zM946 1307l70 112l106 -67l-86 -138q63 -83 103.5 -214.5t40.5 -301.5q0 -158 -35 -284t-90.5 -205t-129.5 -132t-147 -74t-149 -21q-172 0 -305 102l-76 -119l-98 72
l83 135q-71 88 -113 226.5t-42 316.5q0 171 47.5 308.5t126.5 221.5t175.5 128t201.5 44q174 0 317 -110zM420 469l368 588q-51 86 -159 86q-123 0 -175.5 -112.5t-52.5 -330.5q0 -141 19 -231z" />
    <glyph glyph-name="Ugrave" unicode="&#xd9;" horiz-adv-x="1216" 
d="M119 1399h317v-963q0 -86 44.5 -138t127.5 -52q172 0 172 207v946h318v-920q0 -236 -123 -366.5t-367 -130.5q-229 0 -359 121t-130 372v924zM821 1501h-153l-379 342h360z" />
    <glyph glyph-name="Uacute" unicode="&#xda;" horiz-adv-x="1216" 
d="M119 1399h317v-963q0 -86 44.5 -138t127.5 -52q172 0 172 207v946h318v-920q0 -236 -123 -366.5t-367 -130.5q-229 0 -359 121t-130 372v924zM397 1501l172 342h361l-379 -342h-154z" />
    <glyph glyph-name="Ucircumflex" unicode="&#xdb;" horiz-adv-x="1216" 
d="M119 1399h317v-963q0 -86 44.5 -138t127.5 -52q172 0 172 207v946h318v-920q0 -236 -123 -366.5t-367 -130.5q-229 0 -359 121t-130 372v924zM301 1493l176 350h264l177 -350h-183l-125 176l-127 -176h-182z" />
    <glyph glyph-name="Udieresis" unicode="&#xdc;" horiz-adv-x="1216" 
d="M119 1399h317v-963q0 -86 44.5 -138t127.5 -52q172 0 172 207v946h318v-920q0 -236 -123 -366.5t-367 -130.5q-229 0 -359 121t-130 372v924zM805 1780q46 0 78 -32.5t32 -78.5t-32 -78t-78 -32t-78.5 32t-32.5 78t32.5 78.5t78.5 32.5zM414 1780q46 0 78 -32.5t32 -78.5
t-32 -78t-78 -32t-78.5 32t-32.5 78t32.5 78.5t78.5 32.5z" />
    <glyph glyph-name="Yacute" unicode="&#xdd;" horiz-adv-x="1110" 
d="M406 0v639l-388 760h340l211 -430l174 430h338l-350 -760v-639h-325zM344 1501l172 342h361l-379 -342h-154z" />
    <glyph glyph-name="Thorn" unicode="&#xde;" horiz-adv-x="1110" 
d="M135 0v1399h318v-285h135q117 0 208.5 -37t145 -99t80.5 -134t27 -150q0 -51 -10 -101t-41.5 -108t-80 -100.5t-134.5 -71t-197 -28.5h-133v-285h-318zM453 526h92q103 0 144.5 44.5t41.5 127.5q0 75 -41 124.5t-135 49.5h-102v-346z" />
    <glyph glyph-name="germandbls" unicode="&#xdf;" horiz-adv-x="1087" 
d="M115 0v987q0 112 32.5 196t93 134.5t139.5 75t177 24.5q183 0 296.5 -95t113.5 -247q0 -88 -39 -146.5t-129 -105.5q109 -37 167 -134t58 -243q0 -198 -107.5 -327t-271.5 -129q-74 0 -133 26v197q25 -8 57 -8q160 0 160 235q0 135 -48.5 211t-150.5 66v184
q77 3 117.5 45.5t40.5 118.5q0 80 -38.5 127t-104.5 47q-135 0 -135 -178v-1061h-295z" />
    <glyph glyph-name="agrave" unicode="&#xe0;" horiz-adv-x="980" 
d="M963 242v-168q-149 -90 -246 -90q-131 0 -152 131q-75 -72 -137 -102.5t-137 -30.5q-103 0 -173.5 68t-70.5 169q0 57 25.5 105.5t66 85t109.5 72t137 61.5t168 59v33q0 67 -28.5 98t-90.5 31q-77 0 -152.5 -33.5t-170.5 -109.5v215q98 70 187.5 99.5t205.5 29.5
q344 0 344 -273v-385q0 -67 5 -84.5t24 -17.5q33 0 86 37zM553 244v227q-126 -46 -183 -88t-57 -102q0 -44 28.5 -72.5t74.5 -28.5q35 0 62.5 13t74.5 51zM702 1075h-153l-379 342h360z" />
    <glyph glyph-name="aacute" unicode="&#xe1;" horiz-adv-x="980" 
d="M963 242v-168q-149 -90 -246 -90q-131 0 -152 131q-75 -72 -137 -102.5t-137 -30.5q-103 0 -173.5 68t-70.5 169q0 57 25.5 105.5t66 85t109.5 72t137 61.5t168 59v33q0 67 -28.5 98t-90.5 31q-77 0 -152.5 -33.5t-170.5 -109.5v215q98 70 187.5 99.5t205.5 29.5
q344 0 344 -273v-385q0 -67 5 -84.5t24 -17.5q33 0 86 37zM553 244v227q-126 -46 -183 -88t-57 -102q0 -44 28.5 -72.5t74.5 -28.5q35 0 62.5 13t74.5 51zM279 1075l172 342h360l-379 -342h-153z" />
    <glyph glyph-name="acircumflex" unicode="&#xe2;" horiz-adv-x="980" 
d="M963 242v-168q-149 -90 -246 -90q-131 0 -152 131q-75 -72 -137 -102.5t-137 -30.5q-103 0 -173.5 68t-70.5 169q0 57 25.5 105.5t66 85t109.5 72t137 61.5t168 59v33q0 67 -28.5 98t-90.5 31q-77 0 -152.5 -33.5t-170.5 -109.5v215q98 70 187.5 99.5t205.5 29.5
q344 0 344 -273v-385q0 -67 5 -84.5t24 -17.5q33 0 86 37zM553 244v227q-126 -46 -183 -88t-57 -102q0 -44 28.5 -72.5t74.5 -28.5q35 0 62.5 13t74.5 51zM182 1067l176 350h265l176 -350h-183l-124 176l-127 -176h-183z" />
    <glyph glyph-name="atilde" unicode="&#xe3;" horiz-adv-x="980" 
d="M963 242v-168q-149 -90 -246 -90q-131 0 -152 131q-75 -72 -137 -102.5t-137 -30.5q-103 0 -173.5 68t-70.5 169q0 57 25.5 105.5t66 85t109.5 72t137 61.5t168 59v33q0 67 -28.5 98t-90.5 31q-77 0 -152.5 -33.5t-170.5 -109.5v215q98 70 187.5 99.5t205.5 29.5
q344 0 344 -273v-385q0 -67 5 -84.5t24 -17.5q33 0 86 37zM553 244v227q-126 -46 -183 -88t-57 -102q0 -44 28.5 -72.5t74.5 -28.5q35 0 62.5 13t74.5 51zM276 1120h-122q0 104 56.5 174t149.5 70q53 0 144 -35t121 -35q58 0 82 70h122q-4 -107 -63.5 -175.5t-147.5 -68.5
q-56 0 -136 36t-113 36q-75 0 -93 -72z" />
    <glyph glyph-name="adieresis" unicode="&#xe4;" horiz-adv-x="980" 
d="M963 242v-168q-149 -90 -246 -90q-131 0 -152 131q-75 -72 -137 -102.5t-137 -30.5q-103 0 -173.5 68t-70.5 169q0 57 25.5 105.5t66 85t109.5 72t137 61.5t168 59v33q0 67 -28.5 98t-90.5 31q-77 0 -152.5 -33.5t-170.5 -109.5v215q98 70 187.5 99.5t205.5 29.5
q344 0 344 -273v-385q0 -67 5 -84.5t24 -17.5q33 0 86 37zM553 244v227q-126 -46 -183 -88t-57 -102q0 -44 28.5 -72.5t74.5 -28.5q35 0 62.5 13t74.5 51zM686 1354q46 0 78.5 -32.5t32.5 -78.5t-32.5 -78t-78.5 -32t-78.5 32t-32.5 78t32.5 78.5t78.5 32.5zM295 1354
q46 0 78.5 -32.5t32.5 -78.5t-32.5 -78t-78.5 -32t-78.5 32t-32.5 78t32.5 78.5t78.5 32.5z" />
    <glyph glyph-name="aring" unicode="&#xe5;" horiz-adv-x="980" 
d="M963 242v-168q-149 -90 -246 -90q-131 0 -152 131q-75 -72 -137 -102.5t-137 -30.5q-103 0 -173.5 68t-70.5 169q0 57 25.5 105.5t66 85t109.5 72t137 61.5t168 59v33q0 67 -28.5 98t-90.5 31q-77 0 -152.5 -33.5t-170.5 -109.5v215q98 70 187.5 99.5t205.5 29.5
q344 0 344 -273v-385q0 -67 5 -84.5t24 -17.5q33 0 86 37zM553 244v227q-126 -46 -183 -88t-57 -102q0 -44 28.5 -72.5t74.5 -28.5q35 0 62.5 13t74.5 51zM492 1487q91 0 155 -64t64 -155t-64 -155t-155 -64t-155.5 64t-64.5 155t64.5 155t155.5 64zM492 1393
q-52 0 -88.5 -36.5t-36.5 -88.5t36.5 -88.5t88.5 -36.5t88 36t36 89t-36 89t-88 36z" />
    <glyph glyph-name="ae" unicode="&#xe6;" horiz-adv-x="1472" 
d="M96 614v222q192 129 373 129q155 0 266 -91q130 91 271 91q79 0 148.5 -33.5t123.5 -98.5t85.5 -169t31.5 -236h-523q0 -67 20 -118t53.5 -79.5t72.5 -42.5t82 -14q127 0 272 84v-168q-188 -108 -358 -108q-104 0 -201 37.5t-168 105.5q-158 -143 -326 -143
q-117 0 -194.5 67t-77.5 168q0 70 36.5 127.5t109 101.5t160.5 77.5t212 66.5v20q0 162 -131 162q-145 0 -338 -158zM565 219v230q-138 -62 -180.5 -96t-42.5 -93q0 -43 24 -69.5t62 -26.5q54 0 137 55zM872 563h248q0 230 -127 230q-71 0 -96 -56t-25 -174z" />
    <glyph glyph-name="ccedilla" unicode="&#xe7;" horiz-adv-x="874" 
d="M313 -188l88 194q-147 41 -237 167t-90 294q0 217 133.5 357.5t337.5 140.5q116 0 252 -64v-223q-102 61 -191 61q-98 0 -161.5 -73t-63.5 -187q0 -123 65 -198.5t170 -75.5q90 0 193 65v-227q-139 -56 -234 -59l-32 -74q56 -19 89.5 -63t33.5 -101q0 -93 -78.5 -155
t-214.5 -62h-140v147q86 0 127 17.5t41 56.5q0 28 -24.5 47t-63.5 15z" />
    <glyph glyph-name="egrave" unicode="&#xe8;" horiz-adv-x="960" 
d="M856 254v-178q-158 -94 -344 -94q-101 0 -180 31.5t-126.5 80t-78 113.5t-42 125.5t-11.5 122.5q0 221 119 365.5t301 144.5q175 0 284 -136.5t105 -400.5h-510q10 -121 71.5 -185.5t165.5 -64.5q116 0 246 76zM373 563h237q-3 234 -116 234q-59 0 -90 -61t-31 -173z
M692 1075h-153l-379 342h360z" />
    <glyph glyph-name="eacute" unicode="&#xe9;" horiz-adv-x="960" 
d="M856 254v-178q-158 -94 -344 -94q-101 0 -180 31.5t-126.5 80t-78 113.5t-42 125.5t-11.5 122.5q0 221 119 365.5t301 144.5q175 0 284 -136.5t105 -400.5h-510q10 -121 71.5 -185.5t165.5 -64.5q116 0 246 76zM373 563h237q-3 234 -116 234q-59 0 -90 -61t-31 -173z
M268 1075l172 342h361l-379 -342h-154z" />
    <glyph glyph-name="ecircumflex" unicode="&#xea;" horiz-adv-x="960" 
d="M856 254v-178q-158 -94 -344 -94q-101 0 -180 31.5t-126.5 80t-78 113.5t-42 125.5t-11.5 122.5q0 221 119 365.5t301 144.5q175 0 284 -136.5t105 -400.5h-510q10 -121 71.5 -185.5t165.5 -64.5q116 0 246 76zM373 563h237q-3 234 -116 234q-59 0 -90 -61t-31 -173z
M172 1067l176 350h264l176 -350h-182l-125 176l-127 -176h-182z" />
    <glyph glyph-name="edieresis" unicode="&#xeb;" horiz-adv-x="960" 
d="M856 254v-178q-158 -94 -344 -94q-101 0 -180 31.5t-126.5 80t-78 113.5t-42 125.5t-11.5 122.5q0 221 119 365.5t301 144.5q175 0 284 -136.5t105 -400.5h-510q10 -121 71.5 -185.5t165.5 -64.5q116 0 246 76zM373 563h237q-3 234 -116 234q-59 0 -90 -61t-31 -173z
M676 1354q46 0 78 -32.5t32 -78.5t-32 -78t-78 -32t-78.5 32t-32.5 78t32.5 78.5t78.5 32.5zM285 1354q46 0 78 -32.5t32 -78.5t-32 -78t-78 -32t-78.5 32t-32.5 78t32.5 78.5t78.5 32.5z" />
    <glyph glyph-name="igrave" unicode="&#xec;" horiz-adv-x="532" 
d="M119 0v946h295v-946h-295zM479 1075h-153l-379 342h360z" />
    <glyph glyph-name="iacute" unicode="&#xed;" horiz-adv-x="532" 
d="M119 0v946h295v-946h-295zM55 1075l172 342h361l-379 -342h-154z" />
    <glyph glyph-name="icircumflex" unicode="&#xee;" horiz-adv-x="532" 
d="M119 0v946h295v-946h-295zM-41 1067l176 350h264l176 -350h-182l-125 176l-127 -176h-182z" />
    <glyph glyph-name="idieresis" unicode="&#xef;" horiz-adv-x="532" 
d="M119 0v946h295v-946h-295zM463 1354q46 0 78 -32.5t32 -78.5t-32 -78t-78 -32t-78.5 32t-32.5 78t32.5 78.5t78.5 32.5zM72 1354q46 0 78 -32.5t32 -78.5t-32 -78t-78 -32t-78.5 32t-32.5 78t32.5 78.5t78.5 32.5z" />
    <glyph glyph-name="eth" unicode="&#xf0;" horiz-adv-x="1058" 
d="M279 1362h278q22 -18 80 -70l170 86l70 -69l-166 -88q117 -117 194 -297q43 -103 62.5 -205.5t19.5 -263.5q0 -209 -130 -341t-331 -132q-204 0 -330 134t-126 357q0 216 126.5 354t319.5 138q72 0 121 -19q-39 77 -113 178l-170 -88l-69 70l176 92q-55 56 -86.5 85
t-95.5 79zM377 475q0 -148 36.5 -213t114.5 -65t115 65t37 213q0 144 -37 209.5t-115 65.5q-79 0 -115 -65t-36 -210z" />
    <glyph glyph-name="ntilde" unicode="&#xf1;" horiz-adv-x="1087" 
d="M115 0v946h295v-133h4q104 152 266 152q138 0 219.5 -88.5t81.5 -249.5v-627h-295v580q0 170 -115 170q-101 0 -161 -152v-598h-295zM330 1120h-123q0 104 57 174t150 70q53 0 143.5 -35t120.5 -35q58 0 82 70h123q-4 -107 -63.5 -175.5t-147.5 -68.5q-56 0 -136.5 36
t-113.5 36q-74 0 -92 -72z" />
    <glyph glyph-name="ograve" unicode="&#xf2;" 
d="M993 469q0 -216 -129.5 -355t-331.5 -139q-199 0 -328.5 140.5t-129.5 353.5q0 115 39 210.5t103.5 157t146 95t169.5 33.5q91 0 174 -35t147 -97.5t102 -157t38 -206.5zM682 469q0 281 -150 281q-151 0 -151 -281q0 -144 37 -211.5t114 -67.5q78 0 114 67t36 212z
M745 1075h-153l-379 342h360z" />
    <glyph glyph-name="oacute" unicode="&#xf3;" 
d="M993 469q0 -216 -129.5 -355t-331.5 -139q-199 0 -328.5 140.5t-129.5 353.5q0 115 39 210.5t103.5 157t146 95t169.5 33.5q91 0 174 -35t147 -97.5t102 -157t38 -206.5zM682 469q0 281 -150 281q-151 0 -151 -281q0 -144 37 -211.5t114 -67.5q78 0 114 67t36 212z
M322 1075l172 342h360l-379 -342h-153z" />
    <glyph glyph-name="ocircumflex" unicode="&#xf4;" 
d="M993 469q0 -216 -129.5 -355t-331.5 -139q-199 0 -328.5 140.5t-129.5 353.5q0 115 39 210.5t103.5 157t146 95t169.5 33.5q91 0 174 -35t147 -97.5t102 -157t38 -206.5zM682 469q0 281 -150 281q-151 0 -151 -281q0 -144 37 -211.5t114 -67.5q78 0 114 67t36 212z
M225 1067l176 350h265l176 -350h-183l-124 176l-127 -176h-183z" />
    <glyph glyph-name="otilde" unicode="&#xf5;" 
d="M993 469q0 -216 -129.5 -355t-331.5 -139q-199 0 -328.5 140.5t-129.5 353.5q0 115 39 210.5t103.5 157t146 95t169.5 33.5q91 0 174 -35t147 -97.5t102 -157t38 -206.5zM682 469q0 281 -150 281q-151 0 -151 -281q0 -144 37 -211.5t114 -67.5q78 0 114 67t36 212z
M319 1120h-122q0 104 56.5 174t149.5 70q53 0 144 -35t121 -35q58 0 82 70h122q-4 -107 -63 -175.5t-147 -68.5q-56 0 -136.5 36t-113.5 36q-75 0 -93 -72z" />
    <glyph glyph-name="odieresis" unicode="&#xf6;" 
d="M993 469q0 -216 -129.5 -355t-331.5 -139q-199 0 -328.5 140.5t-129.5 353.5q0 115 39 210.5t103.5 157t146 95t169.5 33.5q91 0 174 -35t147 -97.5t102 -157t38 -206.5zM682 469q0 281 -150 281q-151 0 -151 -281q0 -144 37 -211.5t114 -67.5q78 0 114 67t36 212z
M729 1354q46 0 78.5 -32.5t32.5 -78.5t-32.5 -78t-78.5 -32t-78.5 32t-32.5 78t32.5 78.5t78.5 32.5zM338 1354q46 0 78.5 -32.5t32.5 -78.5t-32.5 -78t-78.5 -32t-78.5 32t-32.5 78t32.5 78.5t78.5 32.5z" />
    <glyph glyph-name="divide" unicode="&#xf7;" horiz-adv-x="1366" 
d="M684 412q60 0 102.5 -43t42.5 -103t-42.5 -102.5t-102.5 -42.5t-102.5 42.5t-42.5 102.5t42.5 103t102.5 43zM684 1245q60 0 102.5 -42.5t42.5 -102.5t-42.5 -103t-102.5 -43t-102.5 43t-42.5 103t42.5 102.5t102.5 42.5zM123 807h1120v-248h-1120v248z" />
    <glyph glyph-name="oslash" unicode="&#xf8;" 
d="M956 928l-86 -117q123 -136 123 -342q0 -216 -129.5 -355t-331.5 -139q-131 0 -235 68l-88 -119l-84 62l90 120q-67 65 -104 159.5t-37 203.5q0 115 39 210.5t103.5 157t146 95t169.5 33.5q147 0 261 -82l77 106zM676 551l-238 -320q33 -41 94 -41q78 0 114 67t36 212
q0 47 -6 82zM391 344l252 340q-35 66 -111 66q-151 0 -151 -281q0 -70 10 -125z" />
    <glyph glyph-name="ugrave" unicode="&#xf9;" horiz-adv-x="1087" 
d="M678 0v121h-4q-78 -139 -262 -139q-63 0 -117 20t-97.5 61t-68.5 111.5t-25 163.5v608h295v-592q0 -82 27.5 -119.5t87.5 -37.5q59 0 101 40t63 109v600h295v-946h-295zM756 1075h-154l-379 342h361z" />
    <glyph glyph-name="uacute" unicode="&#xfa;" horiz-adv-x="1087" 
d="M678 0v121h-4q-78 -139 -262 -139q-63 0 -117 20t-97.5 61t-68.5 111.5t-25 163.5v608h295v-592q0 -82 27.5 -119.5t87.5 -37.5q59 0 101 40t63 109v600h295v-946h-295zM332 1075l172 342h360l-379 -342h-153z" />
    <glyph glyph-name="ucircumflex" unicode="&#xfb;" horiz-adv-x="1087" 
d="M678 0v121h-4q-78 -139 -262 -139q-63 0 -117 20t-97.5 61t-68.5 111.5t-25 163.5v608h295v-592q0 -82 27.5 -119.5t87.5 -37.5q59 0 101 40t63 109v600h295v-946h-295zM236 1067l176 350h264l176 -350h-182l-125 176l-127 -176h-182z" />
    <glyph glyph-name="udieresis" unicode="&#xfc;" horiz-adv-x="1087" 
d="M678 0v121h-4q-78 -139 -262 -139q-63 0 -117 20t-97.5 61t-68.5 111.5t-25 163.5v608h295v-592q0 -82 27.5 -119.5t87.5 -37.5q59 0 101 40t63 109v600h295v-946h-295zM739 1354q46 0 78.5 -32.5t32.5 -78.5t-32.5 -78t-78.5 -32t-78 32t-32 78t32 78.5t78 32.5z
M348 1354q46 0 78.5 -32.5t32.5 -78.5t-32.5 -78t-78.5 -32t-78 32t-32 78t32 78.5t78 32.5z" />
    <glyph glyph-name="yacute" unicode="&#xfd;" horiz-adv-x="980" 
d="M86 -451l256 625l-332 772h299l180 -432l170 432h299l-573 -1397h-299zM279 1075l172 342h360l-379 -342h-153z" />
    <glyph glyph-name="thorn" unicode="&#xfe;" horiz-adv-x="1110" 
d="M119 -451v1850h295v-543q124 109 256 109q157 0 258.5 -141.5t101.5 -358.5q0 -207 -102 -345t-254 -138q-125 0 -260 106v-539h-295zM414 655v-362q73 -82 151 -82q72 0 115 73t43 197q0 127 -39.5 198t-108.5 71q-43 0 -80 -22t-81 -73z" />
    <glyph glyph-name="ydieresis" unicode="&#xff;" horiz-adv-x="980" 
d="M86 -451l256 625l-332 772h299l180 -432l170 432h299l-573 -1397h-299zM686 1354q46 0 78.5 -32.5t32.5 -78.5t-32.5 -78t-78.5 -32t-78.5 32t-32.5 78t32.5 78.5t78.5 32.5zM295 1354q46 0 78.5 -32.5t32.5 -78.5t-32.5 -78t-78.5 -32t-78.5 32t-32.5 78t32.5 78.5
t78.5 32.5z" />
    <glyph glyph-name="Amacron" unicode="&#x100;" horiz-adv-x="1087" 
d="M12 0l367 1407h330l366 -1407h-307l-66 291h-315l-68 -291h-307zM432 518h223l-108 508h-4zM248 1626v154h590v-154h-590z" />
    <glyph glyph-name="amacron" unicode="&#x101;" horiz-adv-x="980" 
d="M963 242v-168q-149 -90 -246 -90q-131 0 -152 131q-75 -72 -137 -102.5t-137 -30.5q-103 0 -173.5 68t-70.5 169q0 57 25.5 105.5t66 85t109.5 72t137 61.5t168 59v33q0 67 -28.5 98t-90.5 31q-77 0 -152.5 -33.5t-170.5 -109.5v215q98 70 187.5 99.5t205.5 29.5
q344 0 344 -273v-385q0 -67 5 -84.5t24 -17.5q33 0 86 37zM553 244v227q-126 -46 -183 -88t-57 -102q0 -44 28.5 -72.5t74.5 -28.5q35 0 62.5 13t74.5 51zM184 1200v154h590v-154h-590z" />
    <glyph glyph-name="Abreve" unicode="&#x102;" horiz-adv-x="1087" 
d="M12 0l367 1407h330l366 -1407h-307l-66 291h-315l-68 -291h-307zM432 518h223l-108 508h-4zM219 1843h100q60 -153 222 -153q158 0 227 153h100q-25 -160 -108 -241.5t-221 -81.5q-75 0 -135.5 28t-98 75t-59.5 102.5t-27 117.5z" />
    <glyph glyph-name="abreve" unicode="&#x103;" horiz-adv-x="980" 
d="M963 242v-168q-149 -90 -246 -90q-131 0 -152 131q-75 -72 -137 -102.5t-137 -30.5q-103 0 -173.5 68t-70.5 169q0 57 25.5 105.5t66 85t109.5 72t137 61.5t168 59v33q0 67 -28.5 98t-90.5 31q-77 0 -152.5 -33.5t-170.5 -109.5v215q98 70 187.5 99.5t205.5 29.5
q344 0 344 -273v-385q0 -67 5 -84.5t24 -17.5q33 0 86 37zM553 244v227q-126 -46 -183 -88t-57 -102q0 -44 28.5 -72.5t74.5 -28.5q35 0 62.5 13t74.5 51zM156 1417h100q60 -153 221 -153q159 0 228 153h100q-25 -160 -108.5 -241.5t-221.5 -81.5q-75 0 -135.5 28t-98 75
t-59 102.5t-26.5 117.5z" />
    <glyph glyph-name="Aogonek" unicode="&#x104;" horiz-adv-x="1087" 
d="M12 0l367 1407h330l366 -1407h-80q-10 -61 -10 -121q0 -75 31.5 -116.5t89.5 -41.5q36 0 113 27v-160q-107 -47 -187 -47q-103 0 -162 65t-59 179q0 88 33 215h-76l-66 291h-315l-68 -291h-307zM432 518h223l-108 508h-4z" />
    <glyph glyph-name="aogonek" unicode="&#x105;" horiz-adv-x="980" 
d="M963 242v-168q-121 -71 -185 -84q-8 -57 -8 -115q0 -61 22 -91t72 -30q29 0 99 25v-154q-93 -41 -162 -41q-89 0 -141 58t-52 159q0 86 29 199q-60 28 -72 115q-75 -72 -137 -102.5t-137 -30.5q-103 0 -173.5 68t-70.5 169q0 57 25.5 105.5t66 85t109.5 72t137 61.5
t168 59v33q0 67 -28.5 98t-90.5 31q-77 0 -152.5 -33.5t-170.5 -109.5v215q98 70 187.5 99.5t205.5 29.5q344 0 344 -273v-385q0 -67 5 -84.5t24 -17.5q33 0 86 37zM553 244v227q-126 -46 -183 -88t-57 -102q0 -44 28.5 -72.5t74.5 -28.5q35 0 62.5 13t74.5 51z" />
    <glyph glyph-name="Cacute" unicode="&#x106;" 
d="M969 358v-272q-132 -104 -326 -104q-253 0 -410 192t-157 512q0 332 154.5 531.5t412.5 199.5q165 0 315 -78v-268q-142 82 -239 82q-144 0 -232 -113.5t-88 -334.5q0 -223 77.5 -341t225.5 -118q119 0 267 112zM451 1501l172 342h360l-379 -342h-153z" />
    <glyph glyph-name="cacute" unicode="&#x107;" horiz-adv-x="874" 
d="M809 270v-227q-148 -61 -264 -61q-202 0 -336.5 138t-134.5 347q0 217 133.5 357.5t337.5 140.5q116 0 252 -64v-223q-102 61 -191 61q-98 0 -161.5 -73t-63.5 -187q0 -123 65 -198.5t170 -75.5q90 0 193 65zM334 1075l172 342h360l-379 -342h-153z" />
    <glyph glyph-name="Ccircumflex" unicode="&#x108;" 
d="M969 358v-272q-132 -104 -326 -104q-253 0 -410 192t-157 512q0 332 154.5 531.5t412.5 199.5q165 0 315 -78v-268q-142 82 -239 82q-144 0 -232 -113.5t-88 -334.5q0 -223 77.5 -341t225.5 -118q119 0 267 112zM297 1493l176 350h264l176 -350h-182l-125 176l-127 -176
h-182z" />
    <glyph glyph-name="ccircumflex" unicode="&#x109;" horiz-adv-x="874" 
d="M809 270v-227q-148 -61 -264 -61q-202 0 -336.5 138t-134.5 347q0 217 133.5 357.5t337.5 140.5q116 0 252 -64v-223q-102 61 -191 61q-98 0 -161.5 -73t-63.5 -187q0 -123 65 -198.5t170 -75.5q90 0 193 65zM176 1067l176 350h264l177 -350h-183l-125 176l-127 -176
h-182z" />
    <glyph glyph-name="Cdotaccent" unicode="&#x10a;" 
d="M969 358v-272q-132 -104 -326 -104q-253 0 -410 192t-157 512q0 332 154.5 531.5t412.5 199.5q165 0 315 -78v-268q-142 82 -239 82q-144 0 -232 -113.5t-88 -334.5q0 -223 77.5 -341t225.5 -118q119 0 267 112zM610 1780q46 0 78.5 -32.5t32.5 -78.5t-32.5 -78
t-78.5 -32t-78 32t-32 78t32 78.5t78 32.5z" />
    <glyph glyph-name="cdotaccent" unicode="&#x10b;" horiz-adv-x="874" 
d="M809 270v-227q-148 -61 -264 -61q-202 0 -336.5 138t-134.5 347q0 217 133.5 357.5t337.5 140.5q116 0 252 -64v-223q-102 61 -191 61q-98 0 -161.5 -73t-63.5 -187q0 -123 65 -198.5t170 -75.5q90 0 193 65zM498 1354q46 0 78 -32.5t32 -78.5t-32 -78t-78 -32t-78.5 32
t-32.5 78t32.5 78.5t78.5 32.5z" />
    <glyph glyph-name="Ccaron" unicode="&#x10c;" 
d="M969 358v-272q-132 -104 -326 -104q-253 0 -410 192t-157 512q0 332 154.5 531.5t412.5 199.5q165 0 315 -78v-268q-142 82 -239 82q-144 0 -232 -113.5t-88 -334.5q0 -223 77.5 -341t225.5 -118q119 0 267 112zM287 1843h182l127 -176l125 176h182l-176 -350h-264z" />
    <glyph glyph-name="ccaron" unicode="&#x10d;" horiz-adv-x="874" 
d="M809 270v-227q-148 -61 -264 -61q-202 0 -336.5 138t-134.5 347q0 217 133.5 357.5t337.5 140.5q116 0 252 -64v-223q-102 61 -191 61q-98 0 -161.5 -73t-63.5 -187q0 -123 65 -198.5t170 -75.5q90 0 193 65zM170 1417h182l127 -176l125 176h182l-176 -350h-264z" />
    <glyph glyph-name="Dcaron" unicode="&#x10e;" horiz-adv-x="1236" 
d="M135 0v1399h414q127 0 230.5 -39t172 -105t114.5 -155.5t66.5 -186.5t20.5 -202q0 -101 -19 -198t-64 -191t-111 -164.5t-167.5 -114t-226.5 -43.5h-430zM453 236h75q84 0 143.5 31.5t93.5 93t49 142.5t15 191q0 469 -284 469h-92v-927zM268 1843h183l127 -176l124 176
h183l-176 -350h-265z" />
    <glyph glyph-name="dcaron" unicode="&#x10f;" horiz-adv-x="1355" 
d="M696 0v94q-65 -60 -125.5 -86t-130.5 -26q-157 0 -260.5 139.5t-103.5 351.5q0 217 104.5 354.5t268.5 137.5q68 0 123 -23.5t124 -81.5v539h295v-1399h-295zM696 301v361q-43 43 -75.5 60t-73.5 17q-78 0 -121 -69.5t-43 -198.5q0 -127 41 -197.5t115 -70.5q86 0 157 98
zM1069 793v51q50 43 75 101t32 149q-55 22 -85 63.5t-30 97.5q0 67 47.5 114.5t114.5 47.5q86 0 139 -64.5t53 -170.5q0 -145 -88.5 -245t-257.5 -144z" />
    <glyph glyph-name="Dcroat" unicode="&#x110;" horiz-adv-x="1236" 
d="M135 0v602h-160v195h160v602h414q127 0 230.5 -39t172 -105t114.5 -155.5t66.5 -186.5t20.5 -202q0 -101 -19 -198t-64 -191t-111 -164.5t-167.5 -114t-226.5 -43.5h-430zM453 236h75q84 0 143.5 31.5t93.5 93t49 142.5t15 191q0 469 -284 469h-92v-366h245v-195h-245
v-366z" />
    <glyph glyph-name="dcroat" unicode="&#x111;" horiz-adv-x="1110" 
d="M395 1102v168h301v129h295v-129h119v-168h-119v-1102h-295v94q-65 -60 -125.5 -86t-130.5 -26q-157 0 -260.5 139.5t-103.5 351.5q0 217 104.5 354.5t268.5 137.5q68 0 123 -23.5t124 -81.5v242h-301zM696 301v361q-43 43 -75.5 60t-73.5 17q-78 0 -121 -69.5t-43 -198.5
q0 -127 41 -197.5t115 -70.5q86 0 157 98z" />
    <glyph glyph-name="Emacron" unicode="&#x112;" horiz-adv-x="1044" 
d="M135 0v1399h815v-242h-497v-326h462v-241h-462v-348h516v-242h-834zM248 1626v154h590v-154h-590z" />
    <glyph glyph-name="emacron" unicode="&#x113;" horiz-adv-x="960" 
d="M856 254v-178q-158 -94 -344 -94q-101 0 -180 31.5t-126.5 80t-78 113.5t-42 125.5t-11.5 122.5q0 221 119 365.5t301 144.5q175 0 284 -136.5t105 -400.5h-510q10 -121 71.5 -185.5t165.5 -64.5q116 0 246 76zM373 563h237q-3 234 -116 234q-59 0 -90 -61t-31 -173z
M184 1200v154h590v-154h-590z" />
    <glyph glyph-name="Ebreve" unicode="&#x114;" horiz-adv-x="1044" 
d="M135 0v1399h815v-242h-497v-326h462v-241h-462v-348h516v-242h-834zM217 1843h100q60 -153 222 -153q158 0 227 153h100q-25 -160 -108 -241.5t-221 -81.5q-75 0 -135.5 28t-98 75t-59.5 102.5t-27 117.5z" />
    <glyph glyph-name="ebreve" unicode="&#x115;" horiz-adv-x="960" 
d="M856 254v-178q-158 -94 -344 -94q-101 0 -180 31.5t-126.5 80t-78 113.5t-42 125.5t-11.5 122.5q0 221 119 365.5t301 144.5q175 0 284 -136.5t105 -400.5h-510q10 -121 71.5 -185.5t165.5 -64.5q116 0 246 76zM373 563h237q-3 234 -116 234q-59 0 -90 -61t-31 -173z
M156 1417h100q60 -153 221 -153q159 0 228 153h100q-25 -160 -108.5 -241.5t-221.5 -81.5q-75 0 -135.5 28t-98 75t-59 102.5t-26.5 117.5z" />
    <glyph glyph-name="Edotaccent" unicode="&#x116;" horiz-adv-x="1044" 
d="M135 0v1399h815v-242h-497v-326h462v-241h-462v-348h516v-242h-834zM543 1780q46 0 78 -32.5t32 -78.5t-32 -78t-78 -32t-78.5 32t-32.5 78t32.5 78.5t78.5 32.5z" />
    <glyph glyph-name="edotaccent" unicode="&#x117;" horiz-adv-x="960" 
d="M856 254v-178q-158 -94 -344 -94q-101 0 -180 31.5t-126.5 80t-78 113.5t-42 125.5t-11.5 122.5q0 221 119 365.5t301 144.5q175 0 284 -136.5t105 -400.5h-510q10 -121 71.5 -185.5t165.5 -64.5q116 0 246 76zM373 563h237q-3 234 -116 234q-59 0 -90 -61t-31 -173z
M479 1354q46 0 78.5 -32.5t32.5 -78.5t-32.5 -78t-78.5 -32t-78 32t-32 78t32 78.5t78 32.5z" />
    <glyph glyph-name="Eogonek" unicode="&#x118;" horiz-adv-x="1044" 
d="M135 0v1399h815v-242h-497v-326h462v-241h-462v-348h516v-242h-148q-10 -61 -10 -121q0 -75 31.5 -116.5t89.5 -41.5q36 0 112 27v-160q-107 -47 -186 -47q-103 0 -162 65t-59 179q0 88 33 215h-535z" />
    <glyph glyph-name="eogonek" unicode="&#x119;" horiz-adv-x="960" 
d="M856 254v-178q-66 -42 -129 -62q-12 -83 -12 -139q0 -61 22 -91t72 -30q28 0 98 25v-154q-93 -41 -162 -41q-89 0 -140.5 58t-51.5 159q0 83 25 185q-40 -4 -66 -4q-101 0 -180 31.5t-126.5 80t-78 113.5t-42 125.5t-11.5 122.5q0 221 119 365.5t301 144.5
q175 0 284 -136.5t105 -400.5h-510q10 -121 71.5 -185.5t165.5 -64.5q116 0 246 76zM373 563h237q-3 234 -116 234q-59 0 -90 -61t-31 -173z" />
    <glyph glyph-name="Ecaron" unicode="&#x11a;" horiz-adv-x="1044" 
d="M135 0v1399h815v-242h-497v-326h462v-241h-462v-348h516v-242h-834zM233 1843h183l127 -176l125 176h182l-176 -350h-264z" />
    <glyph glyph-name="ecaron" unicode="&#x11b;" horiz-adv-x="960" 
d="M856 254v-178q-158 -94 -344 -94q-101 0 -180 31.5t-126.5 80t-78 113.5t-42 125.5t-11.5 122.5q0 221 119 365.5t301 144.5q175 0 284 -136.5t105 -400.5h-510q10 -121 71.5 -185.5t165.5 -64.5q116 0 246 76zM373 563h237q-3 234 -116 234q-59 0 -90 -61t-31 -173z
M172 1417h182l127 -176l125 176h182l-176 -350h-264z" />
    <glyph glyph-name="Gcircumflex" unicode="&#x11c;" horiz-adv-x="1216" 
d="M1126 754v-609q-215 -163 -454 -163q-170 0 -305.5 89.5t-212 248.5t-76.5 358q0 212 80.5 381t224.5 263.5t324 94.5q189 0 370 -110v-291q-94 77 -164.5 107t-162.5 30q-166 0 -257.5 -122.5t-91.5 -348.5q0 -201 70.5 -318.5t202.5 -117.5q71 0 135 37v235h-158v236
h475zM352 1493l176 350h265l176 -350h-183l-124 176l-127 -176h-183z" />
    <glyph glyph-name="gcircumflex" unicode="&#x11d;" horiz-adv-x="980" 
d="M975 791h-187q51 -55 73 -108t22 -118q0 -126 -95 -221q-44 -44 -107.5 -68t-119.5 -29t-106.5 -9t-80.5 -17.5t-30 -44.5q0 -32 40.5 -44t106 -13.5t137 -5t146.5 -26.5t121 -69q78 -78 78 -190q0 -134 -117.5 -218.5t-351.5 -84.5q-107 0 -190.5 18t-132 45t-80.5 63
t-43 67t-11 61q0 75 55.5 130.5t155.5 78.5v4q-137 43 -137 153q0 56 39.5 98t115.5 62q-92 58 -135 132t-43 173q0 152 116.5 253.5t313.5 101.5h447v-174zM365 594q0 -203 133 -203q131 0 131 201q0 92 -34 141t-99 49q-63 0 -97 -48.5t-34 -139.5zM299 -197
q0 -116 217 -116q215 0 215 112q0 119 -217 119q-98 0 -156.5 -31t-58.5 -84zM193 1067l176 350h264l176 -350h-182l-125 176l-127 -176h-182z" />
    <glyph glyph-name="Gbreve" unicode="&#x11e;" horiz-adv-x="1216" 
d="M1126 754v-609q-215 -163 -454 -163q-170 0 -305.5 89.5t-212 248.5t-76.5 358q0 212 80.5 381t224.5 263.5t324 94.5q189 0 370 -110v-291q-94 77 -164.5 107t-162.5 30q-166 0 -257.5 -122.5t-91.5 -348.5q0 -201 70.5 -318.5t202.5 -117.5q71 0 135 37v235h-158v236
h475zM354 1843h101q60 -153 221 -153q158 0 227 153h101q-25 -160 -108.5 -241.5t-221.5 -81.5q-75 0 -135.5 28t-98 75t-59.5 102.5t-27 117.5z" />
    <glyph glyph-name="gbreve" unicode="&#x11f;" horiz-adv-x="980" 
d="M975 791h-187q51 -55 73 -108t22 -118q0 -126 -95 -221q-44 -44 -107.5 -68t-119.5 -29t-106.5 -9t-80.5 -17.5t-30 -44.5q0 -32 40.5 -44t106 -13.5t137 -5t146.5 -26.5t121 -69q78 -78 78 -190q0 -134 -117.5 -218.5t-351.5 -84.5q-107 0 -190.5 18t-132 45t-80.5 63
t-43 67t-11 61q0 75 55.5 130.5t155.5 78.5v4q-137 43 -137 153q0 56 39.5 98t115.5 62q-92 58 -135 132t-43 173q0 152 116.5 253.5t313.5 101.5h447v-174zM365 594q0 -203 133 -203q131 0 131 201q0 92 -34 141t-99 49q-63 0 -97 -48.5t-34 -139.5zM299 -197
q0 -116 217 -116q215 0 215 112q0 119 -217 119q-98 0 -156.5 -31t-58.5 -84zM176 1417h100q60 -153 222 -153q158 0 227 153h100q-25 -160 -108 -241.5t-221 -81.5q-75 0 -135.5 28t-98 75t-59.5 102.5t-27 117.5z" />
    <glyph glyph-name="Gdotaccent" unicode="&#x120;" horiz-adv-x="1216" 
d="M1126 754v-609q-215 -163 -454 -163q-170 0 -305.5 89.5t-212 248.5t-76.5 358q0 212 80.5 381t224.5 263.5t324 94.5q189 0 370 -110v-291q-94 77 -164.5 107t-162.5 30q-166 0 -257.5 -122.5t-91.5 -348.5q0 -201 70.5 -318.5t202.5 -117.5q71 0 135 37v235h-158v236
h475zM690 1780q46 0 78.5 -32.5t32.5 -78.5t-32.5 -78t-78.5 -32t-78 32t-32 78t32 78.5t78 32.5z" />
    <glyph glyph-name="gdotaccent" unicode="&#x121;" horiz-adv-x="980" 
d="M975 791h-187q51 -55 73 -108t22 -118q0 -126 -95 -221q-44 -44 -107.5 -68t-119.5 -29t-106.5 -9t-80.5 -17.5t-30 -44.5q0 -32 40.5 -44t106 -13.5t137 -5t146.5 -26.5t121 -69q78 -78 78 -190q0 -134 -117.5 -218.5t-351.5 -84.5q-107 0 -190.5 18t-132 45t-80.5 63
t-43 67t-11 61q0 75 55.5 130.5t155.5 78.5v4q-137 43 -137 153q0 56 39.5 98t115.5 62q-92 58 -135 132t-43 173q0 152 116.5 253.5t313.5 101.5h447v-174zM365 594q0 -203 133 -203q131 0 131 201q0 92 -34 141t-99 49q-63 0 -97 -48.5t-34 -139.5zM299 -197
q0 -116 217 -116q215 0 215 112q0 119 -217 119q-98 0 -156.5 -31t-58.5 -84zM500 1354q46 0 78 -32.5t32 -78.5t-32 -78t-78 -32t-78.5 32t-32.5 78t32.5 78.5t78.5 32.5z" />
    <glyph glyph-name="Gcommaaccent" unicode="&#x122;" horiz-adv-x="1216" 
d="M1126 754v-609q-215 -163 -454 -163q-170 0 -305.5 89.5t-212 248.5t-76.5 358q0 212 80.5 381t224.5 263.5t324 94.5q189 0 370 -110v-291q-94 77 -164.5 107t-162.5 30q-166 0 -257.5 -122.5t-91.5 -348.5q0 -201 70.5 -318.5t202.5 -117.5q71 0 135 37v235h-158v236
h475zM494 -444l4 112q60 -14 96 -14q63 0 63 70q0 30 -22.5 45.5t-52.5 15t-58 -1.5l13 115q57 8 100 8q209 0 209 -170q0 -93 -57.5 -147t-174.5 -54q-66 0 -120 21z" />
    <glyph glyph-name="gcommaaccent" unicode="&#x123;" horiz-adv-x="980" 
d="M637 1493v-35q-64 -55 -72 -168q78 -32 78 -110q0 -44 -32.5 -76.5t-78.5 -32.5q-59 0 -95 44t-36 116q0 97 60.5 164t175.5 98zM975 791h-187q51 -55 73 -108t22 -118q0 -126 -95 -221q-44 -44 -107.5 -68t-119.5 -29t-106.5 -9t-80.5 -17.5t-30 -44.5q0 -32 40.5 -44
t106 -13.5t137 -5t146.5 -26.5t121 -69q78 -78 78 -190q0 -134 -117.5 -218.5t-351.5 -84.5q-107 0 -190.5 18t-132 45t-80.5 63t-43 67t-11 61q0 75 55.5 130.5t155.5 78.5v4q-137 43 -137 153q0 56 39.5 98t115.5 62q-92 58 -135 132t-43 173q0 152 116.5 253.5
t313.5 101.5h447v-174zM365 594q0 -203 133 -203q131 0 131 201q0 92 -34 141t-99 49q-63 0 -97 -48.5t-34 -139.5zM299 -197q0 -116 217 -116q215 0 215 112q0 119 -217 119q-98 0 -156.5 -31t-58.5 -84z" />
    <glyph glyph-name="Hcircumflex" unicode="&#x124;" horiz-adv-x="1259" 
d="M137 0v1399h318v-572h350v572h317v-1399h-317v586h-350v-586h-318zM322 1493l176 350h264l176 -350h-182l-125 176l-127 -176h-182z" />
    <glyph glyph-name="hcircumflex" unicode="&#x125;" horiz-adv-x="1087" 
d="M115 0v1399h295v-576h4q99 142 262 142q59 0 111 -19t96 -58t70 -109t26 -163v-616h-295v580q0 88 -25.5 129t-87.5 41q-51 0 -82.5 -29t-78.5 -115v-606h-295zM215 1493l176 350h264l176 -350h-182l-125 176l-127 -176h-182z" />
    <glyph glyph-name="Hbar" unicode="&#x126;" horiz-adv-x="1259" 
d="M0 1016v194h137v189h318v-189h350v189h317v-189h138v-194h-138v-1016h-317v586h-350v-586h-318v1016h-137zM455 827h350v189h-350v-189z" />
    <glyph glyph-name="hbar" unicode="&#x127;" horiz-adv-x="1087" 
d="M0 1102v168h115v129h295v-129h301v-168h-301v-279h4q99 142 262 142q59 0 111 -19t96 -58t70 -109t26 -163v-616h-295v580q0 88 -25.5 129t-87.5 41q-51 0 -82.5 -29t-78.5 -115v-606h-295v1102h-115z" />
    <glyph glyph-name="Itilde" unicode="&#x128;" horiz-adv-x="598" 
d="M139 0v1399h318v-1399h-318zM84 1546h-123q0 104 57 174t150 70q53 0 143.5 -35t120.5 -35q58 0 82 70h123q-4 -107 -63.5 -175.5t-147.5 -68.5q-56 0 -136.5 36t-113.5 36q-74 0 -92 -72z" />
    <glyph glyph-name="itilde" unicode="&#x129;" horiz-adv-x="532" 
d="M119 0v946h295v-946h-295zM51 1120h-123q0 104 57 174t150 70q53 0 143.5 -35t120.5 -35q58 0 82 70h123q-4 -107 -63.5 -175.5t-147.5 -68.5q-56 0 -136.5 36t-113.5 36q-74 0 -92 -72z" />
    <glyph glyph-name="Imacron" unicode="&#x12a;" horiz-adv-x="598" 
d="M139 0v1399h318v-1399h-318zM4 1626v154h590v-154h-590z" />
    <glyph glyph-name="imacron" unicode="&#x12b;" horiz-adv-x="532" 
d="M119 0v946h295v-946h-295zM-29 1200v154h590v-154h-590z" />
    <glyph glyph-name="Ibreve" unicode="&#x12c;" horiz-adv-x="598" 
d="M139 0v1399h318v-1399h-318zM-25 1843h101q60 -153 221 -153q158 0 227 153h101q-25 -160 -108.5 -241.5t-221.5 -81.5q-75 0 -135.5 28t-98 75t-59.5 102.5t-27 117.5z" />
    <glyph glyph-name="ibreve" unicode="&#x12d;" horiz-adv-x="532" 
d="M119 0v946h295v-946h-295zM-57 1417h100q60 -153 221 -153q159 0 228 153h100q-25 -160 -108.5 -241.5t-221.5 -81.5q-75 0 -135.5 28t-98 75t-59 102.5t-26.5 117.5z" />
    <glyph glyph-name="Iogonek" unicode="&#x12e;" horiz-adv-x="598" 
d="M139 0v1399h318v-1399h-86q-11 -67 -11 -121q0 -75 31.5 -116.5t89.5 -41.5q37 0 113 27v-160q-107 -47 -186 -47q-103 0 -162.5 65t-59.5 179q0 88 33 215h-80z" />
    <glyph glyph-name="iogonek" unicode="&#x12f;" horiz-adv-x="532" 
d="M119 0v946h295v-946h-88q-9 -70 -9 -125q0 -61 22.5 -91t72.5 -30q28 0 98 25v-154q-93 -41 -162 -41q-89 0 -140.5 58t-51.5 159q0 89 28 199h-65zM268 1411q68 0 115 -47.5t47 -114.5q0 -68 -47.5 -116t-114.5 -48q-68 0 -116 48.5t-48 115.5t48 114.5t116 47.5z" />
    <glyph glyph-name="Idotaccent" unicode="&#x130;" horiz-adv-x="598" 
d="M139 0v1399h318v-1399h-318zM299 1780q46 0 78.5 -32.5t32.5 -78.5t-32.5 -78t-78.5 -32t-78.5 32t-32.5 78t32.5 78.5t78.5 32.5z" />
    <glyph glyph-name="dotlessi" unicode="&#x131;" horiz-adv-x="532" 
d="M119 0v946h295v-946h-295z" />
    <glyph glyph-name="IJ" unicode="&#x132;" horiz-adv-x="1196" 
d="M139 0v1399h318v-1399h-318zM561 -446l-18 256q43 -11 59 -11q137 0 137 185v1415h318v-1397q0 -112 -22.5 -199t-57 -138t-81.5 -84t-89.5 -44.5t-87.5 -11.5q-67 0 -158 29z" />
    <glyph glyph-name="ij" unicode="&#x133;" horiz-adv-x="1064" 
d="M119 0v946h295v-946h-295zM268 1411q68 0 115 -47.5t47 -114.5q0 -68 -47.5 -116t-114.5 -48q-68 0 -116 48.5t-48 115.5t48 114.5t116 47.5zM604 -475l-78 258q79 31 104 69t25 117v977h295v-960q0 -96 -17 -169t-45.5 -121.5t-74.5 -83.5t-94.5 -54t-114.5 -33z
M801 1411q67 0 114.5 -47.5t47.5 -114.5q0 -68 -47.5 -116t-114.5 -48t-115.5 48.5t-48.5 115.5t48 114.5t116 47.5z" />
    <glyph glyph-name="Jcircumflex" unicode="&#x134;" horiz-adv-x="598" 
d="M-37 -446l-18 256q43 -11 59 -11q137 0 137 185v1415h318v-1397q0 -112 -22.5 -199t-57 -138t-81.5 -84t-89.5 -44.5t-87.5 -11.5q-67 0 -158 29zM-8 1493l176 350h264l176 -350h-182l-125 176l-127 -176h-182z" />
    <glyph glyph-name="jcircumflex" unicode="&#x135;" horiz-adv-x="532" 
d="M72 -475l-78 258q79 31 104 69t25 117v977h295v-960q0 -96 -17 -169t-45.5 -121.5t-74.5 -83.5t-94.5 -54t-114.5 -33zM-41 1067l176 350h264l176 -350h-182l-125 176l-127 -176h-182z" />
    <glyph glyph-name="Kcommaaccent" unicode="&#x136;" horiz-adv-x="1193" 
d="M111 0v1399h317v-678h4l350 678h318l-348 -666l436 -733h-354l-402 676h-4v-676h-317zM461 -444l4 112q60 -14 96 -14q64 0 64 70q0 30 -22.5 45.5t-52.5 15t-58 -1.5l12 115q57 8 100 8q209 0 209 -170q0 -93 -57 -147t-174 -54q-67 0 -121 21z" />
    <glyph glyph-name="kcommaaccent" unicode="&#x137;" 
d="M119 0v1399h295v-926h4l284 473h310l-279 -465l330 -481h-322l-323 473h-4v-473h-295zM391 -410l4 103q49 -15 68 -15q51 0 51 64q0 27 -16 40.5t-37.5 13.5t-44.5 -1l10 103q45 8 88 8q168 0 168 -154q0 -84 -46 -132t-140 -48q-63 0 -105 18z" />
    <glyph glyph-name="kgreenlandic" unicode="&#x138;" 
d="M119 0v946h295v-473h4l284 473h310l-279 -465l330 -481h-322l-323 473h-4v-473h-295z" />
    <glyph glyph-name="Lacute" unicode="&#x139;" horiz-adv-x="980" 
d="M135 0v1399h318v-1147h512v-252h-830zM223 1501l172 342h361l-379 -342h-154z" />
    <glyph glyph-name="lacute" unicode="&#x13a;" horiz-adv-x="532" 
d="M119 0v1399h295v-1399h-295zM82 1501l172 342h360l-378 -342h-154z" />
    <glyph glyph-name="Lcommaaccent" unicode="&#x13b;" horiz-adv-x="980" 
d="M135 0v1399h318v-1147h512v-252h-830zM369 -444l4 112q60 -14 96 -14q63 0 63 70q0 30 -22.5 45.5t-52.5 15t-58 -1.5l13 115q57 8 100 8q209 0 209 -170q0 -93 -57.5 -147t-174.5 -54q-66 0 -120 21z" />
    <glyph glyph-name="lcommaaccent" unicode="&#x13c;" horiz-adv-x="532" 
d="M119 0v1399h295v-1399h-295zM125 -410l4 103q50 -15 68 -15q51 0 51 64q0 27 -16 40.5t-37.5 13.5t-44.5 -1l10 103q45 8 88 8q168 0 168 -154q0 -83 -46 -131.5t-141 -48.5q-62 0 -104 18z" />
    <glyph glyph-name="Lcaron" unicode="&#x13d;" horiz-adv-x="980" 
d="M135 0v1399h318v-1147h512v-252h-830zM590 793v51q49 43 73.5 101t32.5 149q-114 45 -114 161q0 68 47 115t114 47q86 0 139.5 -64.5t53.5 -170.5q0 -145 -88.5 -245t-257.5 -144z" />
    <glyph glyph-name="lcaron" unicode="&#x13e;" horiz-adv-x="780" 
d="M119 0v1399h295v-1399h-295zM494 793v51q49 43 73.5 101t32.5 149q-55 22 -85 63.5t-30 97.5q0 67 47.5 114.5t114.5 47.5q86 0 139.5 -64.5t53.5 -170.5q0 -145 -88.5 -245t-257.5 -144z" />
    <glyph glyph-name="Ldot" unicode="&#x13f;" horiz-adv-x="980" 
d="M135 0v1399h318v-1147h512v-252h-830zM778 831q56 0 93.5 -37.5t37.5 -93.5q0 -54 -38 -91.5t-93 -37.5q-54 0 -91.5 37.5t-37.5 91.5q0 55 37.5 93t91.5 38z" />
    <glyph glyph-name="ldot" unicode="&#x140;" horiz-adv-x="653" 
d="M119 0v1399h295v-1399h-295zM596 811q46 0 78.5 -32.5t32.5 -78.5t-32.5 -78t-78.5 -32t-78.5 32t-32.5 78t32.5 78.5t78.5 32.5z" />
    <glyph glyph-name="Lslash" unicode="&#x141;" horiz-adv-x="980" 
d="M135 0v395l-131 -155v227l131 156v776h318v-400l200 236v-227l-200 -236v-530h512v-242h-830z" />
    <glyph glyph-name="lslash" unicode="&#x142;" horiz-adv-x="641" 
d="M467 805v-805h-295v434h-4l-143 -180v227l147 181v737h295v-369h4l143 182v-227z" />
    <glyph glyph-name="Nacute" unicode="&#x143;" horiz-adv-x="1259" 
d="M141 0v1399h295l379 -791h4v791h299v-1399h-276l-398 825h-4v-825h-299zM444 1501l172 342h361l-379 -342h-154z" />
    <glyph glyph-name="nacute" unicode="&#x144;" horiz-adv-x="1087" 
d="M115 0v946h295v-133h4q104 152 266 152q138 0 219.5 -88.5t81.5 -249.5v-627h-295v580q0 170 -115 170q-101 0 -161 -152v-598h-295zM399 1075l172 342h361l-379 -342h-154z" />
    <glyph glyph-name="Ncommaaccent" unicode="&#x145;" horiz-adv-x="1259" 
d="M141 0v1399h295l379 -791h4v791h299v-1399h-276l-398 825h-4v-825h-299zM453 -444l4 112q60 -14 96 -14q63 0 63 70q0 30 -22.5 45.5t-52.5 15t-58 -1.5l13 115q57 8 100 8q209 0 209 -170q0 -93 -57.5 -147t-174.5 -54q-66 0 -120 21z" />
    <glyph glyph-name="ncommaaccent" unicode="&#x146;" horiz-adv-x="1087" 
d="M115 0v946h295v-133h4q104 152 266 152q138 0 219.5 -88.5t81.5 -249.5v-627h-295v580q0 170 -115 170q-101 0 -161 -152v-598h-295zM401 -410l5 103q50 -15 67 -15q51 0 51 64q0 27 -16 40.5t-37.5 13.5t-44.5 -1l10 103q45 8 88 8q168 0 168 -154q0 -84 -46 -132
t-140 -48q-63 0 -105 18z" />
    <glyph glyph-name="Ncaron" unicode="&#x147;" horiz-adv-x="1259" 
d="M141 0v1399h295l379 -791h4v791h299v-1399h-276l-398 825h-4v-825h-299zM322 1843h182l127 -176l125 176h182l-176 -350h-264z" />
    <glyph glyph-name="ncaron" unicode="&#x148;" horiz-adv-x="1087" 
d="M115 0v946h295v-133h4q104 152 266 152q138 0 219.5 -88.5t81.5 -249.5v-627h-295v580q0 170 -115 170q-101 0 -161 -152v-598h-295zM236 1417h182l127 -176l125 176h182l-176 -350h-264z" />
    <glyph glyph-name="napostrophe" unicode="&#x149;" horiz-adv-x="1341" 
d="M369 0v946h295v-133h4q104 152 266 152q138 0 219.5 -88.5t81.5 -249.5v-627h-295v580q0 170 -115 170q-101 0 -161 -152v-598h-295zM-61 793v51q49 43 73.5 101t32.5 149q-55 22 -85 63.5t-30 97.5q0 67 47 114.5t115 47.5q86 0 139.5 -64.5t53.5 -170.5
q0 -145 -88.5 -245t-257.5 -144z" />
    <glyph glyph-name="Eng" unicode="&#x14a;" horiz-adv-x="1259" 
d="M455 1257h2q119 160 323 160q157 0 249.5 -107t92.5 -302v-973q0 -104 -19.5 -185t-52.5 -134.5t-84.5 -92.5t-107 -60.5t-129.5 -37.5l-88 264q94 36 129 79t35 128v934q0 96 -40 150.5t-110 54.5q-60 0 -114.5 -48t-85.5 -135v-952h-318v1399h318v-142z" />
    <glyph glyph-name="eng" unicode="&#x14b;" horiz-adv-x="1087" 
d="M686 -31v611q0 170 -115 170q-101 0 -161 -152v-598h-295v946h295v-133h4q104 152 266 152q138 0 219.5 -88.5t81.5 -249.5v-641q0 -96 -17 -169t-45.5 -121.5t-74.5 -83.5t-94.5 -54t-114.5 -33l-78 258q79 31 104 69t25 117z" />
    <glyph glyph-name="Omacron" unicode="&#x14c;" horiz-adv-x="1259" 
d="M78 713q0 138 31 255t84.5 198.5t124 139t149.5 84.5t162 27q81 0 157.5 -24t148.5 -79t126 -136t86.5 -204.5t32.5 -275.5q0 -158 -35 -284t-90.5 -205t-129.5 -132t-147 -74t-149 -21q-83 0 -161 25t-149.5 82t-124.5 140t-84.5 207.5t-31.5 276.5zM401 700
q0 -221 51.5 -332.5t176.5 -111.5q76 0 124.5 40t75.5 139.5t27 264.5q0 99 -9.5 172.5t-33 138t-70 98.5t-114.5 34q-123 0 -175.5 -112.5t-52.5 -330.5zM334 1626v154h590v-154h-590z" />
    <glyph glyph-name="omacron" unicode="&#x14d;" 
d="M993 469q0 -216 -129.5 -355t-331.5 -139q-199 0 -328.5 140.5t-129.5 353.5q0 115 39 210.5t103.5 157t146 95t169.5 33.5q91 0 174 -35t147 -97.5t102 -157t38 -206.5zM682 469q0 281 -150 281q-151 0 -151 -281q0 -144 37 -211.5t114 -67.5q78 0 114 67t36 212z
M238 1200v154h589v-154h-589z" />
    <glyph glyph-name="Obreve" unicode="&#x14e;" horiz-adv-x="1259" 
d="M78 713q0 138 31 255t84.5 198.5t124 139t149.5 84.5t162 27q81 0 157.5 -24t148.5 -79t126 -136t86.5 -204.5t32.5 -275.5q0 -158 -35 -284t-90.5 -205t-129.5 -132t-147 -74t-149 -21q-83 0 -161 25t-149.5 82t-124.5 140t-84.5 207.5t-31.5 276.5zM401 700
q0 -221 51.5 -332.5t176.5 -111.5q76 0 124.5 40t75.5 139.5t27 264.5q0 99 -9.5 172.5t-33 138t-70 98.5t-114.5 34q-123 0 -175.5 -112.5t-52.5 -330.5zM305 1843h101q60 -153 221 -153q158 0 227 153h100q-25 -160 -108 -241.5t-221 -81.5q-75 0 -135.5 28t-98 75
t-59.5 102.5t-27 117.5z" />
    <glyph glyph-name="obreve" unicode="&#x14f;" 
d="M993 469q0 -216 -129.5 -355t-331.5 -139q-199 0 -328.5 140.5t-129.5 353.5q0 115 39 210.5t103.5 157t146 95t169.5 33.5q91 0 174 -35t147 -97.5t102 -157t38 -206.5zM682 469q0 281 -150 281q-151 0 -151 -281q0 -144 37 -211.5t114 -67.5q78 0 114 67t36 212z
M209 1417h100q60 -153 221 -153q159 0 228 153h100q-25 -160 -108.5 -241.5t-221.5 -81.5q-75 0 -135.5 28t-98 75t-59 102.5t-26.5 117.5z" />
    <glyph glyph-name="Ohungarumlaut" unicode="&#x150;" horiz-adv-x="1259" 
d="M78 713q0 138 31 255t84.5 198.5t124 139t149.5 84.5t162 27q81 0 157.5 -24t148.5 -79t126 -136t86.5 -204.5t32.5 -275.5q0 -158 -35 -284t-90.5 -205t-129.5 -132t-147 -74t-149 -21q-83 0 -161 25t-149.5 82t-124.5 140t-84.5 207.5t-31.5 276.5zM401 700
q0 -221 51.5 -332.5t176.5 -111.5q76 0 124.5 40t75.5 139.5t27 264.5q0 99 -9.5 172.5t-33 138t-70 98.5t-114.5 34q-123 0 -175.5 -112.5t-52.5 -330.5zM664 1487l172 342h360l-379 -342h-153zM227 1487l172 342h361l-379 -342h-154z" />
    <glyph glyph-name="ohungarumlaut" unicode="&#x151;" 
d="M993 469q0 -216 -129.5 -355t-331.5 -139q-199 0 -328.5 140.5t-129.5 353.5q0 115 39 210.5t103.5 157t146 95t169.5 33.5q91 0 174 -35t147 -97.5t102 -157t38 -206.5zM682 469q0 281 -150 281q-151 0 -151 -281q0 -144 37 -211.5t114 -67.5q78 0 114 67t36 212z
M567 1061l172 342h361l-379 -342h-154zM131 1061l172 342h361l-379 -342h-154z" />
    <glyph glyph-name="OE" unicode="&#x152;" horiz-adv-x="1728" 
d="M1645 0h-951q-249 0 -393 127q-223 198 -223 563q0 236 92.5 407t261.5 246q124 56 311 56h881v-244h-496v-319h459v-244h-459v-348h517v-244zM809 244v911h-35q-83 0 -128 -9t-83 -32q-78 -46 -120 -155t-42 -267q0 -251 105 -362q46 -49 101 -67.5t157 -18.5h45z" />
    <glyph glyph-name="oe" unicode="&#x153;" horiz-adv-x="1599" 
d="M1501 246v-168q-170 -96 -362 -96q-189 0 -320 116q-71 -62 -140.5 -89t-158.5 -27q-200 0 -324 137.5t-124 361.5q0 216 125.5 350t326.5 134q180 0 310 -115q130 115 286 115q183 0 297 -145.5t105 -393.5h-539q9 -119 77.5 -185.5t180.5 -66.5q119 0 260 72zM379 471
q0 -274 158 -274q149 0 149 278q0 275 -151 275q-156 0 -156 -279zM979 561h270q-4 114 -40 173t-99 59t-99 -58.5t-32 -173.5z" />
    <glyph glyph-name="Racute" unicode="&#x154;" horiz-adv-x="1130" 
d="M135 0v1399h457q211 0 330.5 -108t119.5 -283q0 -119 -55.5 -197.5t-179.5 -130.5q44 -24 83 -97.5t65 -154t68 -210.5t77 -218h-330l-76 262q-24 83 -39 130.5t-33 88.5t-31.5 59t-36 31.5t-43.5 16t-58 2.5v-590h-318zM453 831h100q81 0 126.5 43t45.5 125t-43.5 120
t-132.5 38h-96v-326zM360 1501l172 342h361l-379 -342h-154z" />
    <glyph glyph-name="racute" unicode="&#x155;" horiz-adv-x="811" 
d="M115 0v946h272v-358h4q47 187 111 277.5t149 90.5q82 0 170 -55l-63 -262q-68 47 -123 47q-56 0 -100.5 -47.5t-71 -126t-40 -172.5t-13.5 -195v-145h-295zM242 1075l172 342h360l-379 -342h-153z" />
    <glyph glyph-name="Rcommaaccent" unicode="&#x156;" horiz-adv-x="1130" 
d="M135 0v1399h457q211 0 330.5 -108t119.5 -283q0 -119 -55.5 -197.5t-179.5 -130.5q44 -24 83 -97.5t65 -154t68 -210.5t77 -218h-330l-76 262q-24 83 -39 130.5t-33 88.5t-31.5 59t-36 31.5t-43.5 16t-58 2.5v-590h-318zM453 831h100q81 0 126.5 43t45.5 125t-43.5 120
t-132.5 38h-96v-326zM416 -444l4 112q60 -14 96 -14q64 0 64 70q0 30 -23 45.5t-52.5 15t-58.5 -1.5l13 115q57 8 100 8q209 0 209 -170q0 -93 -57 -147t-174 -54q-67 0 -121 21z" />
    <glyph glyph-name="rcommaaccent" unicode="&#x157;" horiz-adv-x="811" 
d="M115 0v946h272v-358h4q47 187 111 277.5t149 90.5q82 0 170 -55l-63 -262q-68 47 -123 47q-56 0 -100.5 -47.5t-71 -126t-40 -172.5t-13.5 -195v-145h-295zM121 -410l4 103q49 -15 68 -15q51 0 51 64q0 27 -16 40.5t-38 13.5t-45 -1l11 103q45 8 88 8q168 0 168 -154
q0 -83 -46 -131.5t-141 -48.5q-62 0 -104 18z" />
    <glyph glyph-name="Rcaron" unicode="&#x158;" horiz-adv-x="1130" 
d="M135 0v1399h457q211 0 330.5 -108t119.5 -283q0 -119 -55.5 -197.5t-179.5 -130.5q44 -24 83 -97.5t65 -154t68 -210.5t77 -218h-330l-76 262q-24 83 -39 130.5t-33 88.5t-31.5 59t-36 31.5t-43.5 16t-58 2.5v-590h-318zM453 831h100q81 0 126.5 43t45.5 125t-43.5 120
t-132.5 38h-96v-326zM215 1843h182l127 -176l125 176h182l-176 -350h-264z" />
    <glyph glyph-name="rcaron" unicode="&#x159;" horiz-adv-x="811" 
d="M115 0v946h272v-358h4q47 187 111 277.5t149 90.5q82 0 170 -55l-63 -262q-68 47 -123 47q-56 0 -100.5 -47.5t-71 -126t-40 -172.5t-13.5 -195v-145h-295zM133 1417h182l127 -176l125 176h183l-177 -350h-264z" />
    <glyph glyph-name="Sacute" unicode="&#x15a;" horiz-adv-x="917" 
d="M90 92v301q99 -81 165.5 -114t129.5 -33q57 0 93 32.5t36 83.5q0 47 -32.5 99.5t-80.5 97.5t-105 102t-105 113t-80.5 131.5t-32.5 155.5q0 151 115.5 253.5t285.5 102.5q146 0 305 -86v-262q-104 58 -160.5 79t-109.5 21q-57 0 -93 -26.5t-36 -69.5q0 -38 33.5 -86.5
t84 -95t109 -106.5t109 -119.5t84 -137t33.5 -155.5q0 -167 -116.5 -279t-289.5 -112q-157 0 -342 110zM274 1501l172 342h361l-379 -342h-154z" />
    <glyph glyph-name="sacute" unicode="&#x15b;" horiz-adv-x="811" 
d="M82 61v220q173 -99 303 -99q49 0 79 21.5t30 60.5q0 26 -23.5 47t-61.5 37t-83.5 33.5t-91 41.5t-83.5 54t-61.5 78.5t-23.5 108.5q0 133 96.5 217t249.5 84q152 0 307 -86v-195q-95 51 -170 74q-70 20 -139 20q-54 0 -84.5 -18t-30.5 -49q0 -25 25.5 -46t66 -37.5
t89.5 -34.5t98.5 -43.5t90 -58t66 -85t25.5 -117.5q0 -135 -99 -221t-254 -86q-148 0 -321 79zM221 1075l172 342h361l-379 -342h-154z" />
    <glyph glyph-name="Scircumflex" unicode="&#x15c;" horiz-adv-x="917" 
d="M90 92v301q99 -81 165.5 -114t129.5 -33q57 0 93 32.5t36 83.5q0 47 -32.5 99.5t-80.5 97.5t-105 102t-105 113t-80.5 131.5t-32.5 155.5q0 151 115.5 253.5t285.5 102.5q146 0 305 -86v-262q-104 58 -160.5 79t-109.5 21q-57 0 -93 -26.5t-36 -69.5q0 -38 33.5 -86.5
t84 -95t109 -106.5t109 -119.5t84 -137t33.5 -155.5q0 -167 -116.5 -279t-289.5 -112q-157 0 -342 110zM150 1493l176 350h264l176 -350h-182l-125 176l-127 -176h-182z" />
    <glyph glyph-name="scircumflex" unicode="&#x15d;" horiz-adv-x="811" 
d="M82 61v220q173 -99 303 -99q49 0 79 21.5t30 60.5q0 26 -23.5 47t-61.5 37t-83.5 33.5t-91 41.5t-83.5 54t-61.5 78.5t-23.5 108.5q0 133 96.5 217t249.5 84q152 0 307 -86v-195q-95 51 -170 74q-70 20 -139 20q-54 0 -84.5 -18t-30.5 -49q0 -25 25.5 -46t66 -37.5
t89.5 -34.5t98.5 -43.5t90 -58t66 -85t25.5 -117.5q0 -135 -99 -221t-254 -86q-148 0 -321 79zM96 1067l176 350h265l176 -350h-183l-124 176l-127 -176h-183z" />
    <glyph glyph-name="uni015E" unicode="&#x15e;" horiz-adv-x="917" 
d="M180 -471v147q86 0 127 17.5t41 56.5q0 28 -24.5 47t-63.5 15l80 178q-116 21 -250 102v301q99 -81 165.5 -114t129.5 -33q57 0 93 32.5t36 83.5q0 47 -32.5 99.5t-80.5 97.5t-105 102t-105 113t-80.5 131.5t-32.5 155.5q0 151 115.5 253.5t285.5 102.5q146 0 305 -86
v-262q-104 58 -160.5 79t-109.5 21q-57 0 -93 -26.5t-36 -69.5q0 -38 33.5 -86.5t84 -95t109 -106.5t109 -119.5t84 -137t33.5 -155.5q0 -143 -87 -248t-225 -133l-37 -82q56 -19 89.5 -63t33.5 -101q0 -93 -78.5 -155t-214.5 -62h-139z" />
    <glyph glyph-name="uni015F" unicode="&#x15f;" horiz-adv-x="811" 
d="M145 -471v147q86 0 127 17.5t41 56.5q0 28 -24.5 47t-63.5 15l80 178q-103 15 -223 71v220q173 -99 303 -99q49 0 79 21.5t30 60.5q0 26 -23.5 47t-61.5 37t-83.5 33.5t-91 41.5t-83.5 54t-61.5 78.5t-23.5 108.5q0 133 96.5 217t249.5 84q152 0 307 -86v-195
q-95 51 -170 74q-70 20 -139 20q-54 0 -84.5 -18t-30.5 -49q0 -25 25.5 -46t66 -37.5t89.5 -34.5t98.5 -43.5t90 -58t66 -85t25.5 -117.5q0 -114 -72 -195t-192 -104l-37 -80q56 -19 89.5 -63t33.5 -101q0 -93 -78.5 -155t-214.5 -62h-140z" />
    <glyph glyph-name="Scaron" unicode="&#x160;" horiz-adv-x="917" 
d="M90 92v301q99 -81 165.5 -114t129.5 -33q57 0 93 32.5t36 83.5q0 47 -32.5 99.5t-80.5 97.5t-105 102t-105 113t-80.5 131.5t-32.5 155.5q0 151 115.5 253.5t285.5 102.5q146 0 305 -86v-262q-104 58 -160.5 79t-109.5 21q-57 0 -93 -26.5t-36 -69.5q0 -38 33.5 -86.5
t84 -95t109 -106.5t109 -119.5t84 -137t33.5 -155.5q0 -167 -116.5 -279t-289.5 -112q-157 0 -342 110zM152 1843h182l127 -176l125 176h182l-176 -350h-264z" />
    <glyph glyph-name="scaron" unicode="&#x161;" horiz-adv-x="811" 
d="M82 61v220q173 -99 303 -99q49 0 79 21.5t30 60.5q0 26 -23.5 47t-61.5 37t-83.5 33.5t-91 41.5t-83.5 54t-61.5 78.5t-23.5 108.5q0 133 96.5 217t249.5 84q152 0 307 -86v-195q-95 51 -170 74q-70 20 -139 20q-54 0 -84.5 -18t-30.5 -49q0 -25 25.5 -46t66 -37.5
t89.5 -34.5t98.5 -43.5t90 -58t66 -85t25.5 -117.5q0 -135 -99 -221t-254 -86q-148 0 -321 79zM98 1417h183l127 -176l124 176h183l-176 -350h-265z" />
    <glyph glyph-name="uni021A" unicode="&#x162;" horiz-adv-x="1024" 
d="M352 0v1157h-319v242h956v-242h-319v-1157h-318zM336 -444l4 112q60 -14 96 -14q64 0 64 70q0 30 -22.5 45.5t-52.5 15t-58 -1.5l12 115q57 8 100 8q209 0 209 -170q0 -93 -57 -147t-174 -54q-67 0 -121 21z" />
    <glyph glyph-name="uni021A" unicode="&#x21a;" horiz-adv-x="1024" 
d="M352 0v1157h-319v242h956v-242h-319v-1157h-318zM336 -444l4 112q60 -14 96 -14q64 0 64 70q0 30 -22.5 45.5t-52.5 15t-58 -1.5l12 115q57 8 100 8q209 0 209 -170q0 -93 -57 -147t-174 -54q-67 0 -121 21z" />
    <glyph glyph-name="uni021B" unicode="&#x163;" horiz-adv-x="811" 
d="M752 279v-218q-84 -44 -144 -61.5t-123 -17.5q-46 0 -88.5 10t-84 33.5t-72 59.5t-49.5 92t-19 126v457h-135v37l379 442h51v-293h270v-186h-270v-402q0 -149 106 -149q64 0 179 70zM346 -410l4 103q50 -15 68 -15q51 0 51 64q0 27 -16 40.5t-37.5 13.5t-44.5 -1l10 103
q45 8 88 8q168 0 168 -154q0 -84 -46 -132t-140 -48q-63 0 -105 18z" />
    <glyph glyph-name="uni021B" unicode="&#x21b;" horiz-adv-x="811" 
d="M752 279v-218q-84 -44 -144 -61.5t-123 -17.5q-46 0 -88.5 10t-84 33.5t-72 59.5t-49.5 92t-19 126v457h-135v37l379 442h51v-293h270v-186h-270v-402q0 -149 106 -149q64 0 179 70zM346 -410l4 103q50 -15 68 -15q51 0 51 64q0 27 -16 40.5t-37.5 13.5t-44.5 -1l10 103
q45 8 88 8q168 0 168 -154q0 -84 -46 -132t-140 -48q-63 0 -105 18z" />
    <glyph glyph-name="Tcaron" unicode="&#x164;" horiz-adv-x="1024" 
d="M352 0v1157h-319v242h956v-242h-319v-1157h-318zM203 1843h182l127 -176l125 176h182l-176 -350h-264z" />
    <glyph glyph-name="tcaron" unicode="&#x165;" horiz-adv-x="1099" 
d="M752 279v-218q-84 -44 -144 -61.5t-123 -17.5q-46 0 -88.5 10t-84 33.5t-72 59.5t-49.5 92t-19 126v457h-135v37l379 442h51v-293h270v-186h-270v-402q0 -149 106 -149q64 0 179 70zM813 793v51q50 43 75 101t32 149q-55 22 -85 63.5t-30 97.5q0 67 47.5 114.5
t114.5 47.5q86 0 139 -64.5t53 -170.5q0 -145 -88.5 -245t-257.5 -144z" />
    <glyph glyph-name="Tbar" unicode="&#x166;" horiz-adv-x="1024" 
d="M68 569v195h284v393h-319v242h956v-242h-319v-393h284v-195h-284v-569h-318v569h-284z" />
    <glyph glyph-name="tbar" unicode="&#x167;" horiz-adv-x="811" 
d="M37 416v186h135v158h-135v37l379 442h51v-293h270v-186h-270v-158h270v-186h-270v-58q0 -149 106 -149q64 0 179 70v-218q-84 -44 -144 -61.5t-123 -17.5q-46 0 -88.5 10t-84 33.5t-72 59.5t-49.5 92t-19 126v113h-135z" />
    <glyph glyph-name="Utilde" unicode="&#x168;" horiz-adv-x="1216" 
d="M119 1399h317v-963q0 -86 44.5 -138t127.5 -52q172 0 172 207v946h318v-920q0 -236 -123 -366.5t-367 -130.5q-229 0 -359 121t-130 372v924zM393 1546h-123q0 104 57 174t150 70q53 0 143.5 -35t120.5 -35q58 0 82 70h123q-4 -107 -63.5 -175.5t-147.5 -68.5
q-56 0 -136.5 36t-113.5 36q-74 0 -92 -72z" />
    <glyph glyph-name="utilde" unicode="&#x169;" horiz-adv-x="1087" 
d="M678 0v121h-4q-78 -139 -262 -139q-63 0 -117 20t-97.5 61t-68.5 111.5t-25 163.5v608h295v-592q0 -82 27.5 -119.5t87.5 -37.5q59 0 101 40t63 109v600h295v-946h-295zM328 1120h-123q0 104 57 174t150 70q53 0 143.5 -35t120.5 -35q58 0 82 70h123
q-4 -107 -63.5 -175.5t-147.5 -68.5q-56 0 -136.5 36t-113.5 36q-74 0 -92 -72z" />
    <glyph glyph-name="Umacron" unicode="&#x16a;" horiz-adv-x="1216" 
d="M119 1399h317v-963q0 -86 44.5 -138t127.5 -52q172 0 172 207v946h318v-920q0 -236 -123 -366.5t-367 -130.5q-229 0 -359 121t-130 372v924zM313 1626v154h590v-154h-590z" />
    <glyph glyph-name="umacron" unicode="&#x16b;" horiz-adv-x="1087" 
d="M678 0v121h-4q-78 -139 -262 -139q-63 0 -117 20t-97.5 61t-68.5 111.5t-25 163.5v608h295v-592q0 -82 27.5 -119.5t87.5 -37.5q59 0 101 40t63 109v600h295v-946h-295zM248 1200v154h590v-154h-590z" />
    <glyph glyph-name="Ubreve" unicode="&#x16c;" horiz-adv-x="1216" 
d="M119 1399h317v-963q0 -86 44.5 -138t127.5 -52q172 0 172 207v946h318v-920q0 -236 -123 -366.5t-367 -130.5q-229 0 -359 121t-130 372v924zM283 1843h100q60 -153 221 -153q158 0 227 153h101q-25 -160 -108.5 -241.5t-221.5 -81.5q-75 0 -135.5 28t-98 75t-59 102.5
t-26.5 117.5z" />
    <glyph glyph-name="ubreve" unicode="&#x16d;" horiz-adv-x="1087" 
d="M678 0v121h-4q-78 -139 -262 -139q-63 0 -117 20t-97.5 61t-68.5 111.5t-25 163.5v608h295v-592q0 -82 27.5 -119.5t87.5 -37.5q59 0 101 40t63 109v600h295v-946h-295zM219 1417h100q60 -153 222 -153q158 0 227 153h100q-25 -160 -108 -241.5t-221 -81.5
q-75 0 -135.5 28t-98 75t-59.5 102.5t-27 117.5z" />
    <glyph glyph-name="Uring" unicode="&#x16e;" horiz-adv-x="1216" 
d="M119 1399h317v-963q0 -86 44.5 -138t127.5 -52q172 0 172 207v946h318v-920q0 -236 -123 -366.5t-367 -130.5q-229 0 -359 121t-130 372v924zM608 1913q91 0 155 -64t64 -155t-64 -155t-155 -64t-155 64t-64 155t64 155t155 64zM608 1819q-52 0 -88.5 -36.5t-36.5 -88.5
t36.5 -88.5t88.5 -36.5t88.5 36.5t36.5 88.5t-36.5 88.5t-88.5 36.5z" />
    <glyph glyph-name="uring" unicode="&#x16f;" horiz-adv-x="1087" 
d="M678 0v121h-4q-78 -139 -262 -139q-63 0 -117 20t-97.5 61t-68.5 111.5t-25 163.5v608h295v-592q0 -82 27.5 -119.5t87.5 -37.5q59 0 101 40t63 109v600h295v-946h-295zM543 1487q91 0 155 -64t64 -155t-64 -155t-155 -64t-155 64t-64 155t64 155t155 64zM543 1393
q-53 0 -89 -36.5t-36 -88.5t36 -88.5t89 -36.5t89 36.5t36 88.5t-36 88.5t-89 36.5z" />
    <glyph glyph-name="Uhungarumlaut" unicode="&#x170;" horiz-adv-x="1216" 
d="M119 1399h317v-963q0 -86 44.5 -138t127.5 -52q172 0 172 207v946h318v-920q0 -236 -123 -366.5t-367 -130.5q-229 0 -359 121t-130 372v924zM641 1487l172 342h361l-379 -342h-154zM205 1487l172 342h360l-379 -342h-153z" />
    <glyph glyph-name="uhungarumlaut" unicode="&#x171;" horiz-adv-x="1087" 
d="M678 0v121h-4q-78 -139 -262 -139q-63 0 -117 20t-97.5 61t-68.5 111.5t-25 163.5v608h295v-592q0 -82 27.5 -119.5t87.5 -37.5q59 0 101 40t63 109v600h295v-946h-295zM598 1061l172 342h360l-378 -342h-154zM162 1061l172 342h360l-379 -342h-153z" />
    <glyph glyph-name="Uogonek" unicode="&#x172;" horiz-adv-x="1216" 
d="M119 1399h317v-963q0 -86 44.5 -138t127.5 -52q172 0 172 207v946h318v-920q0 -220 -106 -348t-316 -145q-8 -57 -8 -107q0 -75 31 -116.5t89 -41.5q36 0 113 27v-160q-107 -47 -186 -47q-103 0 -162 65t-59 179q0 86 30 201q-191 21 -298 141.5t-107 347.5v924z" />
    <glyph glyph-name="uogonek" unicode="&#x173;" horiz-adv-x="1087" 
d="M678 0v121h-4q-78 -139 -262 -139q-63 0 -117 20t-97.5 61t-68.5 111.5t-25 163.5v608h295v-592q0 -82 27.5 -119.5t87.5 -37.5q59 0 101 40t63 109v600h295v-946h-70q-8 -63 -8 -125q0 -61 22 -91t72 -30q28 0 98 25v-154q-93 -41 -161 -41q-89 0 -141 58t-52 159
q0 86 29 199h-84z" />
    <glyph glyph-name="Wcircumflex" unicode="&#x174;" horiz-adv-x="1744" 
d="M453 -18l-439 1417h305l199 -740h4l223 740h254l220 -740h4l202 740h306l-437 -1417h-137l-285 905h-4l-278 -905h-137zM563 1493l176 350h265l176 -350h-183l-125 176l-127 -176h-182z" />
    <glyph glyph-name="wcircumflex" unicode="&#x175;" horiz-adv-x="1449" 
d="M377 -18l-354 964h280l152 -485h4l168 485h196l168 -485h4l152 485h280l-352 -964h-149l-199 559h-4l-195 -559h-151zM416 1067l176 350h264l176 -350h-182l-125 176l-127 -176h-182z" />
    <glyph glyph-name="Ycircumflex" unicode="&#x176;" horiz-adv-x="1110" 
d="M406 0v639l-388 760h340l211 -430l174 430h338l-350 -760v-639h-325zM246 1493l176 350h264l176 -350h-182l-125 176l-127 -176h-182z" />
    <glyph glyph-name="ycircumflex" unicode="&#x177;" horiz-adv-x="980" 
d="M86 -451l256 625l-332 772h299l180 -432l170 432h299l-573 -1397h-299zM182 1067l176 350h265l176 -350h-183l-124 176l-127 -176h-183z" />
    <glyph glyph-name="Ydieresis" unicode="&#x178;" horiz-adv-x="1110" 
d="M406 0v639l-388 760h340l211 -430l174 430h338l-350 -760v-639h-325zM752 1780q46 0 78 -32.5t32 -78.5t-32 -78t-78 -32t-78.5 32t-32.5 78t32.5 78.5t78.5 32.5zM360 1780q46 0 78.5 -32.5t32.5 -78.5t-32.5 -78t-78.5 -32t-78 32t-32 78t32 78.5t78 32.5z" />
    <glyph glyph-name="Zacute" unicode="&#x179;" horiz-adv-x="1024" 
d="M27 0l499 1157h-444v242h876l-495 -1157h495v-242h-931zM328 1501l172 342h360l-379 -342h-153z" />
    <glyph glyph-name="zacute" unicode="&#x17a;" horiz-adv-x="917" 
d="M37 0l385 731h-342v215h768l-375 -731h375v-215h-811zM274 1075l172 342h361l-379 -342h-154z" />
    <glyph glyph-name="Zdotaccent" unicode="&#x17b;" horiz-adv-x="1024" 
d="M27 0l499 1157h-444v242h876l-495 -1157h495v-242h-931zM512 1780q46 0 78.5 -32.5t32.5 -78.5t-32.5 -78t-78.5 -32t-78.5 32t-32.5 78t32.5 78.5t78.5 32.5z" />
    <glyph glyph-name="zdotaccent" unicode="&#x17c;" horiz-adv-x="917" 
d="M37 0l385 731h-342v215h768l-375 -731h375v-215h-811zM459 1354q46 0 78 -32.5t32 -78.5t-32 -78t-78 -32t-78.5 32t-32.5 78t32.5 78.5t78.5 32.5z" />
    <glyph glyph-name="Zcaron" unicode="&#x17d;" horiz-adv-x="1024" 
d="M27 0l499 1157h-444v242h876l-495 -1157h495v-242h-931zM205 1843h182l127 -176l125 176h182l-176 -350h-264z" />
    <glyph glyph-name="zcaron" unicode="&#x17e;" horiz-adv-x="917" 
d="M37 0l385 731h-342v215h768l-375 -731h375v-215h-811zM152 1417h182l127 -176l125 176h182l-176 -350h-264z" />
    <glyph glyph-name="uni018f" unicode="&#x18f;" horiz-adv-x="1259" 
d="M553 1153q-98 0 -240 -82v268q150 78 316 78q81 0 157.5 -24t148.5 -79t126 -136t86.5 -204.5t32.5 -275.5q0 -158 -35 -284t-90.5 -205t-129.5 -132t-147 -74t-149 -21q-83 0 -161 25t-149.5 82t-124.5 140t-84.5 207.5t-31.5 276.5q0 58 6 114h768q-6 74 -23 129.5
t-50.5 101.5t-90 70.5t-135.5 24.5zM629 256q101 0 156 76t67 254h-446q11 -164 63 -247t160 -83z" />
    <glyph glyph-name="florin" unicode="&#x192;" horiz-adv-x="1138" 
d="M715 961h123v-168h-148l-160 -1014q-20 -131 -80 -192.5t-167 -61.5q-105 0 -236 57l45 207q68 -35 103 -35q34 0 48.5 27t26.5 106l144 906h-133v168h147l27 182q20 134 76 204t171 70q120 0 242 -61l-33 -207q-62 37 -106 37q-31 0 -46 -26t-28 -107z" />
    <glyph glyph-name="AEacute" unicode="&#x1fc;" horiz-adv-x="1685" 
d="M-18 0l540 1399h1049v-242h-457v-328h418v-241h-418v-346h473v-242h-790v588h-289l-211 -588h-315zM588 815h209v412h-66zM883 1501l172 342h360l-379 -342h-153z" />
    <glyph glyph-name="aeacute" unicode="&#x1fd;" horiz-adv-x="1472" 
d="M96 614v222q192 129 373 129q155 0 266 -91q130 91 271 91q79 0 148.5 -33.5t123.5 -98.5t85.5 -169t31.5 -236h-523q0 -67 20 -118t53.5 -79.5t72.5 -42.5t82 -14q127 0 272 84v-168q-188 -108 -358 -108q-104 0 -201 37.5t-168 105.5q-158 -143 -326 -143
q-117 0 -194.5 67t-77.5 168q0 70 36.5 127.5t109 101.5t160.5 77.5t212 66.5v20q0 162 -131 162q-145 0 -338 -158zM565 219v230q-138 -62 -180.5 -96t-42.5 -93q0 -43 24 -69.5t62 -26.5q54 0 137 55zM872 563h248q0 230 -127 230q-71 0 -96 -56t-25 -174zM551 1075
l172 342h360l-378 -342h-154z" />
    <glyph glyph-name="Oslashacute" unicode="&#x1fe;" horiz-adv-x="1259" 
d="M842 907l-365 -579q33 -36 67.5 -54t84.5 -18q76 0 124.5 40t75.5 139.5t27 264.5q0 116 -14 207zM946 1307l70 112l106 -67l-86 -138q63 -83 103.5 -214.5t40.5 -301.5q0 -158 -35 -284t-90.5 -205t-129.5 -132t-147 -74t-149 -21q-172 0 -305 102l-76 -119l-98 72
l83 135q-71 88 -113 226.5t-42 316.5q0 171 47.5 308.5t126.5 221.5t175.5 128t201.5 44q174 0 317 -110zM420 469l368 588q-51 86 -159 86q-123 0 -175.5 -112.5t-52.5 -330.5q0 -141 19 -231zM418 1501l172 342h360l-379 -342h-153z" />
    <glyph glyph-name="oslashacute" unicode="&#x1ff;" 
d="M956 928l-86 -117q123 -136 123 -342q0 -216 -129.5 -355t-331.5 -139q-131 0 -235 68l-88 -119l-84 62l90 120q-67 65 -104 159.5t-37 203.5q0 115 39 210.5t103.5 157t146 95t169.5 33.5q147 0 261 -82l77 106zM676 551l-238 -320q33 -41 94 -41q78 0 114 67t36 212
q0 47 -6 82zM391 344l252 340q-35 66 -111 66q-151 0 -151 -281q0 -70 10 -125zM322 1075l172 342h360l-379 -342h-153z" />
    <glyph glyph-name="uni0218" unicode="&#x218;" horiz-adv-x="917" 
d="M90 92v301q99 -81 165.5 -114t129.5 -33q57 0 93 32.5t36 83.5q0 47 -32.5 99.5t-80.5 97.5t-105 102t-105 113t-80.5 131.5t-32.5 155.5q0 151 115.5 253.5t285.5 102.5q146 0 305 -86v-262q-104 58 -160.5 79t-109.5 21q-57 0 -93 -26.5t-36 -69.5q0 -38 33.5 -86.5
t84 -95t109 -106.5t109 -119.5t84 -137t33.5 -155.5q0 -167 -116.5 -279t-289.5 -112q-157 0 -342 110zM283 -444l4 112q60 -14 96 -14q63 0 63 70q0 30 -22.5 45.5t-52.5 15t-58 -1.5l13 115q57 8 100 8q209 0 209 -170q0 -93 -57.5 -147t-174.5 -54q-66 0 -120 21z" />
    <glyph glyph-name="uni0219" unicode="&#x219;" horiz-adv-x="811" 
d="M82 61v220q173 -99 303 -99q49 0 79 21.5t30 60.5q0 26 -23.5 47t-61.5 37t-83.5 33.5t-91 41.5t-83.5 54t-61.5 78.5t-23.5 108.5q0 133 96.5 217t249.5 84q152 0 307 -86v-195q-95 51 -170 74q-70 20 -139 20q-54 0 -84.5 -18t-30.5 -49q0 -25 25.5 -46t66 -37.5
t89.5 -34.5t98.5 -43.5t90 -58t66 -85t25.5 -117.5q0 -135 -99 -221t-254 -86q-148 0 -321 79zM264 -410l4 103q50 -15 68 -15q51 0 51 64q0 27 -16 40.5t-37.5 13.5t-44.5 -1l10 103q45 8 88 8q168 0 168 -154q0 -84 -46 -132t-140 -48q-63 0 -105 18z" />
    <glyph glyph-name="uni0259" unicode="&#x259;" horiz-adv-x="960" 
d="M215 690v199q40 33 102 54.5t134 21.5q101 0 180 -31.5t126.5 -80t78 -113.5t42 -125.5t11.5 -122.5q0 -221 -119 -365.5t-301 -144.5q-84 0 -159 37.5t-132 107.5t-84.5 183.5t-13.5 252.5h510q-10 114 -58.5 166.5t-117.5 52.5q-56 0 -109 -26.5t-90 -65.5zM590 428
h-238q2 -124 31.5 -201t85.5 -77q57 0 89 80.5t32 197.5z" />
    <glyph glyph-name="circumflex" unicode="&#x2c6;" horiz-adv-x="681" 
d="M33 1067l176 350h264l176 -350h-182l-125 176l-127 -176h-182z" />
    <glyph glyph-name="caron" unicode="&#x2c7;" horiz-adv-x="681" 
d="M33 1417h182l127 -176l125 176h182l-176 -350h-264z" />
    <glyph glyph-name="uni02C9" unicode="&#x2c9;" horiz-adv-x="681" 
d="M47 1200v154h590v-154h-590z" />
    <glyph glyph-name="breve" unicode="&#x2d8;" horiz-adv-x="681" 
d="M16 1417h101q60 -153 221 -153q158 0 227 153h101q-25 -160 -108.5 -241.5t-221.5 -81.5q-75 0 -135.5 28t-98 75t-59.5 102.5t-27 117.5z" />
    <glyph glyph-name="dotaccent" unicode="&#x2d9;" horiz-adv-x="681" 
d="M342 1354q46 0 78.5 -32.5t32.5 -78.5t-32.5 -78t-78.5 -32t-78.5 32t-32.5 78t32.5 78.5t78.5 32.5z" />
    <glyph glyph-name="ring" unicode="&#x2da;" horiz-adv-x="681" 
d="M342 1487q91 0 155 -64t64 -155t-64 -155t-155 -64t-155 64t-64 155t64 155t155 64zM342 1393q-52 0 -88.5 -36.5t-36.5 -88.5t36.5 -88.5t88.5 -36.5t88.5 36.5t36.5 88.5t-36.5 88.5t-88.5 36.5z" />
    <glyph glyph-name="ogonek" unicode="&#x2db;" horiz-adv-x="681" 
d="M217 27h148q-15 -99 -15 -148q0 -75 31.5 -116.5t89.5 -41.5q37 0 113 27v-160q-107 -47 -187 -47q-103 0 -162 65t-59 179q0 93 41 242z" />
    <glyph glyph-name="tilde" unicode="&#x2dc;" horiz-adv-x="681" 
d="M127 1120h-123q0 104 57 174t150 70q53 0 143.5 -35t120.5 -35q58 0 82 70h123q-4 -107 -63.5 -175.5t-147.5 -68.5q-56 0 -136.5 36t-113.5 36q-74 0 -92 -72z" />
    <glyph glyph-name="hungarumlaut" unicode="&#x2dd;" horiz-adv-x="681" 
d="M457 1061l172 342h360l-379 -342h-153zM20 1061l173 342h360l-379 -342h-154z" />
    <glyph glyph-name="Delta" unicode="&#x394;" horiz-adv-x="1087" 
d="M1075 0h-1063v86l371 1321h328l364 -1321v-86zM745 225l-170 733q-15 64 -24 123h-4q-5 -23 -16 -68t-13 -55l-172 -733h399z" />
    <glyph glyph-name="Delta" unicode="&#x2206;" horiz-adv-x="1087" 
d="M1075 0h-1063v86l371 1321h328l364 -1321v-86zM745 225l-170 733q-15 64 -24 123h-4q-5 -23 -16 -68t-13 -55l-172 -733h399z" />
    <glyph glyph-name="Omega" unicode="&#x3a9;" horiz-adv-x="1253" 
d="M1171 0h-489v217q81 86 128.5 205t47.5 309q0 97 -11 169.5t-36.5 128.5t-70.5 85t-109 29q-236 0 -236 -412q0 -192 45.5 -310t132.5 -204v-217h-491v252h168q-172 222 -172 510q0 184 70.5 334t198 236.5t286.5 86.5q248 0 395.5 -180t147.5 -473q0 -279 -177 -514h172
v-252z" />
    <glyph glyph-name="Omega" unicode="&#x2126;" horiz-adv-x="1253" 
d="M1171 0h-489v217q81 86 128.5 205t47.5 309q0 97 -11 169.5t-36.5 128.5t-70.5 85t-109 29q-236 0 -236 -412q0 -192 45.5 -310t132.5 -204v-217h-491v252h168q-172 222 -172 510q0 184 70.5 334t198 236.5t286.5 86.5q248 0 395.5 -180t147.5 -473q0 -279 -177 -514h172
v-252z" />
    <glyph glyph-name="uni03BC" unicode="&#x3bc;" horiz-adv-x="1087" 
d="M399 88v-539h-295v1397h295v-618q14 -61 53.5 -94t86.5 -33t86 33t53 94v618h295v-946h-295v88h-2q-43 -96 -135 -96q-95 0 -140 96h-2z" />
    <glyph glyph-name="pi" unicode="&#x3c0;" horiz-adv-x="1202" 
d="M37 721v225h1128v-225h-129v-455q0 -42 5.5 -54.5t23.5 -12.5q32 0 78 32v-168q-75 -45 -128 -62t-110 -17q-68 0 -116 52t-48 134v551h-276v-268q0 -228 -21 -453h-294q20 217 20 455v266h-133z" />
    <glyph glyph-name="Wgrave" unicode="&#x1e80;" horiz-adv-x="1744" 
d="M453 -18l-439 1417h305l199 -740h4l223 740h254l220 -740h4l202 740h306l-437 -1417h-137l-285 905h-4l-278 -905h-137zM1057 1501h-154l-379 342h361z" />
    <glyph glyph-name="wgrave" unicode="&#x1e81;" horiz-adv-x="1449" 
d="M377 -18l-354 964h280l152 -485h4l168 485h196l168 -485h4l152 485h280l-352 -964h-149l-199 559h-4l-195 -559h-151zM930 1075h-154l-379 342h361z" />
    <glyph glyph-name="Wacute" unicode="&#x1e82;" horiz-adv-x="1744" 
d="M453 -18l-439 1417h305l199 -740h4l223 740h254l220 -740h4l202 740h306l-437 -1417h-137l-285 905h-4l-278 -905h-137zM688 1501l172 342h361l-379 -342h-154z" />
    <glyph glyph-name="wacute" unicode="&#x1e83;" horiz-adv-x="1449" 
d="M377 -18l-354 964h280l152 -485h4l168 485h196l168 -485h4l152 485h280l-352 -964h-149l-199 559h-4l-195 -559h-151zM520 1075l172 342h361l-379 -342h-154z" />
    <glyph glyph-name="Wdieresis" unicode="&#x1e84;" horiz-adv-x="1744" 
d="M453 -18l-439 1417h305l199 -740h4l223 740h254l220 -740h4l202 740h306l-437 -1417h-137l-285 905h-4l-278 -905h-137zM1067 1780q46 0 78.5 -32.5t32.5 -78.5t-32.5 -78t-78.5 -32t-78.5 32t-32.5 78t32.5 78.5t78.5 32.5zM676 1780q46 0 78 -32.5t32 -78.5t-32 -78
t-78 -32t-78.5 32t-32.5 78t32.5 78.5t78.5 32.5z" />
    <glyph glyph-name="wdieresis" unicode="&#x1e85;" horiz-adv-x="1449" 
d="M377 -18l-354 964h280l152 -485h4l168 485h196l168 -485h4l152 485h280l-352 -964h-149l-199 559h-4l-195 -559h-151zM920 1354q46 0 78 -32.5t32 -78.5t-32 -78t-78 -32t-78.5 32t-32.5 78t32.5 78.5t78.5 32.5zM528 1354q46 0 78.5 -32.5t32.5 -78.5t-32.5 -78
t-78.5 -32t-78 32t-32 78t32 78.5t78 32.5z" />
    <glyph glyph-name="Ygrave" unicode="&#x1ef2;" horiz-adv-x="1110" 
d="M406 0v639l-388 760h340l211 -430l174 430h338l-350 -760v-639h-325zM739 1501h-153l-379 342h360z" />
    <glyph glyph-name="ygrave" unicode="&#x1ef3;" horiz-adv-x="980" 
d="M86 -451l256 625l-332 772h299l180 -432l170 432h299l-573 -1397h-299zM674 1075h-154l-379 342h361z" />
    <glyph glyph-name="endash" unicode="&#x2013;" horiz-adv-x="1024" 
d="M1040 608v-270h-1056v270h1056z" />
    <glyph glyph-name="emdash" unicode="&#x2014;" horiz-adv-x="2048" 
d="M2062 608v-270h-2076v270h2076z" />
    <glyph glyph-name="quoteleft" unicode="&#x2018;" horiz-adv-x="555" 
d="M451 1417v-51q-50 -43 -75 -101t-32 -149q55 -22 85 -64t30 -98q0 -67 -47 -114t-115 -47q-86 0 -139.5 64.5t-53.5 170.5q0 145 89 245t258 144z" />
    <glyph glyph-name="quoteright" unicode="&#x2019;" horiz-adv-x="555" 
d="M104 793v51q50 43 75 101t32 149q-55 22 -85 63.5t-30 97.5q0 67 47 114.5t115 47.5q86 0 139.5 -64.5t53.5 -170.5q0 -145 -89 -245t-258 -144z" />
    <glyph glyph-name="quotesinglbase" unicode="&#x201a;" horiz-adv-x="555" 
d="M113 -311v51q49 43 73.5 101t32.5 149q-55 22 -85 64t-30 98q0 67 47 114t115 47q86 0 139.5 -64.5t53.5 -170.5q0 -145 -88.5 -245t-257.5 -144z" />
    <glyph glyph-name="quotedblleft" unicode="&#x201c;" horiz-adv-x="1024" 
d="M922 1417v-51q-50 -43 -75 -101t-32 -149q55 -22 85 -64t30 -98q0 -67 -47 -114t-115 -47q-86 0 -139.5 64.5t-53.5 170.5q0 145 89 245t258 144zM440 1417v-51q-49 -43 -73.5 -101t-32.5 -149q55 -22 85 -64t30 -98q0 -67 -47 -114t-115 -47q-86 0 -139.5 64.5
t-53.5 170.5q0 145 88.5 245t257.5 144z" />
    <glyph glyph-name="quotedblright" unicode="&#x201d;" horiz-adv-x="1024" 
d="M584 793v51q49 43 73.5 101t32.5 149q-55 22 -85 63.5t-30 97.5q0 67 47.5 114.5t114.5 47.5q86 0 139.5 -64.5t53.5 -170.5q0 -145 -88.5 -245t-257.5 -144zM102 793v51q50 43 75 101t32 149q-55 22 -85 63.5t-30 97.5q0 67 47 114.5t115 47.5q86 0 139.5 -64.5
t53.5 -170.5q0 -145 -89 -245t-258 -144z" />
    <glyph glyph-name="quotedblbase" unicode="&#x201e;" horiz-adv-x="1024" 
d="M584 -311v51q49 43 73.5 101t32.5 149q-55 22 -85 64t-30 98q0 67 47 114t115 47q86 0 139.5 -64.5t53.5 -170.5q0 -145 -88.5 -245t-257.5 -144zM102 -311v51q50 43 75 101t32 149q-55 22 -85 64t-30 98q0 67 47 114t115 47q86 0 139.5 -64.5t53.5 -170.5
q0 -145 -89 -245t-258 -144z" />
    <glyph glyph-name="dagger" unicode="&#x2020;" horiz-adv-x="1024" 
d="M573 1417q44 0 62 -7t18.5 -22t-4.5 -38l-90 -451l342 84q43 10 58.5 -0.5t15.5 -48.5v-152q0 -56 -14 -67.5t-60 0.5l-342 84l113 -1207q2 -25 1.5 -40t-8.5 -21t-28 -6h-254q-28 0 -33.5 15t-1.5 52l115 1207l-340 -84q-44 -14 -59 -1t-15 77v139q0 42 14.5 52.5
t59.5 0.5l340 -84l-90 451q-9 42 5.5 54.5t72.5 12.5h122z" />
    <glyph glyph-name="daggerdbl" unicode="&#x2021;" horiz-adv-x="1044" 
d="M412 1294q-11 48 -9.5 75.5t27 37.5t92.5 10t91.5 -9t29 -36t-7.5 -78l-64 -344l324 70q49 10 66.5 -11.5t17.5 -111.5q0 -83 -16 -102.5t-54 -10.5l-338 70l64 -385l-64 -385l318 70q33 8 53 5.5t28.5 -29t8.5 -89.5q0 -90 -16.5 -112t-67.5 -11l-324 70l64 -342
q15 -84 -3 -102.5t-110 -18.5q-69 0 -94.5 10t-26 37t10.5 74l63 342l-325 -70q-28 -6 -47 -2t-28 33t-9 92q0 86 17.5 105.5t74.5 7.5l317 -70l-63 385l63 385l-340 -70q-23 -5 -38 -1t-23 30.5t-8 83.5q0 89 17.5 111.5t66.5 11.5l325 -70z" />
    <glyph glyph-name="bullet" unicode="&#x2022;" horiz-adv-x="716" 
d="M360 1020q123 0 209 -86t86 -209t-86 -210t-209 -87t-210 87t-87 210t87 209t210 86z" />
    <glyph glyph-name="ellipsis" unicode="&#x2026;" horiz-adv-x="2048" 
d="M1708 307q68 0 115 -47.5t47 -114.5q0 -68 -47.5 -115.5t-114.5 -47.5q-68 0 -116 48t-48 115t48 114.5t116 47.5zM1026 307q68 0 115 -47.5t47 -114.5q0 -68 -47.5 -115.5t-114.5 -47.5q-68 0 -116 48t-48 115t48 114.5t116 47.5zM344 307q68 0 115 -47.5t47 -114.5
q0 -68 -47.5 -115.5t-114.5 -47.5q-68 0 -116 48t-48 115t48 114.5t116 47.5z" />
    <glyph glyph-name="perthousand" unicode="&#x2030;" horiz-adv-x="2027" 
d="M1423 358q0 179 73.5 275t209.5 96q137 0 211 -96.5t74 -274.5q0 -177 -74 -272.5t-211 -95.5q-136 0 -209.5 95.5t-73.5 272.5zM1634 358q0 -123 16 -172t56 -49q41 0 57.5 49t16.5 172q0 125 -16.5 174.5t-57.5 49.5q-40 0 -56 -50t-16 -174zM788 358q0 179 73.5 275
t209.5 96q137 0 211 -96.5t74 -274.5q0 -177 -74 -272.5t-211 -95.5q-136 0 -209.5 95.5t-73.5 272.5zM999 358q0 -123 16 -172t56 -49q41 0 57.5 49t16.5 172q0 125 -16.5 174.5t-57.5 49.5q-40 0 -56 -50t-16 -174zM37 1047q0 179 73 274.5t209 95.5q137 0 211 -96
t74 -274q0 -177 -74 -273t-211 -96q-136 0 -209 96t-73 273zM248 1047q0 -123 15.5 -172.5t55.5 -49.5q41 0 57.5 49.5t16.5 172.5q0 125 -16.5 175t-57.5 50q-40 0 -55.5 -50t-15.5 -175zM201 -53l784 1507h197l-776 -1507h-205z" />
    <glyph glyph-name="guilsinglleft" unicode="&#x2039;" horiz-adv-x="618" 
d="M293 471l270 -471h-237l-271 471l271 471h237z" />
    <glyph glyph-name="guilsinglright" unicode="&#x203a;" horiz-adv-x="618" 
d="M326 471l-271 471h238l270 -471l-270 -471h-238z" />
    <glyph glyph-name="fraction" unicode="&#x2044;" horiz-adv-x="253" 
d="M-367 -53l787 1507h194l-774 -1507h-207z" />
    <glyph glyph-name="fraction" unicode="&#x2215;" horiz-adv-x="253" 
d="M-367 -53l787 1507h194l-774 -1507h-207z" />
    <glyph glyph-name="Euro" unicode="&#x20ac;" 
d="M985 1352l-39 -228q-99 52 -217 52q-107 0 -187.5 -71.5t-115.5 -205.5h475l-24 -154h-474v-40q0 -28 3 -52h454l-24 -153h-410q31 -132 105 -204.5t182 -72.5q144 0 266 92v-249q-65 -51 -139 -67.5t-187 -16.5q-213 0 -360.5 138.5t-190.5 379.5h-104l25 153h63v33
q0 39 2 59h-90l25 154h81q46 241 191.5 379.5t357.5 138.5q214 0 332 -65z" />
    <glyph glyph-name="afii61289" unicode="&#x2113;" horiz-adv-x="874" 
d="M748 238l73 -166q-138 -107 -280 -107q-154 0 -232 97t-78 260v88l-96 -93l-76 132l172 161v381q0 207 90 316.5t242 109.5q66 0 116.5 -23.5t78 -62t40.5 -81.5t13 -89q0 -79 -22.5 -155.5t-66.5 -147.5t-92 -130t-114 -128v-238q0 -186 107 -186q63 0 125 62zM655 1124
q0 36 -14.5 59t-44.5 23q-80 0 -80 -157v-236q58 63 98.5 153t40.5 158z" />
    <glyph glyph-name="trademark" unicode="&#x2122;" horiz-adv-x="2048" 
d="M471 647v676h-254v143h666v-143h-246v-676h-166zM981 647v819h258l147 -563h5l147 563h260v-819h-158v651h-4l-174 -651h-151l-170 651h-4v-651h-156z" />
    <glyph glyph-name="estimated" unicode="&#x212e;" horiz-adv-x="1304" 
d="M1206 569h-880v-391q127 -127 311 -127q271 0 420 258l73 -43q-98 -146 -211.5 -218.5t-281.5 -72.5q-167 0 -294.5 80t-194 214t-66.5 300q0 167 66 301.5t194 214.5t297 80q130 0 236 -46t176.5 -127t110 -189t44.5 -234zM952 645v313q-131 134 -315 134
q-185 0 -311 -129v-318h626z" />
    <glyph glyph-name="onethird" unicode="&#x2153;" horiz-adv-x="1515" 
d="M209 688v719h213v-719h-213zM264 -53l787 1507h194l-774 -1507h-207zM938 29v153q115 -43 174 -43q55 0 89 22.5t34 59.5q0 36 -33 58t-88 22q-13 0 -33 -2v147q65 -3 103.5 17t38.5 53q0 29 -31.5 48.5t-77.5 19.5q-65 0 -164 -41v149q115 37 205 37q122 0 198.5 -56
t76.5 -145q0 -47 -21.5 -79.5t-75.5 -67.5q64 -37 90.5 -75.5t26.5 -94.5q0 -97 -84 -159t-215 -62q-81 0 -213 39z" />
    <glyph glyph-name="twothirds" unicode="&#x2154;" horiz-adv-x="1515" 
d="M25 688v31q84 78 194.5 234.5t110.5 224.5q0 37 -29.5 60.5t-73.5 23.5q-70 0 -178 -58v158q113 55 225 55q113 0 184.5 -57t71.5 -146q0 -72 -41 -150t-151 -214h244v-162h-557zM264 -53l787 1507h194l-774 -1507h-207zM938 29v153q115 -43 174 -43q55 0 89 22.5
t34 59.5q0 36 -33 58t-88 22q-13 0 -33 -2v147q65 -3 103.5 17t38.5 53q0 29 -31.5 48.5t-77.5 19.5q-65 0 -164 -41v149q115 37 205 37q122 0 198.5 -56t76.5 -145q0 -47 -21.5 -79.5t-75.5 -67.5q64 -37 90.5 -75.5t26.5 -94.5q0 -97 -84 -159t-215 -62q-81 0 -213 39z
" />
    <glyph glyph-name="oneeighth" unicode="&#x215b;" horiz-adv-x="1515" 
d="M209 688v719h213v-719h-213zM264 -53l787 1507h194l-774 -1507h-207zM924 199q0 67 28 107t101 65q-115 48 -115 159q0 79 71.5 139t194.5 60q116 0 187 -59t71 -140q0 -111 -114 -159q71 -24 100 -65t29 -107q0 -21 -7 -46t-26.5 -54.5t-49 -53t-80.5 -39.5t-116 -16
q-62 0 -111 13.5t-78.5 35t-49.5 50t-27.5 55.5t-7.5 55zM1204 416q72 0 72 114q0 93 -76 93q-72 0 -72 -95q0 -59 18 -85.5t58 -26.5zM1200 98q40 0 57 26.5t17 80.5q0 110 -74 110q-76 0 -76 -114q0 -103 76 -103z" />
    <glyph glyph-name="threeeighths" unicode="&#x215c;" horiz-adv-x="1515" 
d="M53 717v153q115 -43 174 -43q55 0 89 22.5t34 59.5q0 36 -33 58t-88 22q-12 0 -32 -2v148q65 -3 103 16.5t38 52.5q0 29 -31.5 48.5t-77.5 19.5q-64 0 -163 -41v149q115 37 204 37q122 0 198.5 -55.5t76.5 -144.5q0 -47 -21 -80t-75 -68q64 -36 90 -75t26 -95
q0 -97 -84 -159t-215 -62q-81 0 -213 39zM264 -53l787 1507h194l-774 -1507h-207zM924 199q0 67 28 107t101 65q-115 48 -115 159q0 79 71.5 139t194.5 60q116 0 187 -59t71 -140q0 -111 -114 -159q71 -24 100 -65t29 -107q0 -21 -7 -46t-26.5 -54.5t-49 -53t-80.5 -39.5
t-116 -16q-62 0 -111 13.5t-78.5 35t-49.5 50t-27.5 55.5t-7.5 55zM1204 416q72 0 72 114q0 93 -76 93q-72 0 -72 -95q0 -59 18 -85.5t58 -26.5zM1200 98q40 0 57 26.5t17 80.5q0 110 -74 110q-76 0 -76 -114q0 -103 76 -103z" />
    <glyph glyph-name="fiveeighths" unicode="&#x215d;" horiz-adv-x="1515" 
d="M72 711v153q71 -39 164 -39q59 0 87.5 22.5t28.5 59.5q0 82 -135 82q-38 0 -113 -14v432h445v-168h-275v-106q139 4 214 -56.5t75 -169.5q0 -106 -76.5 -167.5t-218.5 -61.5q-98 0 -196 33zM264 -53l787 1507h194l-774 -1507h-207zM924 199q0 67 28 107t101 65
q-115 48 -115 159q0 79 71.5 139t194.5 60q116 0 187 -59t71 -140q0 -111 -114 -159q71 -24 100 -65t29 -107q0 -21 -7 -46t-26.5 -54.5t-49 -53t-80.5 -39.5t-116 -16q-62 0 -111 13.5t-78.5 35t-49.5 50t-27.5 55.5t-7.5 55zM1204 416q72 0 72 114q0 93 -76 93
q-72 0 -72 -95q0 -59 18 -85.5t58 -26.5zM1200 98q40 0 57 26.5t17 80.5q0 110 -74 110q-76 0 -76 -114q0 -103 76 -103z" />
    <glyph glyph-name="seveneighths" unicode="&#x215e;" horiz-adv-x="1515" 
d="M125 764l205 463h-287v180h549v-49l-297 -680zM264 -53l787 1507h194l-774 -1507h-207zM924 199q0 67 28 107t101 65q-115 48 -115 159q0 79 71.5 139t194.5 60q116 0 187 -59t71 -140q0 -111 -114 -159q71 -24 100 -65t29 -107q0 -21 -7 -46t-26.5 -54.5t-49 -53
t-80.5 -39.5t-116 -16q-62 0 -111 13.5t-78.5 35t-49.5 50t-27.5 55.5t-7.5 55zM1204 416q72 0 72 114q0 93 -76 93q-72 0 -72 -95q0 -59 18 -85.5t58 -26.5zM1200 98q40 0 57 26.5t17 80.5q0 110 -74 110q-76 0 -76 -114q0 -103 76 -103z" />
    <glyph glyph-name="partialdiff" unicode="&#x2202;" horiz-adv-x="1077" 
d="M1022 874q0 -200 -41 -358q-38 -151 -109 -269t-177 -190.5t-228 -72.5q-177 0 -289 113.5t-112 287.5q0 96 19 179t52.5 144.5t77.5 109t95.5 77t105.5 44.5t108 15q127 0 191 -73q4 37 4 61q0 111 -50 172.5t-137 61.5q-71 0 -174 -60q-40 158 -57 217q48 38 120 60
t152 22q206 0 327.5 -143.5t121.5 -397.5zM463 227q55 0 102.5 64.5t76.5 156t42 195.5q-42 88 -111 88q-78 0 -138 -106t-60 -258q0 -63 22.5 -101.5t65.5 -38.5z" />
    <glyph glyph-name="product" unicode="&#x220f;" horiz-adv-x="1259" 
d="M1122 -451h-317v1586h-350v-1586h-318v1850h985v-1850z" />
    <glyph glyph-name="summation" unicode="&#x2211;" horiz-adv-x="1046" 
d="M954 -453h-884v209l409 729l-385 697v217h836v-307h-432l336 -600l-353 -635h473v-310z" />
    <glyph glyph-name="minus" unicode="&#x2212;" horiz-adv-x="1366" 
d="M121 807h1124v-248h-1124v248z" />
    <glyph glyph-name="uni2219" unicode="&#x2219;" horiz-adv-x="555" 
d="M279 862q67 0 114 -47t47 -115t-47 -115.5t-114 -47.5q-68 0 -116 48t-48 115t48 114.5t116 47.5z" />
    <glyph glyph-name="radical" unicode="&#x221a;" horiz-adv-x="944" 
d="M967 1489l-355 -1514h-153l-252 670l-101 -57l-71 125l264 155l225 -608l287 1229h156z" />
    <glyph glyph-name="infinity" unicode="&#x221e;" horiz-adv-x="1480" 
d="M1393 688q0 -154 -98.5 -259t-250.5 -105q-178 0 -309 145q-131 -145 -291 -145q-157 0 -257.5 99t-100.5 259t99 260t253 100q178 0 305 -141q133 141 295 141q153 0 254 -99t101 -255zM1124 688q0 43 -24 71.5t-68 28.5q-79 0 -149 -102q68 -106 147 -106
q45 0 69.5 30.5t24.5 77.5zM446 580q75 0 150 106q-78 102 -150 102q-45 0 -68.5 -30.5t-23.5 -77.5q0 -44 26 -72t66 -28z" />
    <glyph glyph-name="integral" unicode="&#x222b;" horiz-adv-x="837" 
d="M821 1399l-73 -236q-78 41 -125 41q-28 0 -45 -22.5t-17 -57.5v-1218q0 -171 -87 -269t-251 -98q-40 0 -100.5 15.5t-106.5 39.5l62 236q71 -31 131 -31q65 0 65 99v1200q0 171 88.5 268.5t255.5 97.5q45 0 103.5 -18t99.5 -47z" />
    <glyph glyph-name="approxequal" unicode="&#x2248;" horiz-adv-x="1366" 
d="M1079 639l168 -186q-156 -238 -358 -238q-58 0 -108.5 14t-85.5 33.5t-66.5 39.5t-64.5 34t-66 14q-116 0 -207 -162l-174 185q73 114 158.5 176.5t199.5 62.5q69 0 129.5 -21t96.5 -46.5t82.5 -46.5t90.5 -21q56 0 108.5 42.5t96.5 119.5zM1079 1174l168 -187
q-156 -237 -358 -237q-58 0 -108.5 14t-85.5 34t-66.5 39.5t-64.5 33.5t-66 14q-116 0 -207 -162l-174 184q73 114 158.5 177t199.5 63q69 0 129.5 -21t96.5 -46.5t82.5 -46.5t90.5 -21q56 0 108.5 42.5t96.5 119.5z" />
    <glyph glyph-name="notequal" unicode="&#x2260;" horiz-adv-x="1366" 
d="M238 45l129 272h-246v248h362l111 234h-473v248h590l133 282h272l-133 -282h262v-248h-379l-110 -234h489v-248h-606l-129 -272h-272z" />
    <glyph glyph-name="lessequal" unicode="&#x2264;" horiz-adv-x="1366" 
d="M123 795v225l1120 467v-268l-780 -312l780 -311v-268zM121 248h1124v-248h-1124v248z" />
    <glyph glyph-name="greaterequal" unicode="&#x2265;" horiz-adv-x="1366" 
d="M1243 795l-1120 -467v268l780 311l-780 312v268l1120 -467v-225zM121 248h1124v-248h-1124v248z" />
    <glyph glyph-name="lozenge" unicode="&#x25ca;" horiz-adv-x="1056" 
d="M563 1434l369 -717l-369 -717h-100l-367 715l367 719h100zM717 715l-203 420l-203 -420l201 -420z" />
    <glyph glyph-name="one.alt" unicode="&#xe000;" 
d="M518 1397h236v-1397h-318v983q-103 -77 -246 -129v260q109 57 200 129.5t128 153.5z" />
    <glyph glyph-name="zero.fitted" unicode="&#xf639;" 
d="M74 698q0 349 118.5 534t344.5 185q117 0 205.5 -53t142.5 -150t81 -226t27 -290t-27 -289.5t-81.5 -225t-144 -149t-208.5 -52.5q-223 0 -340.5 184.5t-117.5 531.5zM391 696q0 -68 1 -115t4 -100.5t9 -88.5t16.5 -70t25.5 -55t36 -32t49 -12q85 0 114.5 106t29.5 369
q0 250 -28 364t-116 114q-32 0 -56 -15.5t-39 -49t-24.5 -71t-14 -98t-6 -114t-1.5 -132.5z" />
    <glyph glyph-name="two.fitted" unicode="&#xf63a;" horiz-adv-x="1003" 
d="M938 276v-276h-903v23q45 41 167.5 218.5t238.5 394.5t116 316q0 90 -56.5 149.5t-142.5 59.5q-124 0 -282 -102v254q175 104 362 104q180 0 297 -107.5t117 -273.5q0 -142 -80 -318.5t-272 -441.5h438z" />
    <glyph glyph-name="three.fitted" unicode="&#xf63b;" horiz-adv-x="974" 
d="M78 53v250q89 -44 150.5 -62t123.5 -18q104 0 168 53.5t64 141.5q0 89 -71 143t-194 47v234q108 -4 172 42t64 126q0 76 -55 121t-144 45q-110 0 -258 -74v250q108 37 177.5 51t148.5 14q198 0 323 -105t125 -272q0 -105 -50.5 -176t-159.5 -121q239 -94 239 -344
q0 -183 -135.5 -300t-349.5 -117q-144 0 -338 71z" />
    <glyph glyph-name="four.fitted" unicode="&#xf63c;" 
d="M571 0v360h-530v228l543 829h282v-839h123v-218h-123v-360h-295zM571 578v483h-4l-313 -483h317z" />
    <glyph glyph-name="five.fitted" unicode="&#xf63d;" horiz-adv-x="964" 
d="M86 35v246q122 -58 250 -58q109 0 177.5 56t68.5 145q0 91 -74 144t-201 53q-74 0 -164 -19v797h723v-277h-452v-274q225 -1 355 -114.5t130 -307.5q0 -200 -141 -322t-373 -122q-156 0 -299 53z" />
    <glyph glyph-name="six.fitted" unicode="&#xf63e;" 
d="M844 1417l-322 -532q44 8 86 8q95 0 171 -37t123 -100t72 -141t25 -164q0 -200 -129.5 -334.5t-324.5 -134.5q-207 0 -336 134.5t-129 352.5q0 125 46 254.5t161 316.5l229 377h328zM387 453q0 -105 44 -167.5t118 -62.5q72 0 114 60t42 163q0 106 -41.5 165t-116.5 59
q-74 0 -117 -58.5t-43 -158.5z" />
    <glyph glyph-name="seven.fitted" unicode="&#xf63f;" horiz-adv-x="1001" 
d="M197 94l372 1028h-516v277h905v-62l-485 -1355z" />
    <glyph glyph-name="eight.fitted" unicode="&#xf640;" 
d="M303 725q-190 102 -190 309q0 167 119.5 275t304.5 108q180 0 297.5 -108.5t117.5 -274.5q0 -210 -194 -309q123 -51 181 -132t58 -202q0 -54 -15.5 -109t-52 -109.5t-89 -96.5t-133.5 -68t-179 -26q-117 0 -208 35t-145 94t-81.5 129t-27.5 147q0 124 56 204t181 134z
M408 1022q0 -217 129 -217q120 0 120 217q0 199 -125 199q-60 0 -92 -50.5t-32 -148.5zM383 393q0 -100 40 -157.5t109 -57.5t108.5 58t39.5 161q0 104 -39.5 164t-108.5 60q-70 0 -109.5 -60.5t-39.5 -167.5z" />
    <glyph glyph-name="nine.fitted" unicode="&#xf641;" 
d="M229 -18l322 532q-44 -8 -86 -8q-94 0 -170 36.5t-124 98.5t-73.5 141t-25.5 166q0 200 129.5 334.5t324.5 134.5q207 0 337 -135t130 -352q0 -230 -151 -479l-287 -469h-326zM686 946q0 105 -44 167.5t-118 62.5q-72 0 -114.5 -60.5t-42.5 -163.5q0 -106 42 -164.5
t117 -58.5q72 0 116 59t44 158z" />
    <glyph glyph-name="zero.denominator" unicode="&#xf655;" horiz-adv-x="630" 
d="M35 360q0 186 68.5 277.5t209.5 91.5q142 0 211.5 -91.5t69.5 -277.5t-69.5 -278t-211.5 -92q-141 0 -209.5 92t-68.5 278zM313 580q-43 0 -56 -52t-13 -170q0 -59 2.5 -95t9.5 -66.5t21 -44t36 -13.5q44 0 58 52t14 169t-14 168.5t-58 51.5z" />
    <glyph glyph-name="one.denominator" unicode="&#xf656;" horiz-adv-x="630" 
d="M209 0v719h213v-719h-213z" />
    <glyph glyph-name="two.denominator" unicode="&#xf657;" horiz-adv-x="630" 
d="M25 0v31q84 78 194.5 234t110.5 224q0 37 -29.5 60.5t-73.5 23.5q-72 0 -178 -57v158q113 55 225 55q113 0 184.5 -57t71.5 -146q0 -72 -41 -150t-151 -214h244v-162h-557z" />
    <glyph glyph-name="three.denominator" unicode="&#xf658;" horiz-adv-x="630" 
d="M53 29v153q115 -43 174 -43q55 0 89 22.5t34 59.5q0 36 -33 58t-88 22q-12 0 -32 -2v147q64 -3 102.5 17t38.5 53q0 29 -31.5 48.5t-77.5 19.5q-64 0 -163 -41v149q115 37 204 37q122 0 198.5 -56t76.5 -145q0 -47 -21 -79.5t-75 -67.5q64 -36 90 -75t26 -95
q0 -97 -84 -159t-215 -62q-81 0 -213 39z" />
    <glyph glyph-name="four.denominator" unicode="&#xf659;" horiz-adv-x="630" 
d="M334 0v178h-311v131l325 420h184v-416h72v-135h-72v-178h-198zM334 313v191h-4l-144 -191h148z" />
    <glyph glyph-name="five.denominator" unicode="&#xf65a;" horiz-adv-x="630" 
d="M72 23v153q71 -39 164 -39q59 0 87.5 22.5t28.5 59.5q0 82 -135 82q-38 0 -113 -14v432h445v-168h-275v-107q139 4 214 -56t75 -169q0 -106 -76.5 -167.5t-218.5 -61.5q-98 0 -196 33z" />
    <glyph glyph-name="six.denominator" unicode="&#xf65b;" horiz-adv-x="630" 
d="M500 729l-185 -268q16 2 47 2q114 0 169 -69t55 -161q0 -105 -71.5 -174t-190.5 -69q-131 0 -205 72.5t-74 183.5q0 69 22.5 131t73.5 137l144 215h215zM238 238q0 -105 81 -105q74 0 74 90q0 55 -16.5 82t-59.5 27q-79 0 -79 -94z" />
    <glyph glyph-name="seven.denominator" unicode="&#xf65c;" horiz-adv-x="630" 
d="M125 76l205 463h-287v180h549v-49l-297 -680z" />
    <glyph glyph-name="eight.denominator" unicode="&#xf65d;" horiz-adv-x="630" 
d="M39 199q0 67 28 107t101 65q-115 48 -115 159q0 79 71.5 139t194.5 60q117 0 188 -59t71 -140q0 -111 -115 -159q71 -24 100 -65t29 -107q0 -21 -7 -46t-26.5 -54.5t-49 -53t-80.5 -39.5t-116 -16q-62 0 -111 13.5t-78.5 35t-49.5 50t-27.5 55.5t-7.5 55zM319 416
q72 0 72 114q0 93 -76 93q-71 0 -71 -95q0 -59 17.5 -85.5t57.5 -26.5zM315 98q40 0 57 26.5t17 80.5q0 110 -74 110q-75 0 -75 -114q0 -103 75 -103z" />
    <glyph glyph-name="nine.denominator" unicode="&#xf65e;" horiz-adv-x="630" 
d="M131 -10l184 268q-16 -2 -47 -2q-114 0 -168.5 68.5t-54.5 160.5q0 105 71.5 174.5t190.5 69.5q131 0 205 -72.5t74 -183.5q0 -69 -23 -130.5t-74 -137.5l-143 -215h-215zM393 481q0 47 -20 76t-62 29q-39 0 -56 -22.5t-17 -67.5q0 -55 16 -82t59 -27q41 0 60.5 26
t19.5 68z" />
    <glyph glyph-name="zero.numerator" unicode="&#xf661;" horiz-adv-x="630" 
d="M35 1049q0 186 68.5 277t209.5 91q142 0 211.5 -91t69.5 -277q0 -371 -281 -371q-278 0 -278 371zM313 1268q-43 0 -56 -51.5t-13 -169.5q0 -59 2.5 -95t9.5 -67t21 -44.5t36 -13.5q44 0 58 52t14 170q0 117 -14 168t-58 51z" />
    <glyph glyph-name="one.numerator" unicode="&#xf662;" horiz-adv-x="630" 
d="M209 688v719h213v-719h-213z" />
    <glyph glyph-name="two.numerator" unicode="&#xf663;" horiz-adv-x="630" 
d="M25 688v31q84 78 194.5 234.5t110.5 224.5q0 37 -29.5 60.5t-73.5 23.5q-70 0 -178 -58v158q113 55 225 55q113 0 184.5 -57t71.5 -146q0 -72 -41 -150t-151 -214h244v-162h-557z" />
    <glyph glyph-name="three.numerator" unicode="&#xf664;" horiz-adv-x="630" 
d="M53 717v153q115 -43 174 -43q55 0 89 22.5t34 59.5q0 36 -33 58t-88 22q-12 0 -32 -2v148q65 -3 103 16.5t38 52.5q0 29 -31.5 48.5t-77.5 19.5q-64 0 -163 -41v149q115 37 204 37q122 0 198.5 -55.5t76.5 -144.5q0 -47 -21 -80t-75 -68q64 -36 90 -75t26 -95
q0 -97 -84 -159t-215 -62q-81 0 -213 39z" />
    <glyph glyph-name="four.numerator" unicode="&#xf665;" horiz-adv-x="630" 
d="M334 688v178h-311v131l325 420h184v-416h72v-135h-72v-178h-198zM334 1001v191h-4l-144 -191h148z" />
    <glyph glyph-name="five.numerator" unicode="&#xf666;" horiz-adv-x="630" 
d="M72 711v153q71 -39 164 -39q59 0 87.5 22.5t28.5 59.5q0 82 -135 82q-38 0 -113 -14v432h445v-168h-275v-106q139 4 214 -56.5t75 -169.5q0 -106 -76.5 -167.5t-218.5 -61.5q-98 0 -196 33z" />
    <glyph glyph-name="six.numerator" unicode="&#xf667;" horiz-adv-x="630" 
d="M500 1417l-185 -268q16 2 47 2q114 0 169 -68.5t55 -160.5q0 -105 -71.5 -174.5t-190.5 -69.5q-131 0 -205 72.5t-74 183.5q0 69 22.5 131t73.5 137l144 215h215zM238 926q0 -105 81 -105q74 0 74 90q0 55 -16.5 82t-59.5 27q-79 0 -79 -94z" />
    <glyph glyph-name="seven.numerator" unicode="&#xf668;" horiz-adv-x="630" 
d="M125 764l205 463h-287v180h549v-49l-297 -680z" />
    <glyph glyph-name="eight.numerator" unicode="&#xf669;" horiz-adv-x="630" 
d="M39 887q0 67 28 107t101 65q-115 48 -115 160q0 79 71.5 138.5t194.5 59.5q117 0 188 -59t71 -139q0 -112 -115 -160q71 -24 100 -65t29 -107q0 -21 -7 -46t-26.5 -54.5t-49 -53t-80.5 -39.5t-116 -16q-62 0 -111 13.5t-78.5 35t-49.5 50t-27.5 55.5t-7.5 55zM319 1104
q72 0 72 115q0 92 -76 92q-71 0 -71 -94q0 -59 17.5 -86t57.5 -27zM315 786q40 0 57 26.5t17 80.5q0 111 -74 111q-75 0 -75 -115q0 -103 75 -103z" />
    <glyph glyph-name="nine.numerator" unicode="&#xf66a;" horiz-adv-x="630" 
d="M131 678l184 268q-16 -2 -47 -2q-59 0 -104 20.5t-70 55t-37 73.5t-12 81q0 105 71.5 174t190.5 69q131 0 205 -72.5t74 -183.5q0 -69 -23 -130.5t-74 -137.5l-143 -215h-215zM393 1169q0 47 -20 76t-62 29q-39 0 -56 -22.5t-17 -67.5q0 -55 16 -82t59 -27q41 0 60.5 26
t19.5 68z" />
    <glyph glyph-name="one.fitted" unicode="&#xf6d6;" horiz-adv-x="702" 
d="M193 0v1399h317v-1399h-317z" />
    <glyph glyph-name="one.fitted" unicode="&#xf6dc;" horiz-adv-x="702" 
d="M193 0v1399h317v-1399h-317z" />
    </font>
</defs>
</svg>
