<?xml version="1.0" standalone="no"?>
<!DOCTYPE svg PUBLIC "-//W3C//DTD SVG 1.1//EN" "http://www.w3.org/Graphics/SVG/1.1/DTD/svg11.dtd" >
<svg xmlns="http://www.w3.org/2000/svg" xmlns:xlink="http://www.w3.org/1999/xlink" version="1.1">
<metadata>
Created by FontForge 20170731 at Thu May  6 13:46:55 2021
 By Aleksey,,,
Font software Copyright 1990, 1991, 1998 Adobe Systems Incorporated. Typeface designs Copyright The Monotype Corporation. All rights reserved.
</metadata>
<defs>
<font id="GillSans-Heavy" horiz-adv-x="724" >
  <font-face 
    font-family="Gill Sans"
    font-weight="900"
    font-stretch="normal"
    units-per-em="2048"
    panose-1="2 11 9 2 2 1 4 2 2 3"
    ascent="1397"
    descent="-651"
    x-height="1018"
    cap-height="1386"
    bbox="-473 -494 2419 1890"
    underline-thickness="102"
    underline-position="-307"
    unicode-range="U+0020-FB04"
  />
<missing-glyph horiz-adv-x="1024" 
d="M25 0v1362h972v-1362h-972zM180 1266l332 -498l330 498h-662zM123 1178v-992q0 -1 82.5 123t164.5 249l83 124zM901 1178l-332 -496l332 -498v994zM842 98l-330 496l-332 -496h662z" />
    <glyph glyph-name="fi" unicode="fi" horiz-adv-x="1333" 
d="M1020 1405q63 0 107 -44.5t44 -107.5t-44 -107t-107 -44t-107.5 44t-44.5 107t44.5 107.5t107.5 44.5zM723 721h-182v-721h-361v721h-166v244h166v18q0 60 11.5 115t42 112.5t78 99.5t126 68.5t178.5 26.5q64 0 150 -16v-252q-63 10 -102 10q-58 0 -90.5 -38t-32.5 -108
v-36h182v-244zM840 1018h360v-1018h-360v1018z" />
    <glyph glyph-name="fl" unicode="fl" horiz-adv-x="1333" 
d="M840 1386h360v-1386h-360v1386zM723 721h-182v-721h-361v721h-166v244h166v18q0 90 25.5 165t77 133t136.5 91t197 33q76 0 150 -16v-252q-63 10 -102 10q-58 0 -90.5 -38t-32.5 -108v-36h182v-244z" />
    <glyph glyph-name="f_f" unicode="ff" horiz-adv-x="1415" 
d="M1382 721h-182v-721h-360v721h-299v-721h-361v721h-166v244h166v18q0 61 12.5 118t44 113.5t79.5 98t125 67t175 25.5q79 0 181 -19v-258q-93 19 -133 19q-58 0 -90.5 -38t-32.5 -108v-36h299v18q0 61 12.5 118t44 113.5t79.5 98t125 67t175 25.5q78 0 180 -19v-258
q-93 19 -133 19q-58 0 -90.5 -38t-32.5 -108v-36h182v-244z" />
    <glyph glyph-name="f_f_i" unicode="ffi" horiz-adv-x="1992" 
d="M1382 721h-182v-721h-360v721h-299v-721h-361v721h-166v244h166v18q0 61 12.5 118t44 113.5t79.5 98t125 67t175 25.5q79 0 181 -19v-258q-93 19 -133 19q-58 0 -90.5 -38t-32.5 -108v-36h299v18q0 60 11.5 115t42 112.5t78 99.5t126 68.5t178.5 26.5q63 0 149 -16v-252
q-63 10 -102 10q-58 0 -90.5 -38t-32.5 -108v-36h182v-244zM1499 1018h361v-1018h-361v1018zM1679 1405q63 0 107.5 -44.5t44.5 -107.5t-44.5 -107t-107.5 -44t-107 44t-44 107t44 107.5t107 44.5z" />
    <glyph glyph-name="f_f_l" unicode="ffl" horiz-adv-x="1992" 
d="M1382 721h-182v-721h-360v721h-299v-721h-361v721h-166v244h166v18q0 61 12.5 118t44 113.5t79.5 98t125 67t175 25.5q79 0 181 -19v-258q-93 19 -133 19q-58 0 -90.5 -38t-32.5 -108v-36h299v18q0 90 25.5 165t77 133t136.5 91t197 33q75 0 149 -16v-252q-63 10 -102 10
q-58 0 -90.5 -38t-32.5 -108v-36h182v-244zM1499 1386h361v-1386h-361v1386z" />
    <glyph glyph-name=".notdef" horiz-adv-x="1024" 
d="M25 0v1362h972v-1362h-972zM180 1266l332 -498l330 498h-662zM123 1178v-992q0 -1 82.5 123t164.5 249l83 124zM901 1178l-332 -496l332 -498v994zM842 98l-330 496l-332 -496h662z" />
    <glyph glyph-name=".null" horiz-adv-x="0" 
 />
    <glyph glyph-name="nonmarkingreturn" horiz-adv-x="682" 
 />
    <glyph glyph-name="space" unicode=" " horiz-adv-x="608" 
 />
    <glyph glyph-name="exclam" unicode="!" horiz-adv-x="618" 
d="M311 457q-34 1 -50.5 12t-29.5 37q-43 89 -90 281t-47 311q0 84 21 147t55 96t69.5 48.5t71.5 15.5t71 -15.5t68 -48.5t53.5 -96t20.5 -147q0 -120 -45.5 -313.5t-87.5 -278.5q-13 -26 -29.5 -37t-50.5 -12zM311 412q89 0 151 -63t62 -152t-62 -152t-151 -63
q-88 0 -152.5 63t-64.5 152q0 90 64 152.5t153 62.5z" />
    <glyph glyph-name="quotedbl" unicode="&#x22;" horiz-adv-x="1024" 
d="M49 1386h406v-241l-66 -295h-274l-66 295v241zM569 1386h406v-241l-64 -295h-276l-66 295v241z" />
    <glyph glyph-name="numbersign" unicode="#" horiz-adv-x="1366" 
d="M377 1047l78 372h215l-78 -372h330l77 372h218l-80 -372h155v-218h-200l-58 -272h258v-217h-303l-78 -373h-217l80 373h-330l-77 -373h-217l79 373h-155v217h200l58 272h-258v218h303zM819 557l58 272h-330l-58 -272h330z" />
    <glyph glyph-name="dollar" unicode="$" horiz-adv-x="1280" 
d="M702 -193h-153v175q-96 11 -211.5 50.5t-212.5 100.5v285q214 -170 424 -197v334q-113 28 -196.5 68t-129.5 80t-73.5 89t-35.5 88t-8 85q0 40 9.5 81.5t38.5 94.5t75.5 95.5t129.5 77.5t190 48v88h153v-88q111 -15 201.5 -50t198.5 -102v-297q-65 55 -171 114t-229 87
v-274q76 -26 134 -51t121 -65t104 -85.5t67.5 -110.5t26.5 -141q0 -63 -24 -125.5t-74 -122t-142 -102.5t-213 -55v-175zM702 516v-297q29 6 49 13t48 22.5t43.5 42t15.5 63.5q0 54 -35.5 87.5t-120.5 68.5zM549 879v249q-61 -3 -104.5 -33t-43.5 -83q0 -14 4.5 -28.5
t18 -35t46 -39t79.5 -30.5z" />
    <glyph glyph-name="percent" unicode="%" horiz-adv-x="1642" 
d="M446 928q56 0 96 39t40 94t-40 95t-96 40q-55 0 -94 -39.5t-39 -95.5q0 -55 38.5 -94t94.5 -39zM446 1405q143 0 244 -100t101 -242t-101 -243t-244 -101q-142 0 -242 100.5t-100 243.5t100 242.5t242 99.5zM424 -37h-205l1002 1442h202zM1194 649q143 0 243.5 -100
t100.5 -242q0 -143 -101 -243.5t-243 -100.5t-242 100.5t-100 243.5t100 242.5t242 99.5zM1194 172q56 0 95.5 39t39.5 94t-39.5 95t-95.5 40q-55 0 -94 -39.5t-39 -95.5q0 -55 38.5 -94t94.5 -39z" />
    <glyph glyph-name="ampersand" unicode="&#x26;" horiz-adv-x="1685" 
d="M1227 713h334q-58 -110 -137 -218t-162 -182l299 -313h-471l-89 92q-165 -110 -421 -110q-122 0 -218 30.5t-153 82t-86 113.5t-29 130q0 105 63 186.5t244 204.5q-80 83 -116.5 152.5t-36.5 148.5q0 156 127 265.5t346 109.5q87 0 161 -22.5t123 -59t84 -82t50.5 -91
t15.5 -87.5q0 -107 -72.5 -197.5t-195.5 -152.5l186 -199q50 45 84 90t70 109zM723 883q154 67 154 172q0 46 -36 83.5t-108 37.5q-70 0 -103.5 -35t-33.5 -76q0 -24 18.5 -55t40.5 -55.5t56 -59.5q3 -2 4.5 -3.5t3.5 -4t4 -4.5zM819 287l-244 256q-133 -85 -133 -168
q0 -50 47.5 -100t137.5 -50q102 0 192 62z" />
    <glyph glyph-name="quotesingle" unicode="'" horiz-adv-x="569" 
d="M82 1386h405v-241l-63 -295h-277l-65 295v241z" />
    <glyph glyph-name="parenleft" unicode="(" horiz-adv-x="788" 
d="M596 1405h264q-45 -48 -68.5 -74.5t-73 -89t-79 -112t-69 -129.5t-61.5 -156t-38 -176.5t-16 -206.5q0 -143 29.5 -276t63 -218.5t100 -184t98 -135.5t99.5 -111q10 -12 15 -17h-264q-37 28 -71 56.5t-89 82.5t-100.5 109.5t-95.5 135t-84.5 160.5t-57 184.5t-22.5 209.5
t22.5 209.5t55.5 183.5t84.5 161.5t94 135t101.5 112t89 84.5t73 62z" />
    <glyph glyph-name="parenright" unicode=")" horiz-adv-x="788" 
d="M193 -481h-265q45 49 68.5 75t73.5 89t79 112t69 129t62 156t38 176.5t16 206.5q0 104 -14.5 201t-37 173.5t-56.5 150t-67 127t-74.5 108.5t-72.5 90t-68 75q-11 11 -16 17h265q37 -28 71 -56.5t89 -82.5t100.5 -109.5t95.5 -135t84.5 -160.5t57 -184.5t22.5 -209.5
t-22.5 -209.5t-55.5 -183.5t-84.5 -161.5t-94 -135t-101.5 -112t-89 -84.5t-73 -62z" />
    <glyph glyph-name="asterisk" unicode="*" horiz-adv-x="1153" 
d="M535 1001l-84 252q-23 70 -23 84q0 68 154 68q145 0 145 -64q0 -11 -4 -26.5t-10 -33.5t-6 -19l-91 -261q24 -10 46 -30l215 166q8 6 19 14.5t15 11.5t10.5 8t9 6t7.5 2.5t8.5 2t9.5 0.5q16 0 27.5 -4.5t30.5 -29t37 -71.5q24 -64 24 -119q0 -18 -6.5 -30.5t-15 -19
t-27.5 -9.5t-32 -3.5t-40 -0.5h-268q-2 -30 -16 -53l215 -152q37 -25 56 -43.5t21.5 -25t2.5 -15.5q0 -49 -84.5 -110.5t-122.5 -61.5q-25 0 -41.5 25.5t-32.5 81.5l-78 252q-1 0 -11.5 -2.5t-16.5 -2.5t-17 2.5t-12 2.5l-84 -254q-25 -71 -38 -86q-14 -15 -36 -15
q-45 0 -126 63t-81 105q0 11 3 18t18.5 22t46.5 36l229 160q-14 33 -16 53l-275 -2q-66 0 -87 13q-25 16 -25 52q0 62 34 145t72 83q22 0 36 -7.5t50 -35.5l224 -172q17 19 41 30z" />
    <glyph glyph-name="plus" unicode="+" horiz-adv-x="1366" 
d="M121 817h438v438h248v-438h438v-248h-438v-438h-248v438h-438v248z" />
    <glyph glyph-name="comma" unicode="," horiz-adv-x="618" 
d="M72 -344v63q166 62 157 287q-157 45 -157 197q0 84 61.5 146.5t151.5 62.5q65 0 116 -29t81 -76t45.5 -101t15.5 -110q0 -54 -15.5 -107.5t-51 -108t-88.5 -99t-134.5 -78t-181.5 -47.5z" />
    <glyph glyph-name="hyphen" unicode="-" horiz-adv-x="1003" 
d="M174 682h655v-334h-655v334z" />
    <glyph glyph-name="period" unicode="." horiz-adv-x="575" 
d="M291 412q89 0 151 -63t62 -152t-62 -152t-151 -63q-88 0 -152.5 63t-64.5 152q0 90 64 152.5t153 62.5z" />
    <glyph glyph-name="slash" unicode="/" horiz-adv-x="1083" 
d="M784 1405h269l-754 -1423h-268z" />
    <glyph glyph-name="zero" unicode="0" horiz-adv-x="1216" 
d="M68 692q0 181 44 321t120.5 224t171.5 126t204 42q87 0 165 -26t147.5 -82t120 -138t79.5 -202t29 -265q0 -146 -29 -265.5t-79.5 -201t-120 -137t-147.5 -81t-165 -25.5q-109 0 -204 41.5t-171.5 125t-120.5 223t-44 320.5zM463 692q0 -47 0.5 -72t2 -70.5t5.5 -71.5
t10.5 -62.5t17 -57.5t25.5 -42t36.5 -30.5t47.5 -9.5t47.5 9.5t36.5 30t26 42t17.5 57.5t10.5 63t5.5 71.5t2 70.5t0.5 72q0 40 -0.5 64t-2 67.5t-5.5 71.5t-10.5 65.5t-17.5 61t-26 46t-36.5 33.5t-47.5 11t-47.5 -10.5t-36.5 -33.5t-26 -46.5t-17 -61t-10 -65t-5.5 -72
t-2 -67.5t-0.5 -64z" />
    <glyph glyph-name="one" unicode="1" horiz-adv-x="1216" 
d="M797 0h-379v1386h379v-1386z" />
    <glyph glyph-name="two" unicode="2" horiz-adv-x="1216" 
d="M1137 311v-311h-1053v27q103 98 322 358q47 55 75 89t67.5 90.5t61 101t38 101.5t16.5 112q0 97 -55.5 156t-141.5 59q-170 0 -338 -176v327q2 1 31 20t38 24t38.5 22.5t46 24.5t47.5 21t56 20t57.5 14t66 11t68.5 3q197 0 325.5 -116t128.5 -312q0 -32 -3.5 -63.5
t-11.5 -61.5t-15.5 -55t-21 -54t-22 -47t-24.5 -44.5t-22.5 -36.5t-22 -33.5t-17.5 -26.5q-86 -128 -184 -244h449z" />
    <glyph glyph-name="three" unicode="3" horiz-adv-x="1216" 
d="M147 82v311q163 -137 318 -137q93 0 146 49.5t53 112.5q0 79 -63 131t-169 53h-45v223h53q54 0 95.5 17t63 43.5t32 52.5t10.5 49q0 63 -49 111.5t-125 48.5q-138 0 -283 -96v266q63 26 106.5 41.5t120.5 31t152 15.5q97 0 178 -26t133 -66t88 -90.5t51 -98t15 -90.5
q0 -92 -56 -179.5t-132 -129.5q29 -16 51.5 -30.5t54.5 -44.5t53 -64t36.5 -87t15.5 -114q0 -88 -30.5 -159t-79 -115t-110.5 -74.5t-121.5 -42.5t-117.5 -12q-107 0 -233.5 29.5t-211.5 70.5z" />
    <glyph glyph-name="four" unicode="4" horiz-adv-x="1216" 
d="M979 0h-369v299h-563v264l635 823h297v-849h164v-238h-164v-299zM266 537h344v444z" />
    <glyph glyph-name="five" unicode="5" horiz-adv-x="1216" 
d="M1008 1386v-292h-496v-238q75 6 88 6q105 0 194 -35t147.5 -94.5t91 -136.5t32.5 -162q0 -89 -31 -169t-90 -144t-155.5 -101.5t-217.5 -37.5q-265 0 -460 133v299q66 -48 181 -97t202 -49q54 0 93 17.5t57.5 45t26 52.5t7.5 49q0 35 -12 65t-40 59t-82.5 45.5
t-129.5 16.5q-109 0 -209 -40v808h803z" />
    <glyph glyph-name="six" unicode="6" horiz-adv-x="1216" 
d="M621 1407l342 -113q-242 -206 -353 -374q38 10 92 10q187 0 318 -125.5t131 -325.5q0 -96 -38.5 -185.5t-106.5 -159t-169.5 -111t-220.5 -41.5q-132 0 -238.5 46t-173 123.5t-101.5 174.5t-35 204q0 234 149 465t404 412zM791 485q0 94 -54 140.5t-125 46.5
q-50 0 -88.5 -19.5t-58 -50t-28.5 -60t-9 -57.5q0 -81 50.5 -136.5t127.5 -55.5q49 0 86.5 19.5t58 50t30.5 62t10 60.5z" />
    <glyph glyph-name="seven" unicode="7" horiz-adv-x="1216" 
d="M551 -18l-322 102l424 995h-561v307h1051v-40z" />
    <glyph glyph-name="eight" unicode="8" horiz-adv-x="1216" 
d="M291 715q-84 52 -130 120.5t-46 176.5q0 47 14 97t50 104t89.5 96t141.5 69t198 27q112 0 201.5 -27.5t143 -69t88.5 -96t48 -103.5t13 -97q0 -108 -44.5 -174.5t-131.5 -122.5q101 -51 162 -144t61 -198q0 -37 -9.5 -79.5t-44 -100.5t-90 -102.5t-159 -76.5t-238.5 -32
q-100 0 -183 16.5t-137.5 43t-96 63t-64.5 72t-37 75.5t-18 67.5t-4 53.5q0 106 60 198.5t163 143.5zM608 801q57 0 100.5 51.5t43.5 132.5q0 27 -6.5 56t-21.5 60t-44 50.5t-68 19.5q-41 0 -71 -18t-46 -47.5t-23 -59.5t-7 -61q0 -81 43 -132.5t100 -51.5zM610 203
q73 0 128 56.5t55 150.5t-58 149t-127 55q-71 0 -127.5 -55t-56.5 -149q0 -100 57 -153.5t129 -53.5z" />
    <glyph glyph-name="nine" unicode="9" horiz-adv-x="1216" 
d="M596 -20l-342 112q238 203 352 375q-38 -10 -92 -10q-187 0 -317.5 125t-130.5 325q0 96 38 186t106 159t169.5 111t220.5 42q106 0 196.5 -30.5t154.5 -82.5t109.5 -122t67 -149.5t21.5 -164.5q0 -234 -149 -464.5t-404 -411.5zM426 901q0 -94 53.5 -140t124.5 -46
q50 0 88.5 19.5t58 49.5t28.5 59.5t9 57.5q0 81 -50.5 137t-127.5 56q-49 0 -86.5 -19.5t-57.5 -50.5t-30 -62.5t-10 -60.5z" />
    <glyph glyph-name="colon" unicode=":" horiz-adv-x="575" 
d="M289 1036q86 0 149.5 -62t63.5 -153t-63 -154t-152 -63q-88 0 -150.5 63t-62.5 152q0 94 65 155.5t150 61.5zM291 412q89 0 151 -63t62 -152t-62 -152t-151 -63q-88 0 -152.5 63t-64.5 152q0 90 64 152.5t153 62.5z" />
    <glyph glyph-name="semicolon" unicode=";" horiz-adv-x="618" 
d="M72 -344v63q166 62 157 287q-157 45 -157 197q0 44 21.5 90t72 82.5t119.5 36.5q65 0 116 -29t81 -76t45.5 -101t15.5 -110q0 -54 -15.5 -107.5t-51 -108t-88.5 -99t-134.5 -78t-181.5 -47.5zM289 1036q86 0 149.5 -62t63.5 -153t-63 -154t-152 -63q-88 0 -150.5 63
t-62.5 152q0 94 65 155.5t150 61.5z" />
    <glyph glyph-name="semicolon" unicode="&#x37e;" horiz-adv-x="618" 
d="M72 -344v63q166 62 157 287q-157 45 -157 197q0 44 21.5 90t72 82.5t119.5 36.5q65 0 116 -29t81 -76t45.5 -101t15.5 -110q0 -54 -15.5 -107.5t-51 -108t-88.5 -99t-134.5 -78t-181.5 -47.5zM289 1036q86 0 149.5 -62t63.5 -153t-63 -154t-152 -63q-88 0 -150.5 63
t-62.5 152q0 94 65 155.5t150 61.5z" />
    <glyph glyph-name="less" unicode="&#x3c;" horiz-adv-x="1366" 
d="M1245 115l-1124 467v223l1124 467v-264l-778 -314l778 -313v-266z" />
    <glyph glyph-name="equal" unicode="=" horiz-adv-x="1366" 
d="M121 1057h1124v-248h-1124v248zM121 573h1124v-247h-1124v247z" />
    <glyph glyph-name="greater" unicode="&#x3e;" horiz-adv-x="1366" 
d="M121 1272l1124 -467v-223l-1124 -467v266l778 313l-778 314v264z" />
    <glyph glyph-name="question" unicode="?" horiz-adv-x="788" 
d="M74 1096l94 278q108 31 190 31q93 0 165.5 -26t115.5 -68.5t64.5 -93t21.5 -103.5q0 -95 -35.5 -160t-150.5 -166q-58 -50 -102 -132.5t-44 -135.5q0 -67 -76 -67q-59 0 -73 41q-21 59 -21 151q0 95 39 186q2 6 26 56t35 81t11 52q0 15 -4.5 30t-16.5 32.5t-39 28.5
t-65 11q-58 0 -119 -26h-16zM324 412q89 0 151 -63t62 -152t-62 -152t-151 -63q-88 0 -153 63t-65 152q0 90 64.5 152.5t153.5 62.5z" />
    <glyph glyph-name="at" unicode="@" horiz-adv-x="1968" 
d="M1745 -41h209q-60 -121 -156 -209.5t-214 -137t-240.5 -71t-258.5 -22.5q-284 0 -518 92q-106 41 -191.5 107.5t-144 145.5t-98 172t-57 187t-17.5 191q0 104 19 205.5t59 200t98.5 185.5t142 160.5t184 126.5t230 83t275.5 30q196 0 356.5 -60.5t264.5 -164.5
t160.5 -239.5t56.5 -287.5q0 -136 -49 -265t-133.5 -228t-206.5 -159t-259 -60q-89 0 -129 29t-55 83q-22 -21 -36.5 -32.5t-50 -34t-81.5 -34t-100 -11.5q-164 0 -269.5 113.5t-105.5 307.5q0 80 21 167.5t65.5 172.5t105.5 152.5t148.5 109.5t187.5 42q179 0 263 -134
l22 109h260l-147 -705q-15 -74 -15 -88q0 -13 4 -22.5t8.5 -14t11 -7t10 -3t5.5 -0.5q29 0 72 24t90 71t88 108.5t67.5 145.5t26.5 172q0 70 -18.5 142t-66.5 149.5t-120 136.5t-190 97t-266 38q-143 0 -263.5 -32.5t-203.5 -85t-148 -125t-103 -147t-62.5 -157
t-33.5 -148.5t-9 -127q0 -102 24.5 -197.5t85 -189t152.5 -162.5t238 -112t329 -43q129 0 239 20.5t177 47.5t126 68t83 66t51 58zM696 350q0 -118 49.5 -173.5t114.5 -55.5q62 0 114 37t84 92t54.5 122.5t31.5 125t9 102.5q0 16 -1.5 35t-11 56.5t-25.5 65.5t-50.5 50
t-81.5 22q-59 0 -109 -32.5t-82 -84t-54.5 -116.5t-32 -127t-9.5 -119z" />
    <glyph glyph-name="A" unicode="A" horiz-adv-x="1705" 
d="M1155 281h-602l-115 -281h-428l613 1386h462l611 -1386h-428zM651 522h408l-203 506z" />
    <glyph glyph-name="B" unicode="B" horiz-adv-x="1533" 
d="M174 1386h670q253 0 376 -90t123 -235q0 -114 -61 -195.5t-133 -109.5q140 -55 215.5 -140.5t75.5 -222.5q0 -178 -122.5 -285.5t-342.5 -107.5h-801v1386zM680 1153h-88v-332h90q143 0 206.5 32.5t63.5 133.5q0 52 -18 86t-56 51t-83.5 23t-114.5 6zM762 588h-170v-355
h170q258 0 258 177q0 178 -258 178z" />
    <glyph glyph-name="C" unicode="C" horiz-adv-x="1521" 
d="M1415 455v-351q-236 -122 -547 -122q-181 0 -328.5 51.5t-247.5 145t-154 225.5t-54 290q0 143 42 261.5t115.5 200.5t174 139t216 83.5t242.5 26.5q107 0 221.5 -20.5t173.5 -38.5t140 -46v-368q-116 70 -185 98q-128 51 -255 51q-121 0 -224.5 -46.5t-169 -137.5
t-65.5 -209q0 -161 123.5 -272t312.5 -111q78 0 152.5 15t138 42.5t99 46.5t79.5 46z" />
    <glyph glyph-name="D" unicode="D" horiz-adv-x="1683" 
d="M174 1386h576q125 0 226 -14.5t172.5 -41t118.5 -53.5t91 -63q107 -86 174 -226t67 -320q0 -348 -260 -551q-150 -117 -438 -117h-727v1386zM592 1108v-821h178q38 0 70 2.5t75 12t77.5 26t69.5 46.5t58.5 71t38.5 103t15 138q0 105 -28.5 185t-70 123.5t-99.5 70.5
t-106 35t-100 8h-178z" />
    <glyph glyph-name="E" unicode="E" horiz-adv-x="1325" 
d="M592 279h627v-279h-1045v1386h1028v-278h-610v-254h582v-279h-582v-296z" />
    <glyph glyph-name="F" unicode="F" horiz-adv-x="1273" 
d="M174 1386h993v-278h-575v-268h575v-279h-575v-561h-418v1386z" />
    <glyph glyph-name="G" unicode="G" horiz-adv-x="1636" 
d="M1454 1305v-328q-45 26 -77 41.5t-92.5 39.5t-134.5 36t-157 12q-112 0 -200.5 -30t-140 -74.5t-85 -103t-45.5 -109t-12 -99.5q0 -78 28 -147.5t80.5 -124t137 -86t190.5 -31.5q71 0 170 21v163h-188v279h553v-666q-126 -48 -224 -71q-187 -45 -389 -45
q-125 0 -238.5 26t-213.5 82t-173.5 138t-116 202t-42.5 266q0 152 55.5 298t169.5 235q135 106 274 141t308 35q120 0 238.5 -18.5t178 -35.5t129.5 -40q12 -4 17 -6z" />
    <glyph glyph-name="H" unicode="H" horiz-adv-x="1812" 
d="M1221 541h-629v-541h-418v1386h418v-509h629v509h417v-1386h-417v541z" />
    <glyph glyph-name="I" unicode="I" horiz-adv-x="770" 
d="M176 1386h418v-1386h-418v1386z" />
    <glyph glyph-name="J" unicode="J" horiz-adv-x="811" 
d="M217 1386h418v-1214q0 -73 -2.5 -127t-13.5 -122.5t-30 -117t-54 -98.5t-83.5 -81t-121 -50.5t-164.5 -19.5q-75 0 -150 14l-63 334q45 1 67.5 2.5t55 5t49 11t35.5 20t29.5 31.5t17.5 46q10 39 10 293v1073z" />
    <glyph glyph-name="K" unicode="K" horiz-adv-x="1640" 
d="M174 1386h418v-620l502 620h454l-516 -649l600 -737h-510l-530 649v-649h-418v1386z" />
    <glyph glyph-name="L" unicode="L" horiz-adv-x="1296" 
d="M174 1386h418v-1054h635v-332h-1053v1386z" />
    <glyph glyph-name="M" unicode="M" horiz-adv-x="1961" 
d="M174 0v1386h379l426 -520l428 520h379v-1386h-418v803l-377 -465h-33l-378 465v-803h-406z" />
    <glyph glyph-name="N" unicode="N" horiz-adv-x="1853" 
d="M174 1386h371l717 -768v768h417v-1386h-372l-719 772v-772h-414v1386z" />
    <glyph glyph-name="O" unicode="O" horiz-adv-x="1742" 
d="M1657 694q0 -145 -50.5 -272.5t-146 -226t-247.5 -156t-343 -57.5q-158 0 -289.5 40t-222 107.5t-153.5 159t-92 193.5t-29 212t29 211.5t92 193t153.5 159.5t222 107.5t289.5 39.5q154 0 284 -38t221.5 -104.5t156 -156.5t95 -194t30.5 -218zM510 694q0 -160 96.5 -258
t263.5 -98q170 0 265.5 98.5t95.5 257.5q0 158 -96 256.5t-265 98.5q-168 0 -264 -98t-96 -257z" />
    <glyph glyph-name="P" unicode="P" horiz-adv-x="1431" 
d="M174 1386h692q111 0 200.5 -28t146 -72.5t94 -103t52.5 -116t15 -116.5t-15 -116t-52.5 -114.5t-94 -101t-146 -71t-200.5 -27.5h-274v-520h-418v1386zM680 1120h-88v-334h90q152 0 209 32.5t57 129.5q0 99 -58.5 135.5t-209.5 36.5z" />
    <glyph glyph-name="Q" unicode="Q" horiz-adv-x="1742" 
d="M1704 -78l12 -22l-293 -267q-347 74 -682 261q-130 71 -200 139q-85 30 -161.5 83.5t-145 132.5t-109.5 194.5t-41 250.5q0 110 29 211.5t92 193t153.5 159.5t222 107.5t289.5 39.5q159 0 290.5 -39.5t222.5 -107.5t153.5 -159.5t91.5 -193t29 -211.5q0 -127 -36 -237
t-99 -189.5t-138 -136t-163 -92.5q50 -23 87.5 -38t103.5 -36.5t140.5 -32.5t151.5 -10zM510 694q0 -160 96.5 -258t263.5 -98q170 0 265.5 98.5t95.5 257.5q0 158 -96 256.5t-265 98.5q-168 0 -264 -98t-96 -257z" />
    <glyph glyph-name="R" unicode="R" horiz-adv-x="1531" 
d="M174 1386h711q107 0 193.5 -30t140 -76t90 -105t51 -113.5t14.5 -105.5q0 -67 -19.5 -124.5t-42.5 -90.5t-62 -65t-56 -41.5t-47 -24.5q36 -22 54.5 -36t47 -46.5t58 -86.5t69.5 -140l140 -301h-449l-109 246q-30 69 -57 118.5t-53 82t-48 51.5t-50.5 28.5t-51.5 12
t-59 2.5h-47v-541h-418v1386zM680 1120h-88v-334h90q152 0 209 33.5t57 128.5t-63 133.5t-205 38.5z" />
    <glyph glyph-name="S" unicode="S" horiz-adv-x="1253" 
d="M1083 1288v-325q-228 157 -413 157q-79 0 -113.5 -30.5t-34.5 -73.5q0 -41 34.5 -71t125.5 -73q55 -26 89 -43t79.5 -41t74 -42.5t63 -43.5t55 -47.5t42 -51.5t32.5 -58.5t18.5 -65.5t7.5 -76q0 -195 -146 -308t-379 -113q-235 0 -487 110v340q44 -28 76.5 -46
t92.5 -46.5t125 -43.5t130 -15q47 0 81 9.5t50.5 22t26 29t11 25t1.5 16.5q0 29 -15.5 54t-49 47t-64 37t-82.5 36q-66 28 -117 54.5t-105.5 67t-90.5 85t-59 106.5t-23 134q0 82 30.5 153.5t90 127.5t157 88t221.5 32q90 0 175.5 -15t146 -37.5t92.5 -37.5t51 -27z" />
    <glyph glyph-name="T" unicode="T" horiz-adv-x="1572" 
d="M70 1386h1433v-337h-508v-1049h-417v1049h-508v337z" />
    <glyph glyph-name="U" unicode="U" horiz-adv-x="1771" 
d="M154 1386h417v-657q0 -205 85.5 -302t230.5 -97q143 0 228 96t85 301v659h418v-765q0 -144 -47 -258t-121 -183.5t-173 -115.5t-195 -64t-195 -18q-69 0 -138 9t-142.5 30.5t-138 54.5t-123 84t-100.5 115.5t-66.5 153t-24.5 192.5v765z" />
    <glyph glyph-name="V" unicode="V" horiz-adv-x="1546" 
d="M16 1386h435l317 -800l326 800h436l-625 -1404h-276z" />
    <glyph glyph-name="W" unicode="W" horiz-adv-x="2437" 
d="M16 1386h433l288 -768l330 768h299l324 -768l301 768h428l-600 -1404h-242l-360 817l-369 -817h-244z" />
    <glyph glyph-name="X" unicode="X" horiz-adv-x="1748" 
d="M37 1386h534l95 -116q38 -46 196 -252q95 142 174 237l109 131h524l-539 -665l609 -721h-537l-147 174q-2 2 -42.5 50t-83.5 101.5t-67 86.5q-134 -179 -196 -256l-127 -156h-529l588 721z" />
    <glyph glyph-name="Y" unicode="Y" horiz-adv-x="1538" 
d="M12 1386h434l318 -436l319 436h443l-543 -751v-635h-418v627z" />
    <glyph glyph-name="Z" unicode="Z" horiz-adv-x="1492" 
d="M1446 0h-1407l717 1055h-658v331h1348l-715 -1054h715v-332z" />
    <glyph glyph-name="bracketleft" unicode="[" horiz-adv-x="917" 
d="M164 1386h706v-235h-364v-1378h364v-236h-706v1849z" />
    <glyph glyph-name="backslash" unicode="\" horiz-adv-x="1083" 
d="M31 1405h268l754 -1423h-269z" />
    <glyph glyph-name="bracketright" unicode="]" horiz-adv-x="917" 
d="M754 1386v-1849h-707v236h365v1378h-365v235h707z" />
    <glyph glyph-name="asciicircum" unicode="^" horiz-adv-x="1351" 
d="M537 1386h278l408 -813h-353l-192 492l-195 -492h-354z" />
    <glyph glyph-name="underscore" unicode="_" horiz-adv-x="1024" 
d="M-12 -154h1048v-102h-1048v102z" />
    <glyph glyph-name="grave" unicode="`" horiz-adv-x="681" 
d="M561 1153h-192l-369 317h389z" />
    <glyph glyph-name="a" unicode="a" horiz-adv-x="1169" 
d="M106 621v276q195 139 480 139q221 0 332.5 -85t111.5 -236v-393q0 -57 10.5 -84t38.5 -27q27 0 92 29v-189q-54 -22 -83.5 -32.5t-94 -23.5t-129.5 -13q-48 0 -82.5 10.5t-52.5 30.5t-25.5 33.5t-13.5 33.5q-37 -30 -68 -49.5t-98.5 -39t-148.5 -19.5q-85 0 -147.5 23.5
t-94.5 63.5t-46.5 81.5t-14.5 87.5q0 42 10.5 78t27 63.5t45.5 52.5t58.5 43.5t73 37t81 32t91.5 30.5q172 54 211 74q0 34 -5 57.5t-19.5 49t-49 38.5t-86.5 13q-218 0 -404 -186zM670 246v241q-56 -24 -81.5 -35t-64.5 -32.5t-56 -39t-30.5 -43.5t-13.5 -56
q0 -52 29 -78.5t69 -26.5q54 0 148 70z" />
    <glyph glyph-name="b" unicode="b" horiz-adv-x="1304" 
d="M113 0v1386h360v-428q40 30 111 54t161 24q99 0 181.5 -30.5t138.5 -81.5t94.5 -120t56 -145t17.5 -157q0 -108 -28.5 -197.5t-75 -148t-108 -99t-124.5 -58t-127 -17.5q-61 0 -111.5 11t-89 32.5t-54.5 33t-42 33.5v-92h-360zM473 713v-389q76 -72 182 -72
q19 0 40.5 4.5t51 20.5t52.5 42t39 76t16 115q0 130 -59.5 199t-139.5 69q-81 0 -182 -65z" />
    <glyph glyph-name="c" unicode="c" horiz-adv-x="1046" 
d="M971 977v-283q-185 56 -275 56q-43 0 -84.5 -13t-78.5 -39.5t-59.5 -74.5t-22.5 -111q0 -62 22.5 -111t59.5 -77t78.5 -42t84.5 -14q94 0 291 62v-283q-58 -20 -92.5 -31t-105.5 -22.5t-146 -11.5q-100 0 -184 21.5t-141.5 56t-102.5 82t-71 96t-43 101.5t-23 94.5
t-6 78.5t6 78.5t23 93.5t43 100t71 94.5t102.5 81t141.5 55.5t184 21q76 0 141.5 -10t100 -20t86.5 -29z" />
    <glyph glyph-name="d" unicode="d" horiz-adv-x="1304" 
d="M1192 0h-361v92q-21 -18 -30.5 -25.5t-40.5 -27.5t-58 -29.5t-72.5 -18.5t-94.5 -9q-64 0 -127 17.5t-124.5 58t-108 99t-75 148t-28.5 197.5q0 81 17.5 157t56 145t94 120t138 81.5t181.5 30.5q72 0 131 -15t82.5 -27.5t58.5 -35.5v428h361v-1386zM831 713q-4 2 -20 11
t-21.5 12.5t-20 10.5t-22 10t-21.5 8t-24.5 7t-24.5 4t-28 2q-86 0 -142 -72t-56 -196q0 -70 18 -122.5t48 -81t63 -41.5t69 -13q16 0 32 1.5t29.5 5.5t25 7t23.5 9.5t19 10t17.5 11l14 10t12.5 9.5l9 8v389z" />
    <glyph glyph-name="e" unicode="e" horiz-adv-x="1220" 
d="M1159 494v-72h-717q20 -94 102 -152.5t187 -58.5q182 0 402 102v-223q-197 -108 -478 -108q-142 0 -254.5 41.5t-183.5 114t-108 168.5t-37 208t37 206.5t108 165t183.5 110.5t254.5 40q72 0 140 -16.5t135 -56.5t117 -100.5t81 -155.5t31 -213zM432 600h389
q0 98 -49.5 156.5t-138.5 58.5q-88 0 -144.5 -59.5t-56.5 -155.5z" />
    <glyph glyph-name="f" unicode="f" horiz-adv-x="755" 
d="M723 721h-182v-721h-361v721h-166v244h166v18q0 61 12.5 118t44 113.5t79.5 98t125 67t175 25.5q79 0 181 -19v-258q-93 19 -133 19q-58 0 -90.5 -38t-32.5 -108v-36h182v-244z" />
    <glyph glyph-name="g" unicode="g" horiz-adv-x="1153" 
d="M1139 1018v-217h-178q94 -80 94 -201q0 -132 -107.5 -227t-296.5 -105q-125 -5 -125 -67q0 -34 33.5 -44t149.5 -20q25 -2 41 -3.5t49 -6.5t57 -11.5t57.5 -18t57.5 -26.5t50 -37t42 -49t26.5 -63.5t10.5 -79.5q0 -72 -27.5 -128.5t-87 -101.5t-162.5 -69t-245 -24
q-273 0 -400 73t-127 195q0 17 3.5 35.5t18 48.5t38.5 54t71.5 45.5t110.5 29.5q-37 14 -62.5 51t-25.5 78q0 31 12 63.5t49 65t94 43.5q-52 13 -99.5 39t-89 65.5t-66.5 97.5t-25 126q0 100 39 176t108 122t158 68.5t195 22.5h559zM393 625q0 -67 46.5 -114.5t121.5 -47.5
q77 0 128.5 48.5t51.5 117.5q0 75 -52.5 122.5t-117.5 47.5q-84 0 -131 -55t-47 -119zM594 -84q-124 0 -180 -26t-56 -85q0 -114 230 -114q102 0 163.5 30t61.5 89q0 29 -19 50t-43.5 31.5t-59 16.5t-55 7t-42.5 1z" />
    <glyph glyph-name="h" unicode="h" horiz-adv-x="1302" 
d="M115 1386h360v-514q88 94 175.5 129t185.5 35q174 0 270 -99t96 -312v-625h-360v528v3q1 14 1 27.5t-1.5 43.5t-11 54t-24.5 49t-44 39t-68 14q-30 0 -59.5 -11.5t-51 -27t-44.5 -39.5t-35.5 -41.5t-28.5 -40.5v-598h-360v1386z" />
    <glyph glyph-name="i" unicode="i" horiz-adv-x="626" 
d="M133 1018h361v-1018h-361v1018zM313 1405q63 0 107.5 -44.5t44.5 -107.5t-44.5 -107t-107.5 -44t-107 44t-44 107t44 107.5t107 44.5z" />
    <glyph glyph-name="j" unicode="j" horiz-adv-x="626" 
d="M133 1018h361v-1077q0 -92 -27.5 -167t-69.5 -121t-95.5 -77.5t-103.5 -44t-96 -12.5l-120 274q97 31 124 93t27 223v909zM313 1405q63 0 107.5 -44.5t44.5 -107.5t-44.5 -107t-107.5 -44t-107 44t-44 107t44 107.5t107 44.5z" />
    <glyph glyph-name="k" unicode="k" horiz-adv-x="1325" 
d="M113 1386h364v-813l357 445h432l-398 -475l457 -543h-457l-391 483v-483h-364v1386z" />
    <glyph glyph-name="l" unicode="l" horiz-adv-x="626" 
d="M133 1386h361v-1386h-361v1386z" />
    <glyph glyph-name="m" unicode="m" horiz-adv-x="2027" 
d="M1929 621v-621h-360v543q0 215 -148 215q-17 0 -34.5 -3.5t-31.5 -9t-29 -15t-25.5 -17.5t-23.5 -21l-20.5 -20.5t-18 -22t-14.5 -20t-12.5 -18t-9.5 -13.5v-598h-360v543q0 104 -33 159.5t-117 55.5q-33 0 -61 -9.5t-54.5 -33t-38 -35.5t-37 -46.5t-26.5 -35.5v-598
h-360v1018h360v-146q80 85 164.5 124.5t194.5 39.5q247 0 333 -198q87 99 180 148.5t216 49.5q184 0 275 -107t91 -308z" />
    <glyph glyph-name="n" unicode="n" horiz-adv-x="1302" 
d="M115 1018h360v-146q83 89 170 126.5t191 37.5q59 0 109 -12t85.5 -30t64 -47t46 -55.5t30 -64t18.5 -63t9 -62.5t3.5 -53t0.5 -42v-9v-598h-360v528v9v35.5t-3 39t-8 42.5t-16 38.5t-26.5 34.5t-39.5 22t-55 9q-29 0 -56.5 -9.5t-46.5 -22t-40 -33.5t-31 -34t-26 -35
t-19 -26v-598h-360v1018z" />
    <glyph glyph-name="o" unicode="o" horiz-adv-x="1310" 
d="M655 1036q142 0 254.5 -40t184 -111.5t108.5 -166.5t37 -208t-37 -208t-108.5 -167t-184 -112.5t-254.5 -40.5t-254.5 40.5t-183.5 112.5t-108 167t-37 208t37 208t108 166.5t183.5 111.5t254.5 40zM655 768q-99 0 -151.5 -69t-52.5 -189t52.5 -190t151.5 -70t152 70
t53 190t-53 189t-152 69z" />
    <glyph glyph-name="p" unicode="p" horiz-adv-x="1304" 
d="M113 1018h360v-92q26 22 42 33.5t54.5 33t89 32.5t111.5 11q64 0 127 -17.5t124.5 -58t108 -99t75 -148t28.5 -197.5q0 -81 -17.5 -157t-56 -145t-94.5 -120t-138.5 -81.5t-181.5 -30.5q-72 0 -131 14.5t-83 27.5t-58 35v-522h-360v1481zM473 305q4 -2 20 -11t21.5 -12.5
t20 -10.5t22 -10t21.5 -8t24.5 -7t24.5 -4t28 -2q86 0 142.5 72t56.5 196q0 70 -18 122.5t-48 81t-63.5 41.5t-69.5 13q-16 0 -32 -1.5t-29.5 -5.5t-25 -7t-23.5 -9.5t-19 -10t-17.5 -11l-14 -10t-12.5 -9.5l-9 -8v-389z" />
    <glyph glyph-name="q" unicode="q" horiz-adv-x="1304" 
d="M1192 1018v-1481h-361v522q-34 -22 -58 -35t-83 -27.5t-131 -14.5q-99 0 -181.5 30.5t-138 81.5t-94 120t-56 145t-17.5 157q0 108 28.5 197.5t75 148t108 99t124.5 58t127 17.5q49 0 94.5 -9t72.5 -18.5t58 -29.5t40.5 -27.5t30.5 -25.5v92h361zM831 305v389l-9 8
q-9 7 -12.5 9.5l-14 10t-17.5 11t-19 10t-23.5 9.5t-25 7t-29.5 5.5t-32 1.5q-36 0 -69 -13t-63 -41.5t-48 -81t-18 -122.5q0 -124 56 -196t142 -72q16 0 30.5 1.5t30.5 6.5t24.5 7.5t26.5 11.5l22 11t25.5 14t22.5 13z" />
    <glyph glyph-name="r" unicode="r" horiz-adv-x="1009" 
d="M113 1018h360v-246q14 38 40.5 80t66.5 85t97 71t118 28q44 0 85 -11.5t65.5 -24t64.5 -37.5l-133 -361q-81 78 -166 78q-75 0 -131 -51.5t-107 -190.5v-438h-360v1018z" />
    <glyph glyph-name="s" unicode="s" horiz-adv-x="991" 
d="M858 954v-249q-3 2 -25.5 15t-38 22t-45 22.5t-56 21.5t-61.5 14.5t-69 6.5q-33 0 -56 -8.5t-33.5 -21t-14.5 -23t-4 -19.5q0 -17 6.5 -29t36.5 -30.5t88 -40.5q182 -70 253.5 -145t71.5 -193q0 -139 -102.5 -227t-304.5 -88q-113 0 -203.5 21t-189.5 58v256
q55 -32 87.5 -49t96 -37t121.5 -20q57 0 96 17.5t39 56.5q0 36 -42 63t-175 84q-45 19 -84 45t-76 62t-58.5 86t-21.5 106q0 55 25.5 108t74.5 97.5t130.5 72t183.5 27.5q190 0 350 -82z" />
    <glyph glyph-name="t" unicode="t" horiz-adv-x="960" 
d="M891 1018v-250h-344v-326q0 -25 0.5 -37.5t3 -34t8 -33.5t16 -27t25.5 -23t38.5 -13.5t53.5 -5.5q53 0 104 18t122 54v-281q-57 -29 -155 -53t-188 -24q-389 0 -389 380v406h-163v63l483 492h41v-305h344z" />
    <glyph glyph-name="u" unicode="u" horiz-adv-x="1302" 
d="M1188 0h-361v145q-75 -81 -159.5 -122t-200.5 -41q-59 0 -109.5 12t-86 30t-63.5 47t-46 55.5t-30.5 64t-18.5 63.5t-9 62.5t-3.5 53t-0.5 42.5v8v598h361v-529v-10q0 -32 0.5 -51.5t8.5 -55.5t22 -57t44 -38t72 -17q22 0 43.5 5.5t38.5 13.5t34.5 22t28.5 24t25.5 27.5
t20 25.5t16.5 24.5t12 17.5v598h361v-1018z" />
    <glyph glyph-name="v" unicode="v" horiz-adv-x="1193" 
d="M6 1018h387l211 -533l234 533h350l-463 -1018h-266z" />
    <glyph glyph-name="w" unicode="w" horiz-adv-x="1748" 
d="M14 1018h365l186 -514l199 514h229l201 -514l180 514h361l-402 -1018h-227l-227 555l-226 -555h-227z" />
    <glyph glyph-name="x" unicode="x" horiz-adv-x="1259" 
d="M10 1018h443l188 -277l190 277h394l-385 -483l409 -535h-444l-197 289l-196 -289h-394l394 500z" />
    <glyph glyph-name="y" unicode="y" horiz-adv-x="1193" 
d="M27 1018h387l207 -506l235 506h350l-692 -1481h-364l280 596z" />
    <glyph glyph-name="z" unicode="z" horiz-adv-x="1130" 
d="M70 752v266h1013v-33l-487 -719h477v-266h-1044v33l487 719h-446z" />
    <glyph glyph-name="braceleft" unicode="{" horiz-adv-x="788" 
d="M758 -203v-278h-92q-117 0 -196 22t-123 55t-66 98.5t-27.5 125t-5.5 162.5q0 196 -43 266.5t-162 70.5v285q114 0 160.5 65t46.5 230q0 88 1 129.5t8.5 108t23 96.5t45 71t74 58t110.5 30t154 13h92v-279q-54 0 -85 -4t-56 -14.5t-36 -34t-16.5 -58t-5.5 -91.5
q0 -200 -36 -310.5t-144 -152.5q113 -57 146.5 -138t33.5 -278q0 -60 1.5 -94.5t9.5 -66t19.5 -45.5t35.5 -25.5t54 -14t79 -2.5z" />
    <glyph glyph-name="bar" unicode="|" horiz-adv-x="598" 
d="M176 1405h248v-1886h-248v1886z" />
    <glyph glyph-name="braceright" unicode="}" horiz-adv-x="788" 
d="M31 1126v279h92q117 0 196 -22t123 -55t66 -98.5t27.5 -125t5.5 -162.5q0 -196 42.5 -267t161.5 -71v-285q-114 0 -160 -64.5t-46 -229.5q0 -88 -1 -129.5t-8.5 -108t-23 -96.5t-45 -71t-74 -58t-110.5 -30t-154 -13h-92v278q67 0 101.5 5.5t59 28t31 60.5t6.5 109
q0 77 4 133.5t15 113t31 96t52.5 71t78.5 49.5q-113 57 -147 138.5t-34 277.5q0 60 -1.5 94t-9 66t-19 45.5t-35.5 25t-54 14t-79 2.5z" />
    <glyph glyph-name="asciitilde" unicode="~" horiz-adv-x="1366" 
d="M121 500v256q165 141 328 141q29 0 51 -2.5t81 -22.5t138 -59q89 -43 135.5 -58.5t93.5 -15.5q23 0 47 4t45.5 11.5t41 16t39.5 21t34 21.5t31 23t25 20.5t20.5 18t13.5 12.5v-254q-161 -141 -319 -141q-59 0 -119 18.5t-176 75.5q-129 63 -201 63q-152 0 -309 -149z" />
    <glyph glyph-name="uni00A0" unicode="&#xa0;" horiz-adv-x="608" 
 />
    <glyph glyph-name="exclamdown" unicode="&#xa1;" horiz-adv-x="618" 
d="M307 467q34 -1 50.5 -12t29.5 -37q43 -89 90 -281t47 -311q0 -84 -21 -147t-55 -96t-69.5 -48.5t-71.5 -15.5t-71 15.5t-68 48.5t-53.5 96t-20.5 147q0 120 45.5 313.5t87.5 278.5q13 26 29.5 37t50.5 12zM307 512q-89 0 -151 63t-62 152t62 152t151 63q88 0 152.5 -63
t64.5 -152q0 -90 -64 -152.5t-153 -62.5z" />
    <glyph glyph-name="cent" unicode="&#xa2;" horiz-adv-x="1067" 
d="M985 977v-272q-75 38 -151 49l-158 -496q128 -19 325 68v-277q-64 -23 -106.5 -36t-128.5 -23.5t-176 -3.5l-115 -369h-121l121 385q-190 52 -288.5 188.5t-98.5 309.5q0 65 13.5 131t53 141t100.5 132t165.5 94.5t238.5 37.5q92 0 142 -10l98 309h121l-107 -334
q10 -2 72 -24zM565 281l156 487q-131 0 -206 -81t-75 -187q0 -50 12.5 -89.5t37 -66t38 -37t37.5 -26.5z" />
    <glyph glyph-name="sterling" unicode="&#xa3;" horiz-adv-x="1173" 
d="M88 561v264h199q69 178 106 252.5t101 147.5q159 180 378 180q53 0 111 -16l150 -312q-91 31 -156 31q-54 0 -98.5 -18.5t-72.5 -43t-54.5 -68.5t-38.5 -73t-31 -80h158v-264h-242l-66 -252q80 19 121 19q73 0 142 -17q77 -18 141 -18q37 0 65 6t38.5 11.5t33.5 19.5
v-320q-82 -28 -172 -28q-94 0 -227 18q-112 16 -197 16q-82 0 -154 -5t-116.5 -11t-126.5 -18q51 261 55 278q42 194 66 268l10 33h-123z" />
    <glyph glyph-name="currency" unicode="&#xa4;" horiz-adv-x="1130" 
d="M160 905l-127 125l184 201l139 -133l20 10q19 9 41 18t63 17t85 8t85 -8t63 -17t40.5 -18.5t20.5 -9.5l133 133l191 -193l-131 -133q49 -95 49 -209q0 -106 -49 -207l131 -133l-191 -192l-133 131q-115 -47 -209 -47q-91 0 -209 47l-123 -131l-200 192l127 133
q-47 92 -47 209q0 101 47 207zM387 698q0 -73 53 -125.5t125 -52.5t124 52.5t52 125.5t-52 126t-124 53q-73 0 -125.5 -52.5t-52.5 -126.5z" />
    <glyph glyph-name="yen" unicode="&#xa5;" horiz-adv-x="1538" 
d="M1100 799h362v-172h-481v-201h481v-172h-481v-254h-416v254h-489v172h489v201h-489v172h364l-428 587h506l283 -436l282 436h443z" />
    <glyph glyph-name="brokenbar" unicode="&#xa6;" horiz-adv-x="598" 
d="M176 334h248v-815h-248v815zM176 1405h248v-815h-248v815z" />
    <glyph glyph-name="section" unicode="&#xa7;" horiz-adv-x="1259" 
d="M266 883q-27 30 -42 50t-29.5 61t-14.5 89q0 41 12.5 82.5t45.5 85.5t83 77.5t133.5 55t188.5 21.5q205 0 313.5 -70t108.5 -170q0 -25 -8 -50.5t-25 -50.5t-49 -40.5t-74 -15.5q-98 0 -151 98q-33 61 -58.5 82.5t-76.5 21.5q-54 0 -92.5 -26.5t-38.5 -69.5
q0 -51 47.5 -86t220.5 -127q102 -54 170.5 -100.5t125 -104.5t83 -126.5t26.5 -151.5q0 -57 -13.5 -110t-30 -88t-44.5 -72t-43 -52.5t-39 -38.5q27 -35 40 -54t29.5 -67t16.5 -102q0 -76 -31.5 -134t-79 -91.5t-111.5 -54.5t-120 -28t-114 -7q-181 0 -305.5 69t-124.5 172
q0 55 38.5 95.5t108.5 40.5q97 0 162 -99q15 -23 23.5 -34t24.5 -25t36.5 -19.5t48.5 -5.5q45 0 89 24.5t44 78.5q0 35 -14.5 57t-78.5 65t-206 119q-113 60 -189.5 120.5t-116 119.5t-55.5 113t-16 116q0 57 14.5 108.5t44 99t52 76.5t61.5 73zM432 735q-72 -48 -72 -121
q0 -97 172 -225q24 -19 162.5 -103t155.5 -96q61 72 61 138q0 30 -14 60.5t-33.5 56.5t-59.5 58.5t-71.5 55t-91.5 58t-98 57t-111 61.5z" />
    <glyph glyph-name="dieresis" unicode="&#xa8;" horiz-adv-x="681" 
d="M-51 1290q0 56 39.5 96.5t97.5 40.5t97.5 -40.5t39.5 -96.5q0 -57 -39.5 -97t-97.5 -40t-97.5 40.5t-39.5 96.5zM459 1290q0 57 39 97t98 40q58 0 97.5 -40.5t39.5 -96.5q0 -57 -39.5 -97t-97.5 -40q-59 0 -98 40t-39 97z" />
    <glyph glyph-name="dieresis" unicode="&#x308;" horiz-adv-x="681" 
d="M-51 1290q0 56 39.5 96.5t97.5 40.5t97.5 -40.5t39.5 -96.5q0 -57 -39.5 -97t-97.5 -40t-97.5 40.5t-39.5 96.5zM459 1290q0 57 39 97t98 40q58 0 97.5 -40.5t39.5 -96.5q0 -57 -39.5 -97t-97.5 -40q-59 0 -98 40t-39 97z" />
    <glyph glyph-name="copyright" unicode="&#xa9;" horiz-adv-x="1642" 
d="M999 549l205 -49q-8 -25 -13 -39.5t-21 -48.5t-33 -56t-47.5 -52t-66 -47.5t-87 -30.5t-111.5 -13q-132 0 -228 61t-141.5 157.5t-45.5 213.5q0 187 119 306.5t298 119.5q130 0 235 -69.5t134 -206.5l-197 -31q-37 160 -182 160q-92 0 -138 -76t-46 -199q0 -291 186 -291
q138 0 180 191zM821 1405q154 0 295 -59.5t244 -161t164 -243t61 -298.5q0 -155 -60.5 -296.5t-163 -244t-244 -163t-296.5 -60.5t-296.5 60.5t-244 163t-163 244t-60.5 296.5q0 157 61.5 298.5t164.5 243t243.5 161t294.5 59.5zM821 1257q-166 0 -307.5 -81t-225 -222.5
t-83.5 -310.5q0 -167 82.5 -309t224.5 -224.5t309 -82.5q168 0 310 82.5t224.5 224.5t82.5 309q0 169 -83.5 310.5t-225 222.5t-308.5 81z" />
    <glyph glyph-name="ordfeminine" unicode="&#xaa;" horiz-adv-x="768" 
d="M63 1116v201q166 88 324 88q185 0 262 -90q37 -43 37 -135v-217q0 -52 21 -52q19 0 71 21v-141q-9 -3 -35.5 -15t-41.5 -17t-46.5 -10.5t-68.5 -5.5q-79 0 -135 60q-35 -20 -53.5 -29.5t-61 -20t-94.5 -10.5q-107 0 -155 51t-48 117q0 135 135 187q65 25 256 67
q0 38 -26.5 56t-67.5 18q-61 0 -123.5 -23.5t-149.5 -99.5zM428 926v116q-77 -28 -106 -51.5t-29 -52.5q0 -24 15 -36.5t36 -12.5q30 0 84 37z" />
    <glyph glyph-name="guillemotleft" unicode="&#xab;" horiz-adv-x="1304" 
d="M680 991l-315 -493l315 -498h-334l-315 498l315 493h334zM1260 991l-314 -493l314 -498h-334l-316 498l316 493h334z" />
    <glyph glyph-name="logicalnot" unicode="&#xac;" horiz-adv-x="1366" 
d="M121 1057h1124v-731h-248v483h-876v248z" />
    <glyph glyph-name="uni00AD" unicode="&#xad;" horiz-adv-x="1003" 
d="M174 682h655v-334h-655v334z" />
    <glyph glyph-name="registered" unicode="&#xae;" horiz-adv-x="1642" 
d="M821 1405q154 0 295 -59.5t244 -161t164 -243t61 -298.5q0 -155 -60.5 -296.5t-163 -244t-244 -163t-296.5 -60.5t-296.5 60.5t-244 163t-163 244t-60.5 296.5q0 157 61.5 298.5t164.5 243t243.5 161t294.5 59.5zM821 1257q-166 0 -307.5 -81t-225 -222.5t-83.5 -310.5
q0 -167 82.5 -309t224.5 -224.5t309 -82.5q168 0 310 82.5t224.5 224.5t82.5 309q0 169 -83.5 310.5t-225 222.5t-308.5 81zM475 1051h365q134 0 214.5 -55.5t80.5 -176.5q0 -58 -23 -102.5t-61 -69t-70 -36.5t-68 -19q24 -12 44 -24t38.5 -32t28.5 -30.5t28.5 -41.5
t24 -40.5t27.5 -50.5l76 -140h-240q-137 281 -190 312q-34 17 -72 14v-326h-203v818zM678 909v-204h88q77 0 118.5 23.5t41.5 78.5q0 51 -41.5 76.5t-110.5 25.5h-96z" />
    <glyph glyph-name="macron" unicode="&#xaf;" horiz-adv-x="681" 
d="M727 1176h-772v245h772v-245z" />
    <glyph glyph-name="degree" unicode="&#xb0;" horiz-adv-x="817" 
d="M408 1405q119 0 202.5 -83.5t83.5 -201.5q0 -119 -83 -202.5t-203 -83.5q-118 0 -201.5 83.5t-83.5 202.5q0 118 84 201.5t201 83.5zM408 1221q-41 0 -71 -30t-30 -73q0 -41 30 -70.5t71 -29.5t71.5 29.5t30.5 70.5q0 42 -30 72.5t-72 30.5z" />
    <glyph glyph-name="plusminus" unicode="&#xb1;" horiz-adv-x="1366" 
d="M121 248h1124v-248h-1124v248zM121 1055h438v438h248v-438h438v-248h-438v-438h-248v438h-438v248z" />
    <glyph glyph-name="two.superior" unicode="&#xb2;" 
d="M686 866v-184h-645v35q71 57 186 172q78 78 117 133t39 111q0 41 -27.5 65.5t-76.5 24.5q-101 0 -211 -101v201q46 25 76.5 39t86.5 28.5t113 14.5q138 0 209.5 -66t71.5 -159q0 -42 -11.5 -79.5t-41 -79.5t-54 -70.5t-76.5 -84.5h244z" />
    <glyph glyph-name="three.superior" unicode="&#xb3;" 
d="M78 725v190q105 -79 201 -79q43 0 74.5 17t31.5 48q0 78 -166 78v139q35 0 54 1.5t46 7t39.5 20t12.5 37.5q0 25 -25.5 45t-71.5 20q-77 0 -174 -57v166q137 47 236 47q136 0 210.5 -61.5t74.5 -135.5q0 -87 -93 -153q107 -62 107 -170q0 -99 -84 -156t-209 -57
q-67 0 -141.5 16.5t-122.5 36.5z" />
    <glyph glyph-name="acute" unicode="&#xb4;" horiz-adv-x="681" 
d="M166 1153l172 317h389l-369 -317h-192z" />
    <glyph glyph-name="mu" unicode="&#xb5;" horiz-adv-x="1302" 
d="M461 31v-494h-361v1481h361v-533v-37.5t3 -40t8 -44t15.5 -38t25.5 -35t39.5 -21.5t55.5 -9t61 11t50 24.5t43.5 39.5t34 40t30.5 41v602h361v-1018h-361v55q-21 -21 -38.5 -34t-59.5 -26t-96 -13q-61 0 -96.5 12t-75.5 37z" />
    <glyph glyph-name="paragraph" unicode="&#xb6;" horiz-adv-x="1193" 
d="M741 1247v-1728h-139v907q-31 0 -73 3.5t-112.5 19t-123.5 40.5q-121 58 -185.5 172t-64.5 248q0 136 55 239.5t146 160.5q79 50 189 63.5t304 13.5h432v-139h-133v-1728h-139v1728h-156z" />
    <glyph glyph-name="periodcentered" unicode="&#xb7;" horiz-adv-x="575" 
d="M291 909q89 0 151 -63t62 -152t-62 -152t-151 -63q-88 0 -152.5 63t-64.5 152q0 90 64 152.5t153 62.5z" />
    <glyph glyph-name="periodcentered" unicode="&#x22c5;" horiz-adv-x="575" 
d="M291 909q89 0 151 -63t62 -152t-62 -152t-151 -63q-88 0 -152.5 63t-64.5 152q0 90 64 152.5t153 62.5z" />
    <glyph glyph-name="periodcentered" unicode="&#x387;" horiz-adv-x="575" 
d="M291 909q89 0 151 -63t62 -152t-62 -152t-151 -63q-88 0 -152.5 63t-64.5 152q0 90 64 152.5t153 62.5z" />
    <glyph glyph-name="cedilla" unicode="&#xb8;" horiz-adv-x="681" 
d="M274 20h168l-39 -79q82 -20 126 -64.5t44 -107.5q0 -86 -80.5 -142.5t-248.5 -56.5h-197v137q43 0 74.5 3t62 10.5t46.5 24.5t16 42q0 31 -22 45.5t-74 17.5z" />
    <glyph glyph-name="one.superior" unicode="&#xb9;" 
d="M487 682h-249v704h249v-704z" />
    <glyph glyph-name="ordmasculine" unicode="&#xba;" horiz-adv-x="831" 
d="M412 1405q183 0 289 -94.5t106 -237.5t-106 -236.5t-289 -93.5t-285 93t-102 237t102 238t285 94zM412 1219q-117 0 -117 -146q0 -143 117 -143q125 0 125 143q0 71 -32 108.5t-93 37.5z" />
    <glyph glyph-name="guillemotright" unicode="&#xbb;" horiz-adv-x="1304" 
d="M625 991h333l316 -493l-316 -498h-333l315 498zM45 991h334l315 -493l-315 -498h-334l313 498z" />
    <glyph glyph-name="onequarter" unicode="&#xbc;" horiz-adv-x="1662" 
d="M1530 0h-223v147h-351v152l385 414h189v-420h96v-146h-96v-147zM1128 293h179v190zM1198 1405h207l-948 -1454h-207zM487 682h-249v704h249v-704z" />
    <glyph glyph-name="onehalf" unicode="&#xbd;" horiz-adv-x="1662" 
d="M487 682h-249v704h249v-704zM1153 1405h207l-948 -1454h-207zM1624 184v-184h-645v35q71 57 186 172q78 78 117 133t39 111q0 38 -24.5 64t-79.5 26q-99 0 -211 -101v201q47 25 78 39t87 28.5t111 14.5q68 0 120.5 -16.5t82 -41t48 -56.5t24.5 -58.5t6 -52.5
q0 -42 -11.5 -79.5t-41 -79.5t-54 -70.5t-76.5 -84.5h244z" />
    <glyph glyph-name="threequarters" unicode="&#xbe;" horiz-adv-x="1662" 
d="M78 725v190q105 -79 201 -79q43 0 74.5 17t31.5 48q0 78 -166 78v139q35 0 54 1.5t46 7t39.5 20t12.5 37.5q0 25 -25.5 45t-71.5 20q-77 0 -174 -57v166q137 47 236 47q136 0 210.5 -61.5t74.5 -135.5q0 -87 -93 -153q107 -62 107 -170q0 -99 -84 -156t-209 -57
q-67 0 -141.5 16.5t-122.5 36.5zM1530 0h-223v147h-351v152l385 414h189v-420h96v-146h-96v-147zM1128 293h179v190zM1214 1405h207l-948 -1454h-207z" />
    <glyph glyph-name="questiondown" unicode="&#xbf;" horiz-adv-x="788" 
d="M715 -172l-94 -279q-105 -30 -191 -30q-93 0 -165.5 26t-115.5 68.5t-64.5 93t-21.5 103.5q0 95 35.5 159t151.5 166q63 56 104 138t41 130q0 32 19.5 50t56.5 18q60 0 74 -41q20 -56 20 -151q0 -38 -9 -83t-17 -68t-13 -36q-5 -12 -20 -44t-24.5 -53.5t-18 -48
t-8.5 -42.5q0 -15 4.5 -30.5t16.5 -33t39 -28.5t65 -11q54 0 118 27h17zM465 512q-89 0 -151 63t-62 152t62 152t151 63q88 0 152.5 -63t64.5 -152q0 -90 -64 -152.5t-153 -62.5z" />
    <glyph glyph-name="Agrave" unicode="&#xc0;" horiz-adv-x="1705" 
d="M1155 281h-602l-115 -281h-428l613 1386h462l611 -1386h-428zM651 522h408l-203 506zM1073 1481h-192l-369 317h389z" />
    <glyph glyph-name="Aacute" unicode="&#xc1;" horiz-adv-x="1705" 
d="M1155 281h-602l-115 -281h-428l613 1386h462l611 -1386h-428zM651 522h408l-203 506zM678 1481l172 317h389l-369 -317h-192z" />
    <glyph glyph-name="Acircumflex" unicode="&#xc2;" horiz-adv-x="1705" 
d="M1155 281h-602l-115 -281h-428l613 1386h462l611 -1386h-428zM651 522h408l-203 506zM1249 1481h-215l-180 184l-182 -184h-215l182 346h428z" />
    <glyph glyph-name="Atilde" unicode="&#xc3;" horiz-adv-x="1705" 
d="M1155 281h-602l-115 -281h-428l613 1386h462l611 -1386h-428zM651 522h408l-203 506zM1087 1800h162q0 -152 -63.5 -235.5t-171.5 -83.5q-55 0 -171 43t-145 43q-40 0 -59 -25.5t-23 -60.5h-159q0 82 22.5 146.5t58.5 100.5t75 54t77 18q43 0 174 -43q115 -45 146 -45
q38 0 57.5 27.5t19.5 60.5z" />
    <glyph glyph-name="Adieresis" unicode="&#xc4;" horiz-adv-x="1705" 
d="M1155 281h-602l-115 -281h-428l613 1386h462l611 -1386h-428zM651 522h408l-203 506zM461 1618q0 56 39.5 96.5t97.5 40.5t97.5 -40.5t39.5 -96.5q0 -57 -39.5 -97t-97.5 -40t-97.5 40.5t-39.5 96.5zM971 1618q0 57 39 97t98 40q58 0 97.5 -40.5t39.5 -96.5
q0 -57 -39.5 -97t-97.5 -40q-59 0 -98 40t-39 97z" />
    <glyph glyph-name="Aring" unicode="&#xc5;" horiz-adv-x="1705" 
d="M1155 281h-602l-115 -281h-428l613 1386h462l611 -1386h-428zM651 522h408l-203 506zM852 1890q87 0 147 -59t60 -145t-60.5 -146.5t-146.5 -60.5t-145.5 60.5t-59.5 146.5t59.5 145t145.5 59zM852 1792q-44 0 -75.5 -31t-31.5 -75t31.5 -76.5t75.5 -32.5t76.5 32.5
t32.5 76.5t-32 75t-77 31z" />
    <glyph glyph-name="AE" unicode="&#xc6;" horiz-adv-x="2279" 
d="M887 1386h1272v-278h-605v-254h570v-279h-570v-296h619v-279h-1036v516h-400l-303 -516h-424zM1137 756v436l-256 -436h256z" />
    <glyph glyph-name="Ccedilla" unicode="&#xc7;" horiz-adv-x="1521" 
d="M936 -16l-21 -43q51 -10 87.5 -32.5t53.5 -49t24 -49t7 -41.5q0 -74 -61 -127t-174 -66q-77 -8 -291 -6v137q40 -1 69 1t61.5 9t49.5 24.5t17 45.5q0 19 -8 31.5t-24.5 18.5t-29.5 8.5t-34 4.5l100 138q-153 15 -274 67t-195 122.5t-122.5 161.5t-67.5 177.5t-19 177.5
q0 173 62 310t170.5 223.5t250.5 132t307 45.5q107 0 221.5 -20.5t173.5 -38.5t140 -46v-368q-116 70 -185 98q-128 51 -255 51q-85 0 -166 -25.5t-147 -73t-106 -124t-40 -170.5q0 -109 59.5 -197.5t159.5 -137t217 -48.5q78 0 152.5 15t138 42.5t99 46.5t79.5 46v-351
q-214 -110 -479 -120z" />
    <glyph glyph-name="Egrave" unicode="&#xc8;" horiz-adv-x="1325" 
d="M592 279h627v-279h-1045v1386h1028v-278h-610v-254h582v-279h-582v-296zM913 1481h-192l-369 317h389z" />
    <glyph glyph-name="Eacute" unicode="&#xc9;" horiz-adv-x="1325" 
d="M592 279h627v-279h-1045v1386h1028v-278h-610v-254h582v-279h-582v-296zM518 1481l172 317h389l-368 -317h-193z" />
    <glyph glyph-name="Ecircumflex" unicode="&#xca;" horiz-adv-x="1325" 
d="M592 279h627v-279h-1045v1386h1028v-278h-610v-254h582v-279h-582v-296zM1090 1481h-216l-180 184l-182 -184h-215l182 346h428z" />
    <glyph glyph-name="Edieresis" unicode="&#xcb;" horiz-adv-x="1325" 
d="M592 279h627v-279h-1045v1386h1028v-278h-610v-254h582v-279h-582v-296zM301 1618q0 56 39.5 96.5t97.5 40.5t97.5 -40.5t39.5 -96.5q0 -57 -39.5 -97t-97.5 -40t-97.5 40.5t-39.5 96.5zM811 1618q0 57 39 97t98 40q58 0 97.5 -40.5t39.5 -96.5q0 -57 -39.5 -97
t-97.5 -40q-59 0 -98 40t-39 97z" />
    <glyph glyph-name="Igrave" unicode="&#xcc;" horiz-adv-x="770" 
d="M176 1386h418v-1386h-418v1386zM606 1481h-192l-369 317h389z" />
    <glyph glyph-name="Iacute" unicode="&#xcd;" horiz-adv-x="770" 
d="M176 1386h418v-1386h-418v1386zM211 1481l172 317h389l-369 -317h-192z" />
    <glyph glyph-name="Icircumflex" unicode="&#xce;" horiz-adv-x="770" 
d="M176 1386h418v-1386h-418v1386zM782 1481h-215l-180 184l-182 -184h-215l182 346h428z" />
    <glyph glyph-name="Idieresis" unicode="&#xcf;" horiz-adv-x="770" 
d="M176 1386h418v-1386h-418v1386zM-6 1618q0 56 39.5 96.5t97.5 40.5t97.5 -40.5t39.5 -96.5q0 -57 -39.5 -97t-97.5 -40t-97.5 40.5t-39.5 96.5zM504 1618q0 57 39 97t98 40q58 0 97.5 -40.5t39.5 -96.5q0 -57 -39.5 -97t-97.5 -40q-59 0 -98 40t-39 97z" />
    <glyph glyph-name="Eth" unicode="&#xd0;" horiz-adv-x="1683" 
d="M174 1386h576q125 0 226 -14.5t172.5 -41t118.5 -53.5t91 -63q107 -86 174 -226t67 -320q0 -348 -260 -551q-150 -117 -438 -117h-727v586h-154v215h154v585zM592 1108v-307h285v-215h-285v-299h178q38 0 70 2.5t75 12t77.5 26t69.5 46.5t58.5 71t38.5 103t15 138
q0 105 -28.5 185t-70 123.5t-99.5 70.5t-106 35t-100 8h-178z" />
    <glyph glyph-name="Ntilde" unicode="&#xd1;" horiz-adv-x="1853" 
d="M174 1386h371l717 -768v768h417v-1386h-372l-719 772v-772h-414v1386zM1161 1800h162q0 -152 -64 -235.5t-172 -83.5q-55 0 -170.5 43t-144.5 43q-40 0 -59 -25.5t-23 -60.5h-160q0 82 22.5 146.5t58.5 100.5t75.5 54t77.5 18q43 0 174 -43q115 -45 145 -45q38 0 58 27.5
t20 60.5z" />
    <glyph glyph-name="Ograve" unicode="&#xd2;" horiz-adv-x="1742" 
d="M1657 694q0 -145 -50.5 -272.5t-146 -226t-247.5 -156t-343 -57.5q-158 0 -289.5 40t-222 107.5t-153.5 159t-92 193.5t-29 212t29 211.5t92 193t153.5 159.5t222 107.5t289.5 39.5q154 0 284 -38t221.5 -104.5t156 -156.5t95 -194t30.5 -218zM510 694q0 -160 96.5 -258
t263.5 -98q170 0 265.5 98.5t95.5 257.5q0 158 -96 256.5t-265 98.5q-168 0 -264 -98t-96 -257zM1092 1481h-193l-369 317h390z" />
    <glyph glyph-name="Oacute" unicode="&#xd3;" horiz-adv-x="1742" 
d="M1657 694q0 -145 -50.5 -272.5t-146 -226t-247.5 -156t-343 -57.5q-158 0 -289.5 40t-222 107.5t-153.5 159t-92 193.5t-29 212t29 211.5t92 193t153.5 159.5t222 107.5t289.5 39.5q154 0 284 -38t221.5 -104.5t156 -156.5t95 -194t30.5 -218zM510 694q0 -160 96.5 -258
t263.5 -98q170 0 265.5 98.5t95.5 257.5q0 158 -96 256.5t-265 98.5q-168 0 -264 -98t-96 -257zM696 1481l172 317h389l-368 -317h-193z" />
    <glyph glyph-name="Ocircumflex" unicode="&#xd4;" horiz-adv-x="1742" 
d="M1657 694q0 -145 -50.5 -272.5t-146 -226t-247.5 -156t-343 -57.5q-158 0 -289.5 40t-222 107.5t-153.5 159t-92 193.5t-29 212t29 211.5t92 193t153.5 159.5t222 107.5t289.5 39.5q154 0 284 -38t221.5 -104.5t156 -156.5t95 -194t30.5 -218zM510 694q0 -160 96.5 -258
t263.5 -98q170 0 265.5 98.5t95.5 257.5q0 158 -96 256.5t-265 98.5q-168 0 -264 -98t-96 -257zM1268 1481h-215l-181 184l-182 -184h-215l182 346h428z" />
    <glyph glyph-name="Otilde" unicode="&#xd5;" horiz-adv-x="1742" 
d="M1657 694q0 -145 -50.5 -272.5t-146 -226t-247.5 -156t-343 -57.5q-158 0 -289.5 40t-222 107.5t-153.5 159t-92 193.5t-29 212t29 211.5t92 193t153.5 159.5t222 107.5t289.5 39.5q154 0 284 -38t221.5 -104.5t156 -156.5t95 -194t30.5 -218zM510 694q0 -160 96.5 -258
t263.5 -98q170 0 265.5 98.5t95.5 257.5q0 158 -96 256.5t-265 98.5q-168 0 -264 -98t-96 -257zM1106 1800h162q0 -152 -64 -235.5t-172 -83.5q-56 0 -171 43t-144 43q-40 0 -59 -25.5t-23 -60.5h-160q0 82 22.5 146.5t58.5 100.5t75.5 54t77.5 18q43 0 174 -43
q115 -45 145 -45q38 0 58 27.5t20 60.5z" />
    <glyph glyph-name="Odieresis" unicode="&#xd6;" horiz-adv-x="1742" 
d="M1657 694q0 -145 -50.5 -272.5t-146 -226t-247.5 -156t-343 -57.5q-158 0 -289.5 40t-222 107.5t-153.5 159t-92 193.5t-29 212t29 211.5t92 193t153.5 159.5t222 107.5t289.5 39.5q154 0 284 -38t221.5 -104.5t156 -156.5t95 -194t30.5 -218zM510 694q0 -160 96.5 -258
t263.5 -98q170 0 265.5 98.5t95.5 257.5q0 158 -96 256.5t-265 98.5q-168 0 -264 -98t-96 -257zM479 1618q0 56 39.5 96.5t97.5 40.5t98 -40.5t40 -96.5q0 -57 -40 -97t-98 -40t-97.5 40.5t-39.5 96.5zM989 1618q0 57 39 97t98 40q58 0 98 -40.5t40 -96.5q0 -57 -40 -97
t-98 -40q-59 0 -98 40t-39 97z" />
    <glyph glyph-name="multiply" unicode="&#xd7;" horiz-adv-x="1366" 
d="M324 1229l360 -359l358 359l177 -176l-361 -359l361 -360l-177 -174l-358 358l-360 -358l-177 174l361 360l-361 359z" />
    <glyph glyph-name="Oslash" unicode="&#xd8;" horiz-adv-x="1742" 
d="M399 102l-188 -182l-117 121l176 168q-186 202 -186 485q0 110 29 211.5t92 193t153.5 159.5t222 107.5t289.5 39.5q298 0 498 -137l164 155l117 -118l-156 -150q164 -181 164 -461q0 -110 -29 -212t-92 -193.5t-153.5 -159t-222.5 -107.5t-290 -40q-284 0 -471 120z
M1194 868l-508 -489q78 -41 186 -41q167 0 263 99.5t96 254.5q0 104 -37 176zM563 492l520 501q-86 56 -213 56q-171 0 -265.5 -100.5t-94.5 -252.5q0 -117 53 -204z" />
    <glyph glyph-name="Ugrave" unicode="&#xd9;" horiz-adv-x="1771" 
d="M154 1386h417v-657q0 -205 85.5 -302t230.5 -97q143 0 228 96t85 301v659h418v-765q0 -144 -47 -258t-121 -183.5t-173 -115.5t-195 -64t-195 -18q-69 0 -138 9t-142.5 30.5t-138 54.5t-123 84t-100.5 115.5t-66.5 153t-24.5 192.5v765zM1106 1481h-193l-368 317h389z
" />
    <glyph glyph-name="Uacute" unicode="&#xda;" horiz-adv-x="1771" 
d="M154 1386h417v-657q0 -205 85.5 -302t230.5 -97q143 0 228 96t85 301v659h418v-765q0 -144 -47 -258t-121 -183.5t-173 -115.5t-195 -64t-195 -18q-69 0 -138 9t-142.5 30.5t-138 54.5t-123 84t-100.5 115.5t-66.5 153t-24.5 192.5v765zM711 1481l172 317h389l-369 -317
h-192z" />
    <glyph glyph-name="Ucircumflex" unicode="&#xdb;" horiz-adv-x="1771" 
d="M154 1386h417v-657q0 -205 85.5 -302t230.5 -97q143 0 228 96t85 301v659h418v-765q0 -144 -47 -258t-121 -183.5t-173 -115.5t-195 -64t-195 -18q-69 0 -138 9t-142.5 30.5t-138 54.5t-123 84t-100.5 115.5t-66.5 153t-24.5 192.5v765zM1282 1481h-215l-180 184
l-182 -184h-216l183 346h428z" />
    <glyph glyph-name="Udieresis" unicode="&#xdc;" horiz-adv-x="1771" 
d="M154 1386h417v-657q0 -205 85.5 -302t230.5 -97q143 0 228 96t85 301v659h418v-765q0 -144 -47 -258t-121 -183.5t-173 -115.5t-195 -64t-195 -18q-69 0 -138 9t-142.5 30.5t-138 54.5t-123 84t-100.5 115.5t-66.5 153t-24.5 192.5v765zM494 1618q0 56 39.5 96.5
t97.5 40.5t97.5 -40.5t39.5 -96.5q0 -57 -39.5 -97t-97.5 -40t-97.5 40.5t-39.5 96.5zM1004 1618q0 57 39 97t98 40q58 0 97.5 -40.5t39.5 -96.5q0 -57 -39.5 -97t-97.5 -40q-59 0 -98 40t-39 97z" />
    <glyph glyph-name="Yacute" unicode="&#xdd;" horiz-adv-x="1538" 
d="M12 1386h434l318 -436l319 436h443l-543 -751v-635h-418v627zM594 1481l172 317h389l-369 -317h-192z" />
    <glyph glyph-name="Thorn" unicode="&#xde;" horiz-adv-x="1431" 
d="M174 1386h418v-260h274q127 0 226.5 -36.5t159.5 -98.5t91 -138.5t31 -162.5t-31 -161.5t-91 -136.5t-159.5 -96.5t-226.5 -35.5h-274v-260h-418v1386zM680 860h-88v-334h90q57 0 95 3t73 12.5t55 27.5t31.5 47.5t11.5 71.5q0 101 -65 136.5t-203 35.5z" />
    <glyph glyph-name="germandbls" unicode="&#xdf;" horiz-adv-x="1353" 
d="M150 0v905q0 133 12.5 205t60.5 131q58 70 174 117t295 47q112 0 200.5 -21.5t144.5 -56t92.5 -81t51.5 -93t15 -96.5q0 -48 -13.5 -90t-29.5 -67t-44.5 -49.5t-42 -33t-38.5 -22.5q242 -106 242 -383q0 -101 -36.5 -185t-96.5 -136t-132 -80.5t-147 -28.5q-80 0 -190 26
v250q4 0 23.5 -1t27 -1.5t25 1t29 4.5t27 9.5t29.5 16.5q39 28 59.5 79.5t20.5 108.5q0 115 -58.5 161.5t-164.5 49.5v201q87 0 127.5 48t40.5 105q0 60 -45.5 109t-124.5 49q-174 0 -174 -211v-987h-360z" />
    <glyph glyph-name="agrave" unicode="&#xe0;" horiz-adv-x="1169" 
d="M106 621v276q195 139 480 139q221 0 332.5 -85t111.5 -236v-393q0 -57 10.5 -84t38.5 -27q27 0 92 29v-189q-54 -22 -83.5 -32.5t-94 -23.5t-129.5 -13q-48 0 -82.5 10.5t-52.5 30.5t-25.5 33.5t-13.5 33.5q-37 -30 -68 -49.5t-98.5 -39t-148.5 -19.5q-85 0 -147.5 23.5
t-94.5 63.5t-46.5 81.5t-14.5 87.5q0 42 10.5 78t27 63.5t45.5 52.5t58.5 43.5t73 37t81 32t91.5 30.5q172 54 211 74q0 34 -5 57.5t-19.5 49t-49 38.5t-86.5 13q-218 0 -404 -186zM670 246v241q-56 -24 -81.5 -35t-64.5 -32.5t-56 -39t-30.5 -43.5t-13.5 -56
q0 -52 29 -78.5t69 -26.5q54 0 148 70zM805 1153h-193l-368 317h389z" />
    <glyph glyph-name="aacute" unicode="&#xe1;" horiz-adv-x="1169" 
d="M106 621v276q195 139 480 139q221 0 332.5 -85t111.5 -236v-393q0 -57 10.5 -84t38.5 -27q27 0 92 29v-189q-54 -22 -83.5 -32.5t-94 -23.5t-129.5 -13q-48 0 -82.5 10.5t-52.5 30.5t-25.5 33.5t-13.5 33.5q-37 -30 -68 -49.5t-98.5 -39t-148.5 -19.5q-85 0 -147.5 23.5
t-94.5 63.5t-46.5 81.5t-14.5 87.5q0 42 10.5 78t27 63.5t45.5 52.5t58.5 43.5t73 37t81 32t91.5 30.5q172 54 211 74q0 34 -5 57.5t-19.5 49t-49 38.5t-86.5 13q-218 0 -404 -186zM670 246v241q-56 -24 -81.5 -35t-64.5 -32.5t-56 -39t-30.5 -43.5t-13.5 -56
q0 -52 29 -78.5t69 -26.5q54 0 148 70zM410 1153l172 317h389l-369 -317h-192z" />
    <glyph glyph-name="acircumflex" unicode="&#xe2;" horiz-adv-x="1169" 
d="M106 621v276q195 139 480 139q221 0 332.5 -85t111.5 -236v-393q0 -57 10.5 -84t38.5 -27q27 0 92 29v-189q-54 -22 -83.5 -32.5t-94 -23.5t-129.5 -13q-48 0 -82.5 10.5t-52.5 30.5t-25.5 33.5t-13.5 33.5q-37 -30 -68 -49.5t-98.5 -39t-148.5 -19.5q-85 0 -147.5 23.5
t-94.5 63.5t-46.5 81.5t-14.5 87.5q0 42 10.5 78t27 63.5t45.5 52.5t58.5 43.5t73 37t81 32t91.5 30.5q172 54 211 74q0 34 -5 57.5t-19.5 49t-49 38.5t-86.5 13q-218 0 -404 -186zM670 246v241q-56 -24 -81.5 -35t-64.5 -32.5t-56 -39t-30.5 -43.5t-13.5 -56
q0 -52 29 -78.5t69 -26.5q54 0 148 70zM961 1153h-216l-180 184l-182 -184h-215l182 346h428z" />
    <glyph glyph-name="atilde" unicode="&#xe3;" horiz-adv-x="1169" 
d="M106 621v276q195 139 480 139q221 0 332.5 -85t111.5 -236v-393q0 -57 10.5 -84t38.5 -27q27 0 92 29v-189q-54 -22 -83.5 -32.5t-94 -23.5t-129.5 -13q-48 0 -82.5 10.5t-52.5 30.5t-25.5 33.5t-13.5 33.5q-37 -30 -68 -49.5t-98.5 -39t-148.5 -19.5q-85 0 -147.5 23.5
t-94.5 63.5t-46.5 81.5t-14.5 87.5q0 42 10.5 78t27 63.5t45.5 52.5t58.5 43.5t73 37t81 32t91.5 30.5q172 54 211 74q0 34 -5 57.5t-19.5 49t-49 38.5t-86.5 13q-218 0 -404 -186zM670 246v241q-56 -24 -81.5 -35t-64.5 -32.5t-56 -39t-30.5 -43.5t-13.5 -56
q0 -52 29 -78.5t69 -26.5q54 0 148 70zM819 1473h162q0 -152 -64 -236t-172 -84q-55 0 -171 43t-144 43q-40 0 -59 -25.5t-23 -60.5h-160q0 82 22.5 146.5t58.5 101t75.5 54.5t77.5 18q43 0 174 -43q118 -46 145 -46q38 0 58 28t20 61z" />
    <glyph glyph-name="adieresis" unicode="&#xe4;" horiz-adv-x="1169" 
d="M106 621v276q195 139 480 139q221 0 332.5 -85t111.5 -236v-393q0 -57 10.5 -84t38.5 -27q27 0 92 29v-189q-54 -22 -83.5 -32.5t-94 -23.5t-129.5 -13q-48 0 -82.5 10.5t-52.5 30.5t-25.5 33.5t-13.5 33.5q-37 -30 -68 -49.5t-98.5 -39t-148.5 -19.5q-85 0 -147.5 23.5
t-94.5 63.5t-46.5 81.5t-14.5 87.5q0 42 10.5 78t27 63.5t45.5 52.5t58.5 43.5t73 37t81 32t91.5 30.5q172 54 211 74q0 34 -5 57.5t-19.5 49t-49 38.5t-86.5 13q-218 0 -404 -186zM670 246v241q-56 -24 -81.5 -35t-64.5 -32.5t-56 -39t-30.5 -43.5t-13.5 -56
q0 -52 29 -78.5t69 -26.5q54 0 148 70zM193 1290q0 56 39.5 96.5t97.5 40.5t97.5 -40.5t39.5 -96.5q0 -57 -39.5 -97t-97.5 -40t-97.5 40.5t-39.5 96.5zM702 1290q0 56 39.5 96.5t98.5 40.5q58 0 97.5 -40.5t39.5 -96.5q0 -57 -39.5 -97t-97.5 -40q-59 0 -98.5 40.5
t-39.5 96.5z" />
    <glyph glyph-name="aring" unicode="&#xe5;" horiz-adv-x="1169" 
d="M106 621v276q195 139 480 139q221 0 332.5 -85t111.5 -236v-393q0 -57 10.5 -84t38.5 -27q27 0 92 29v-189q-54 -22 -83.5 -32.5t-94 -23.5t-129.5 -13q-48 0 -82.5 10.5t-52.5 30.5t-25.5 33.5t-13.5 33.5q-37 -30 -68 -49.5t-98.5 -39t-148.5 -19.5q-85 0 -147.5 23.5
t-94.5 63.5t-46.5 81.5t-14.5 87.5q0 42 10.5 78t27 63.5t45.5 52.5t58.5 43.5t73 37t81 32t91.5 30.5q172 54 211 74q0 34 -5 57.5t-19.5 49t-49 38.5t-86.5 13q-218 0 -404 -186zM670 246v241q-56 -24 -81.5 -35t-64.5 -32.5t-56 -39t-30.5 -43.5t-13.5 -56
q0 -52 29 -78.5t69 -26.5q54 0 148 70zM584 1563q86 0 146.5 -59.5t60.5 -145.5t-60.5 -146.5t-146.5 -60.5t-145.5 60.5t-59.5 146.5t59.5 145.5t145.5 59.5zM584 1464q-44 0 -75.5 -31t-31.5 -75t31.5 -76.5t75.5 -32.5t76 32.5t32 76.5t-32 75t-76 31z" />
    <glyph glyph-name="ae" unicode="&#xe6;" horiz-adv-x="1708" 
d="M106 627v270q49 29 81.5 45.5t92.5 42t126.5 38.5t138.5 13q76 0 144 -16.5t100.5 -32t76.5 -41.5q33 24 59 39t89.5 33t136.5 18q75 0 145.5 -19.5t134.5 -62t111.5 -104.5t76 -153.5t28.5 -202.5v-72h-656q3 -53 29 -93t59 -61.5t74.5 -35t70 -17.5t50.5 -4
q145 0 350 104v-229q-240 -104 -448 -104q-236 0 -418 129q-189 -129 -400 -129q-134 0 -210 77t-76 181q0 36 9.5 68.5t23.5 58t39 50t45.5 41t54.5 34t55 27.5t57 22.5t51 17.5t46 14q152 46 204 68q0 40 -2.5 63.5t-11 45.5t-24.5 33t-42.5 17.5t-66.5 6.5
q-119 0 -212.5 -47.5t-191.5 -132.5zM657 238v247q-60 -28 -84 -40t-61 -34t-50.5 -37.5t-24.5 -38.5t-11 -50q0 -38 21.5 -73.5t70.5 -35.5q72 0 139 62zM985 600h326q-1 28 -5 53t-15 56t-27.5 53t-46 37.5t-68.5 15.5q-74 0 -118.5 -54.5t-45.5 -160.5z" />
    <glyph glyph-name="ccedilla" unicode="&#xe7;" horiz-adv-x="1046" 
d="M698 -16l-20 -43q51 -10 87 -32.5t53 -49t23.5 -48.5t6.5 -42q0 -91 -82.5 -145t-235.5 -54h-208v137q35 0 56.5 1t52 5t47.5 12t29.5 24t12.5 38q0 9 -2 17t-6.5 13.5t-8.5 10t-12.5 8t-13 5.5t-14.5 3.5t-13.5 2.5t-14 2t-11.5 1l102 140q-106 15 -189 59.5t-131.5 101
t-80 125.5t-42.5 126t-11 110q0 37 6 78.5t23 93.5t43 100t71 94.5t102.5 81t141.5 55.5t184 21q76 0 141.5 -10t100 -20t86.5 -29v-283q-185 56 -275 56q-43 0 -84.5 -13t-78.5 -39.5t-59.5 -74.5t-22.5 -111q0 -62 22.5 -111t59.5 -77t78.5 -42t84.5 -14q94 0 291 62v-283
q-58 -20 -81.5 -27.5t-80 -18.5t-127.5 -17z" />
    <glyph glyph-name="egrave" unicode="&#xe8;" horiz-adv-x="1220" 
d="M1159 494v-72h-717q20 -94 102 -152.5t187 -58.5q182 0 402 102v-223q-197 -108 -478 -108q-142 0 -254.5 41.5t-183.5 114t-108 168.5t-37 208t37 206.5t108 165t183.5 110.5t254.5 40q72 0 140 -16.5t135 -56.5t117 -100.5t81 -155.5t31 -213zM432 600h389
q0 98 -49.5 156.5t-138.5 58.5q-88 0 -144.5 -59.5t-56.5 -155.5zM831 1153h-192l-369 317h389z" />
    <glyph glyph-name="eacute" unicode="&#xe9;" horiz-adv-x="1220" 
d="M1159 494v-72h-717q20 -94 102 -152.5t187 -58.5q182 0 402 102v-223q-197 -108 -478 -108q-142 0 -254.5 41.5t-183.5 114t-108 168.5t-37 208t37 206.5t108 165t183.5 110.5t254.5 40q72 0 140 -16.5t135 -56.5t117 -100.5t81 -155.5t31 -213zM432 600h389
q0 98 -49.5 156.5t-138.5 58.5q-88 0 -144.5 -59.5t-56.5 -155.5zM436 1153l172 317h389l-368 -317h-193z" />
    <glyph glyph-name="ecircumflex" unicode="&#xea;" horiz-adv-x="1220" 
d="M1159 494v-72h-717q20 -94 102 -152.5t187 -58.5q182 0 402 102v-223q-197 -108 -478 -108q-142 0 -254.5 41.5t-183.5 114t-108 168.5t-37 208t37 206.5t108 165t183.5 110.5t254.5 40q72 0 140 -16.5t135 -56.5t117 -100.5t81 -155.5t31 -213zM432 600h389
q0 98 -49.5 156.5t-138.5 58.5q-88 0 -144.5 -59.5t-56.5 -155.5zM1008 1153h-215l-181 184l-182 -184h-215l182 346h428z" />
    <glyph glyph-name="edieresis" unicode="&#xeb;" horiz-adv-x="1220" 
d="M1159 494v-72h-717q20 -94 102 -152.5t187 -58.5q182 0 402 102v-223q-197 -108 -478 -108q-142 0 -254.5 41.5t-183.5 114t-108 168.5t-37 208t37 206.5t108 165t183.5 110.5t254.5 40q72 0 140 -16.5t135 -56.5t117 -100.5t81 -155.5t31 -213zM432 600h389
q0 98 -49.5 156.5t-138.5 58.5q-88 0 -144.5 -59.5t-56.5 -155.5zM219 1290q0 56 39.5 96.5t97.5 40.5t98 -40.5t40 -96.5q0 -57 -40 -97t-98 -40t-97.5 40.5t-39.5 96.5zM729 1290q0 57 39 97t98 40q58 0 98 -40.5t40 -96.5q0 -57 -40 -97t-98 -40q-59 0 -98 40t-39 97z
" />
    <glyph glyph-name="igrave" unicode="&#xec;" horiz-adv-x="626" 
d="M133 1018h361v-1018h-361v1018zM535 1153h-193l-369 317h389z" />
    <glyph glyph-name="iacute" unicode="&#xed;" horiz-adv-x="626" 
d="M133 1018h361v-1018h-361v1018zM119 1153l172 317h389l-369 -317h-192z" />
    <glyph glyph-name="icircumflex" unicode="&#xee;" horiz-adv-x="626" 
d="M133 1018h361v-1018h-361v1018zM711 1153h-215l-181 184l-182 -184h-215l182 346h428z" />
    <glyph glyph-name="idieresis" unicode="&#xef;" horiz-adv-x="626" 
d="M133 1018h361v-1018h-361v1018zM-78 1290q0 56 39.5 96.5t97.5 40.5t98 -40.5t40 -96.5q0 -57 -40 -97t-98 -40t-97.5 40.5t-39.5 96.5zM432 1290q0 57 39 97t98 40q58 0 98 -40.5t40 -96.5q0 -57 -40 -97t-98 -40q-59 0 -98 40t-39 97z" />
    <glyph glyph-name="eth" unicode="&#xf0;" horiz-adv-x="1310" 
d="M328 1325l207 80q113 -32 194 -80l252 80l33 -105l-166 -57q115 -91 184 -176q207 -258 207 -547q0 -239 -149 -388.5t-418 -149.5q-138 0 -246.5 34t-173.5 86.5t-107 123t-57.5 137t-15.5 135.5q0 104 31 191t82 147t119.5 101.5t142 61t149.5 19.5q66 0 141 -27
q-27 42 -69.5 91.5t-77.5 78.5l-326 -108l-33 108l248 82q-45 31 -151 82zM655 768q-99 0 -151.5 -69t-52.5 -189t52.5 -190t151.5 -70t152 70t53 190t-53 189t-152 69z" />
    <glyph glyph-name="ntilde" unicode="&#xf1;" horiz-adv-x="1302" 
d="M115 1018h360v-146q83 89 170 126.5t191 37.5q59 0 109 -12t85.5 -30t64 -47t46 -55.5t30 -64t18.5 -63t9 -62.5t3.5 -53t0.5 -42v-9v-598h-360v528v9v35.5t-3 39t-8 42.5t-16 38.5t-26.5 34.5t-39.5 22t-55 9q-29 0 -56.5 -9.5t-46.5 -22t-40 -33.5t-31 -34t-26 -35
t-19 -26v-598h-360v1018zM887 1473h162q0 -152 -64 -236t-172 -84q-56 0 -171.5 43t-143.5 43q-40 0 -59 -25.5t-23 -60.5h-160q0 82 22.5 146.5t58.5 101t75 54.5t77 18q44 0 175 -43q118 -46 145 -46q38 0 58 28t20 61z" />
    <glyph glyph-name="ograve" unicode="&#xf2;" horiz-adv-x="1310" 
d="M655 1036q142 0 254.5 -40t184 -111.5t108.5 -166.5t37 -208t-37 -208t-108.5 -167t-184 -112.5t-254.5 -40.5t-254.5 40.5t-183.5 112.5t-108 167t-37 208t37 208t108 166.5t183.5 111.5t254.5 40zM655 768q-99 0 -151.5 -69t-52.5 -189t52.5 -190t151.5 -70t152 70
t53 190t-53 189t-152 69zM877 1153h-193l-369 317h390z" />
    <glyph glyph-name="oacute" unicode="&#xf3;" horiz-adv-x="1310" 
d="M655 1036q142 0 254.5 -40t184 -111.5t108.5 -166.5t37 -208t-37 -208t-108.5 -167t-184 -112.5t-254.5 -40.5t-254.5 40.5t-183.5 112.5t-108 167t-37 208t37 208t108 166.5t183.5 111.5t254.5 40zM655 768q-99 0 -151.5 -69t-52.5 -189t52.5 -190t151.5 -70t152 70
t53 190t-53 189t-152 69zM481 1153l172 317h389l-368 -317h-193z" />
    <glyph glyph-name="ocircumflex" unicode="&#xf4;" horiz-adv-x="1310" 
d="M655 1036q142 0 254.5 -40t184 -111.5t108.5 -166.5t37 -208t-37 -208t-108.5 -167t-184 -112.5t-254.5 -40.5t-254.5 40.5t-183.5 112.5t-108 167t-37 208t37 208t108 166.5t183.5 111.5t254.5 40zM655 768q-99 0 -151.5 -69t-52.5 -189t52.5 -190t151.5 -70t152 70
t53 190t-53 189t-152 69zM1053 1153h-215l-181 184l-182 -184h-215l182 346h428z" />
    <glyph glyph-name="otilde" unicode="&#xf5;" horiz-adv-x="1310" 
d="M655 1036q142 0 254.5 -40t184 -111.5t108.5 -166.5t37 -208t-37 -208t-108.5 -167t-184 -112.5t-254.5 -40.5t-254.5 40.5t-183.5 112.5t-108 167t-37 208t37 208t108 166.5t183.5 111.5t254.5 40zM655 768q-99 0 -151.5 -69t-52.5 -189t52.5 -190t151.5 -70t152 70
t53 190t-53 189t-152 69zM891 1473h162q0 -152 -64 -236t-172 -84q-55 0 -171 43t-144 43q-40 0 -59 -25.5t-23 -60.5h-160q0 82 22.5 146.5t58.5 101t75.5 54.5t77.5 18q43 0 174 -43q118 -46 145 -46q38 0 58 28t20 61z" />
    <glyph glyph-name="odieresis" unicode="&#xf6;" horiz-adv-x="1310" 
d="M655 1036q142 0 254.5 -40t184 -111.5t108.5 -166.5t37 -208t-37 -208t-108.5 -167t-184 -112.5t-254.5 -40.5t-254.5 40.5t-183.5 112.5t-108 167t-37 208t37 208t108 166.5t183.5 111.5t254.5 40zM655 768q-99 0 -151.5 -69t-52.5 -189t52.5 -190t151.5 -70t152 70
t53 190t-53 189t-152 69zM264 1290q0 56 39.5 96.5t97.5 40.5t98 -40.5t40 -96.5q0 -57 -40 -97t-98 -40t-97.5 40.5t-39.5 96.5zM774 1290q0 57 39 97t98 40q58 0 98 -40.5t40 -96.5q0 -57 -40 -97t-98 -40q-59 0 -98 40t-39 97z" />
    <glyph glyph-name="divide" unicode="&#xf7;" horiz-adv-x="1366" 
d="M121 809h1124v-234h-1124v234zM682 129q-60 0 -102.5 43.5t-42.5 103.5t42.5 103t102.5 43t103.5 -43t43.5 -103t-43.5 -103.5t-103.5 -43.5zM682 963q-60 0 -102.5 42.5t-42.5 102.5t42.5 103.5t102.5 43.5t103.5 -43.5t43.5 -103.5t-43.5 -102.5t-103.5 -42.5z" />
    <glyph glyph-name="oslash" unicode="&#xf8;" horiz-adv-x="1310" 
d="M987 963l141 155l86 -78l-131 -147q156 -147 156 -383q0 -71 -17 -141t-60 -141t-106.5 -124.5t-165 -87.5t-228.5 -34q-203 0 -338 75l-142 -157l-86 75l133 150q-39 39 -57 61q-100 124 -100 318q0 82 21 158t66.5 144.5t112 119.5t164.5 80.5t217 29.5q201 0 334 -73z
M469 387l309 344q-49 41 -119 41q-56 0 -97.5 -21.5t-65 -59.5t-34.5 -83.5t-11 -99.5q0 -66 18 -121zM844 631l-309 -342q56 -43 122 -43q35 0 67.5 12t64.5 40t51.5 85t19.5 135q0 70 -16 113z" />
    <glyph glyph-name="ugrave" unicode="&#xf9;" horiz-adv-x="1302" 
d="M1188 0h-361v145q-75 -81 -159.5 -122t-200.5 -41q-59 0 -109.5 12t-86 30t-63.5 47t-46 55.5t-30.5 64t-18.5 63.5t-9 62.5t-3.5 53t-0.5 42.5v8v598h361v-529v-10q0 -32 0.5 -51.5t8.5 -55.5t22 -57t44 -38t72 -17q22 0 43.5 5.5t38.5 13.5t34.5 22t28.5 24t25.5 27.5
t20 25.5t16.5 24.5t12 17.5v598h361v-1018zM872 1153h-192l-369 317h389z" />
    <glyph glyph-name="uacute" unicode="&#xfa;" horiz-adv-x="1302" 
d="M1188 0h-361v145q-75 -81 -159.5 -122t-200.5 -41q-59 0 -109.5 12t-86 30t-63.5 47t-46 55.5t-30.5 64t-18.5 63.5t-9 62.5t-3.5 53t-0.5 42.5v8v598h361v-529v-10q0 -32 0.5 -51.5t8.5 -55.5t22 -57t44 -38t72 -17q22 0 43.5 5.5t38.5 13.5t34.5 22t28.5 24t25.5 27.5
t20 25.5t16.5 24.5t12 17.5v598h361v-1018zM498 1153l172 317h389l-369 -317h-192z" />
    <glyph glyph-name="ucircumflex" unicode="&#xfb;" horiz-adv-x="1302" 
d="M1188 0h-361v145q-75 -81 -159.5 -122t-200.5 -41q-59 0 -109.5 12t-86 30t-63.5 47t-46 55.5t-30.5 64t-18.5 63.5t-9 62.5t-3.5 53t-0.5 42.5v8v598h361v-529v-10q0 -32 0.5 -51.5t8.5 -55.5t22 -57t44 -38t72 -17q22 0 43.5 5.5t38.5 13.5t34.5 22t28.5 24t25.5 27.5
t20 25.5t16.5 24.5t12 17.5v598h361v-1018zM1049 1153h-215l-181 184l-182 -184h-215l182 346h428z" />
    <glyph glyph-name="udieresis" unicode="&#xfc;" horiz-adv-x="1302" 
d="M1188 0h-361v145q-75 -81 -159.5 -122t-200.5 -41q-59 0 -109.5 12t-86 30t-63.5 47t-46 55.5t-30.5 64t-18.5 63.5t-9 62.5t-3.5 53t-0.5 42.5v8v598h361v-529v-10q0 -32 0.5 -51.5t8.5 -55.5t22 -57t44 -38t72 -17q22 0 43.5 5.5t38.5 13.5t34.5 22t28.5 24t25.5 27.5
t20 25.5t16.5 24.5t12 17.5v598h361v-1018zM260 1290q0 56 39.5 96.5t97.5 40.5t98 -40.5t40 -96.5q0 -57 -40 -97t-98 -40t-97.5 40.5t-39.5 96.5zM770 1290q0 57 39 97t98 40q58 0 97.5 -40.5t39.5 -96.5q0 -57 -39.5 -97t-97.5 -40q-59 0 -98 40t-39 97z" />
    <glyph glyph-name="yacute" unicode="&#xfd;" horiz-adv-x="1193" 
d="M27 1018h387l207 -506l235 506h350l-692 -1481h-364l280 596zM422 1153l172 317h389l-369 -317h-192z" />
    <glyph glyph-name="thorn" unicode="&#xfe;" horiz-adv-x="1304" 
d="M113 1386h360v-460q26 22 42 33.5t54.5 33t89 32.5t111.5 11q64 0 127 -17.5t124.5 -58t108 -99t75 -148t28.5 -197.5q0 -81 -17.5 -157t-56 -145t-94.5 -120t-138.5 -81.5t-181.5 -30.5q-72 0 -131 14.5t-83 27.5t-58 35v-522h-360v1849zM473 305q4 -2 20 -11
t21.5 -12.5t20 -10.5t22 -10t21.5 -8t24.5 -7t24.5 -4t28 -2q86 0 142.5 72t56.5 196q0 70 -18 122.5t-48 81t-63.5 41.5t-69.5 13q-16 0 -32 -1.5t-29.5 -5.5t-25 -7t-23.5 -9.5t-19 -10t-17.5 -11l-14 -10t-12.5 -9.5l-9 -8v-389z" />
    <glyph glyph-name="ydieresis" unicode="&#xff;" horiz-adv-x="1193" 
d="M27 1018h387l207 -506l235 506h350l-692 -1481h-364l280 596zM205 1290q0 56 39.5 96.5t97.5 40.5t97.5 -40.5t39.5 -96.5q0 -57 -39.5 -97t-97.5 -40t-97.5 40.5t-39.5 96.5zM715 1290q0 57 39 97t98 40q58 0 97.5 -40.5t39.5 -96.5q0 -57 -39.5 -97t-97.5 -40
q-59 0 -98 40t-39 97z" />
    <glyph glyph-name="Amacron" unicode="&#x100;" horiz-adv-x="1705" 
d="M1155 281h-602l-115 -281h-428l613 1386h462l611 -1386h-428zM651 522h408l-203 506zM1239 1503h-772v246h772v-246z" />
    <glyph glyph-name="amacron" unicode="&#x101;" horiz-adv-x="1169" 
d="M106 621v276q195 139 480 139q221 0 332.5 -85t111.5 -236v-393q0 -57 10.5 -84t38.5 -27q27 0 92 29v-189q-54 -22 -83.5 -32.5t-94 -23.5t-129.5 -13q-48 0 -82.5 10.5t-52.5 30.5t-25.5 33.5t-13.5 33.5q-37 -30 -68 -49.5t-98.5 -39t-148.5 -19.5q-85 0 -147.5 23.5
t-94.5 63.5t-46.5 81.5t-14.5 87.5q0 42 10.5 78t27 63.5t45.5 52.5t58.5 43.5t73 37t81 32t91.5 30.5q172 54 211 74q0 34 -5 57.5t-19.5 49t-49 38.5t-86.5 13q-218 0 -404 -186zM670 246v241q-56 -24 -81.5 -35t-64.5 -32.5t-56 -39t-30.5 -43.5t-13.5 -56
q0 -52 29 -78.5t69 -26.5q54 0 148 70zM971 1176h-772v245h772v-245z" />
    <glyph glyph-name="Abreve" unicode="&#x102;" horiz-adv-x="1705" 
d="M1155 281h-602l-115 -281h-428l613 1386h462l611 -1386h-428zM651 522h408l-203 506zM475 1827h178q7 -17 12 -26t23 -34t37.5 -40t54 -28t74.5 -13q30 0 56.5 6.5t44 14t34.5 23.5t25 24.5t18.5 28t12 23.5t8.5 21h178q-18 -136 -124 -241t-255 -105q-145 0 -255 100
t-122 246z" />
    <glyph glyph-name="abreve" unicode="&#x103;" horiz-adv-x="1169" 
d="M106 621v276q195 139 480 139q221 0 332.5 -85t111.5 -236v-393q0 -57 10.5 -84t38.5 -27q27 0 92 29v-189q-54 -22 -83.5 -32.5t-94 -23.5t-129.5 -13q-48 0 -82.5 10.5t-52.5 30.5t-25.5 33.5t-13.5 33.5q-37 -30 -68 -49.5t-98.5 -39t-148.5 -19.5q-85 0 -147.5 23.5
t-94.5 63.5t-46.5 81.5t-14.5 87.5q0 42 10.5 78t27 63.5t45.5 52.5t58.5 43.5t73 37t81 32t91.5 30.5q172 54 211 74q0 34 -5 57.5t-19.5 49t-49 38.5t-86.5 13q-218 0 -404 -186zM670 246v241q-56 -24 -81.5 -35t-64.5 -32.5t-56 -39t-30.5 -43.5t-13.5 -56
q0 -52 29 -78.5t69 -26.5q54 0 148 70zM207 1499h178q7 -17 12 -26t23 -34t37.5 -40t54 -28t74.5 -13q30 0 56.5 6.5t44 14t34.5 23.5t24.5 24t18 28.5t12 23.5t8.5 21h179q-18 -136 -124 -241t-255 -105q-145 0 -255 100t-122 246z" />
    <glyph glyph-name="Aogonek" unicode="&#x104;" horiz-adv-x="1705" 
d="M1370 0h-102l-113 281h-602l-115 -281h-428l613 1386h462l611 -1386h-140q-12 -52 -12 -84q0 -67 50 -104t116 -37q15 0 29.5 1.5t24 3t10.5 1.5v-184q-63 -25 -197 -25q-100 0 -169 66t-69 161q0 118 31 201zM651 522h408l-203 506z" />
    <glyph glyph-name="aogonek" unicode="&#x105;" horiz-adv-x="1169" 
d="M106 621v276q195 139 480 139q221 0 332.5 -85t111.5 -236v-393q0 -57 10.5 -84t38.5 -27q27 0 92 29v-189q-120 -50 -221 -63q-16 -46 -16 -90q0 -36 34.5 -67.5t84.5 -31.5q45 0 88 15v-172q-84 -41 -178 -41t-156 62.5t-62 172.5q0 85 37 158q-71 21 -92 96
q-37 -30 -68 -49.5t-98.5 -39t-148.5 -19.5q-85 0 -147.5 23.5t-94.5 63.5t-46.5 81.5t-14.5 87.5q0 42 10.5 78t27 63.5t45.5 52.5t58.5 43.5t73 37t81 32t91.5 30.5q172 54 211 74q0 34 -5 57.5t-19.5 49t-49 38.5t-86.5 13q-218 0 -404 -186zM670 246v241
q-56 -24 -81.5 -35t-64.5 -32.5t-56 -39t-30.5 -43.5t-13.5 -56q0 -52 29 -78.5t69 -26.5q54 0 148 70z" />
    <glyph glyph-name="Cacute" unicode="&#x106;" horiz-adv-x="1521" 
d="M1415 455v-351q-236 -122 -547 -122q-181 0 -328.5 51.5t-247.5 145t-154 225.5t-54 290q0 143 42 261.5t115.5 200.5t174 139t216 83.5t242.5 26.5q107 0 221.5 -20.5t173.5 -38.5t140 -46v-368q-116 70 -185 98q-128 51 -255 51q-121 0 -224.5 -46.5t-169 -137.5
t-65.5 -209q0 -161 123.5 -272t312.5 -111q78 0 152.5 15t138 42.5t99 46.5t79.5 46zM684 1481l172 317h389l-368 -317h-193z" />
    <glyph glyph-name="cacute" unicode="&#x107;" horiz-adv-x="1046" 
d="M971 977v-283q-185 56 -275 56q-43 0 -84.5 -13t-78.5 -39.5t-59.5 -74.5t-22.5 -111q0 -62 22.5 -111t59.5 -77t78.5 -42t84.5 -14q94 0 291 62v-283q-58 -20 -92.5 -31t-105.5 -22.5t-146 -11.5q-100 0 -184 21.5t-141.5 56t-102.5 82t-71 96t-43 101.5t-23 94.5
t-6 78.5t6 78.5t23 93.5t43 100t71 94.5t102.5 81t141.5 55.5t184 21q76 0 141.5 -10t100 -20t86.5 -29zM406 1153l172 317h389l-369 -317h-192z" />
    <glyph glyph-name="Ccircumflex" unicode="&#x108;" horiz-adv-x="1521" 
d="M1415 455v-351q-236 -122 -547 -122q-181 0 -328.5 51.5t-247.5 145t-154 225.5t-54 290q0 143 42 261.5t115.5 200.5t174 139t216 83.5t242.5 26.5q107 0 221.5 -20.5t173.5 -38.5t140 -46v-368q-116 70 -185 98q-128 51 -255 51q-121 0 -224.5 -46.5t-169 -137.5
t-65.5 -209q0 -161 123.5 -272t312.5 -111q78 0 152.5 15t138 42.5t99 46.5t79.5 46zM1262 1481h-215l-181 184l-182 -184h-215l182 346h428z" />
    <glyph glyph-name="ccircumflex" unicode="&#x109;" horiz-adv-x="1046" 
d="M971 977v-283q-185 56 -275 56q-43 0 -84.5 -13t-78.5 -39.5t-59.5 -74.5t-22.5 -111q0 -62 22.5 -111t59.5 -77t78.5 -42t84.5 -14q94 0 291 62v-283q-58 -20 -92.5 -31t-105.5 -22.5t-146 -11.5q-100 0 -184 21.5t-141.5 56t-102.5 82t-71 96t-43 101.5t-23 94.5
t-6 78.5t6 78.5t23 93.5t43 100t71 94.5t102.5 81t141.5 55.5t184 21q76 0 141.5 -10t100 -20t86.5 -29zM1001 1153h-215l-180 184l-182 -184h-215l182 346h428z" />
    <glyph glyph-name="Cdotaccent" unicode="&#x10a;" horiz-adv-x="1521" 
d="M1415 455v-351q-236 -122 -547 -122q-181 0 -328.5 51.5t-247.5 145t-154 225.5t-54 290q0 143 42 261.5t115.5 200.5t174 139t216 83.5t242.5 26.5q107 0 221.5 -20.5t173.5 -38.5t140 -46v-368q-116 70 -185 98q-128 51 -255 51q-121 0 -224.5 -46.5t-169 -137.5
t-65.5 -209q0 -161 123.5 -272t312.5 -111q78 0 152.5 15t138 42.5t99 46.5t79.5 46zM745 1618q0 56 40 96.5t98 40.5t97.5 -40.5t39.5 -96.5q0 -57 -39.5 -97t-97.5 -40t-98 40.5t-40 96.5z" />
    <glyph glyph-name="cdotaccent" unicode="&#x10b;" horiz-adv-x="1046" 
d="M971 977v-283q-185 56 -275 56q-43 0 -84.5 -13t-78.5 -39.5t-59.5 -74.5t-22.5 -111q0 -62 22.5 -111t59.5 -77t78.5 -42t84.5 -14q94 0 291 62v-283q-58 -20 -92.5 -31t-105.5 -22.5t-146 -11.5q-100 0 -184 21.5t-141.5 56t-102.5 82t-71 96t-43 101.5t-23 94.5
t-6 78.5t6 78.5t23 93.5t43 100t71 94.5t102.5 81t141.5 55.5t184 21q76 0 141.5 -10t100 -20t86.5 -29zM469 1290q0 56 39.5 96.5t97.5 40.5t97.5 -40.5t39.5 -96.5q0 -57 -39.5 -97t-97.5 -40t-97.5 40.5t-39.5 96.5z" />
    <glyph glyph-name="Ccaron" unicode="&#x10c;" horiz-adv-x="1521" 
d="M1415 455v-351q-236 -122 -547 -122q-181 0 -328.5 51.5t-247.5 145t-154 225.5t-54 290q0 143 42 261.5t115.5 200.5t174 139t216 83.5t242.5 26.5q107 0 221.5 -20.5t173.5 -38.5t140 -46v-368q-116 70 -185 98q-128 51 -255 51q-121 0 -224.5 -46.5t-169 -137.5
t-65.5 -209q0 -161 123.5 -272t312.5 -111q78 0 152.5 15t138 42.5t99 46.5t79.5 46zM487 1827h215l183 -187l180 187h215l-182 -346h-428z" />
    <glyph glyph-name="ccaron" unicode="&#x10d;" horiz-adv-x="1046" 
d="M971 977v-283q-185 56 -275 56q-43 0 -84.5 -13t-78.5 -39.5t-59.5 -74.5t-22.5 -111q0 -62 22.5 -111t59.5 -77t78.5 -42t84.5 -14q94 0 291 62v-283q-58 -20 -92.5 -31t-105.5 -22.5t-146 -11.5q-100 0 -184 21.5t-141.5 56t-102.5 82t-71 96t-43 101.5t-23 94.5
t-6 78.5t6 78.5t23 93.5t43 100t71 94.5t102.5 81t141.5 55.5t184 21q76 0 141.5 -10t100 -20t86.5 -29zM209 1499h215l182 -186l180 186h215l-182 -346h-428z" />
    <glyph glyph-name="Dcaron" unicode="&#x10e;" horiz-adv-x="1683" 
d="M174 1386h576q125 0 226 -14.5t172.5 -41t118.5 -53.5t91 -63q107 -86 174 -226t67 -320q0 -348 -260 -551q-150 -117 -438 -117h-727v1386zM592 1108v-821h178q38 0 70 2.5t75 12t77.5 26t69.5 46.5t58.5 71t38.5 103t15 138q0 105 -28.5 185t-70 123.5t-99.5 70.5
t-106 35t-100 8h-178zM424 1827h215l182 -187l180 187h216l-183 -346h-428z" />
    <glyph glyph-name="dcaron" unicode="&#x10f;" horiz-adv-x="1714" 
d="M1192 0h-361v92q-21 -18 -30.5 -25.5t-40.5 -27.5t-58 -29.5t-72.5 -18.5t-94.5 -9q-64 0 -127 17.5t-124.5 58t-108 99t-75 148t-28.5 197.5q0 81 17.5 157t56 145t94 120t138 81.5t181.5 30.5q72 0 131 -15t82.5 -27.5t58.5 -35.5v428h361v-1386zM831 713q-4 2 -20 11
t-21.5 12.5t-20 10.5t-22 10t-21.5 8t-24.5 7t-24.5 4t-28 2q-86 0 -142 -72t-56 -196q0 -70 18 -122.5t48 -81t63 -41.5t69 -13q16 0 32 1.5t29.5 5.5t25 7t23.5 9.5t19 10t17.5 11l14 10t12.5 9.5l9 8v389zM1288 719v57q152 57 144 260q-144 43 -144 178q0 76 56 133.5
t139 57.5q47 0 86.5 -17.5t66 -46t45 -66t27 -77.5t8.5 -80q0 -49 -14 -97.5t-46.5 -98t-80.5 -89.5t-122 -71t-165 -43z" />
    <glyph glyph-name="Dcroat" unicode="&#x110;" horiz-adv-x="1683" 
d="M174 1386h576q125 0 226 -14.5t172.5 -41t118.5 -53.5t91 -63q107 -86 174 -226t67 -320q0 -348 -260 -551q-150 -117 -438 -117h-727v586h-154v215h154v585zM592 1108v-307h285v-215h-285v-299h178q38 0 70 2.5t75 12t77.5 26t69.5 46.5t58.5 71t38.5 103t15 138
q0 105 -28.5 185t-70 123.5t-99.5 70.5t-106 35t-100 8h-178z" />
    <glyph glyph-name="dcroat" unicode="&#x111;" horiz-adv-x="1304" 
d="M610 1130v170h221v86h361v-86h139v-170h-139v-1130h-361v92q-21 -18 -30.5 -25.5t-40.5 -27.5t-58 -29.5t-72.5 -18.5t-94.5 -9q-64 0 -127 17.5t-124.5 58t-108 99t-75 148t-28.5 197.5q0 81 17.5 157t56 145t94 120t138 81.5t181.5 30.5q72 0 131 -15t82.5 -27.5
t58.5 -35.5v172h-221zM831 713q-4 2 -20 11t-21.5 12.5t-20 10.5t-22 10t-21.5 8t-24.5 7t-24.5 4t-28 2q-86 0 -142 -72t-56 -196q0 -70 18 -122.5t48 -81t63 -41.5t69 -13q16 0 32 1.5t29.5 5.5t25 7t23.5 9.5t19 10t17.5 11l14 10t12.5 9.5l9 8v389z" />
    <glyph glyph-name="Emacron" unicode="&#x112;" horiz-adv-x="1325" 
d="M592 279h627v-279h-1045v1386h1028v-278h-610v-254h582v-279h-582v-296zM1069 1503h-772v246h772v-246z" />
    <glyph glyph-name="emacron" unicode="&#x113;" horiz-adv-x="1220" 
d="M1159 494v-72h-717q20 -94 102 -152.5t187 -58.5q182 0 402 102v-223q-197 -108 -478 -108q-142 0 -254.5 41.5t-183.5 114t-108 168.5t-37 208t37 206.5t108 165t183.5 110.5t254.5 40q72 0 140 -16.5t135 -56.5t117 -100.5t81 -155.5t31 -213zM432 600h389
q0 98 -49.5 156.5t-138.5 58.5q-88 0 -144.5 -59.5t-56.5 -155.5zM1006 1176h-773v245h773v-245z" />
    <glyph glyph-name="Ebreve" unicode="&#x114;" horiz-adv-x="1325" 
d="M592 279h627v-279h-1045v1386h1028v-278h-610v-254h582v-279h-582v-296zM305 1827h178q7 -17 12 -26t23 -34t37.5 -40t54 -28t74.5 -13q30 0 56.5 6.5t44 14t34.5 23.5t25 24.5t18.5 28t12 23.5t8.5 21h178q-18 -136 -124 -241t-255 -105q-145 0 -255 100t-122 246z" />
    <glyph glyph-name="ebreve" unicode="&#x115;" horiz-adv-x="1220" 
d="M1159 494v-72h-717q20 -94 102 -152.5t187 -58.5q182 0 402 102v-223q-197 -108 -478 -108q-142 0 -254.5 41.5t-183.5 114t-108 168.5t-37 208t37 206.5t108 165t183.5 110.5t254.5 40q72 0 140 -16.5t135 -56.5t117 -100.5t81 -155.5t31 -213zM432 600h389
q0 98 -49.5 156.5t-138.5 58.5q-88 0 -144.5 -59.5t-56.5 -155.5zM242 1499h178q7 -17 12 -26t23 -34t37.5 -40t54 -28t74.5 -13q30 0 56.5 6.5t44 14t34.5 23.5t24.5 24t18 28.5t12 23.5t8.5 21h178q-18 -136 -124 -241t-255 -105q-145 0 -254.5 100t-121.5 246z" />
    <glyph glyph-name="Edotaccent" unicode="&#x116;" horiz-adv-x="1325" 
d="M592 279h627v-279h-1045v1386h1028v-278h-610v-254h582v-279h-582v-296zM545 1618q0 56 39.5 96.5t97.5 40.5t97.5 -40.5t39.5 -96.5q0 -57 -39.5 -97t-97.5 -40t-97.5 40.5t-39.5 96.5z" />
    <glyph glyph-name="edotaccent" unicode="&#x117;" horiz-adv-x="1220" 
d="M1159 494v-72h-717q20 -94 102 -152.5t187 -58.5q182 0 402 102v-223q-197 -108 -478 -108q-142 0 -254.5 41.5t-183.5 114t-108 168.5t-37 208t37 206.5t108 165t183.5 110.5t254.5 40q72 0 140 -16.5t135 -56.5t117 -100.5t81 -155.5t31 -213zM432 600h389
q0 98 -49.5 156.5t-138.5 58.5q-88 0 -144.5 -59.5t-56.5 -155.5zM483 1290q0 56 40 96.5t98 40.5t97.5 -40.5t39.5 -96.5q0 -57 -39.5 -97t-97.5 -40t-98 40.5t-40 96.5z" />
    <glyph glyph-name="Eogonek" unicode="&#x118;" horiz-adv-x="1325" 
d="M815 0h-641v1386h1028v-278h-610v-254h582v-279h-582v-296h627v-279h-218q-12 -52 -12 -84q0 -67 50 -104t116 -37q15 0 29.5 1.5t24 3t10.5 1.5v-184q-63 -25 -197 -25q-100 0 -169 66t-69 161q0 118 31 201z" />
    <glyph glyph-name="eogonek" unicode="&#x119;" horiz-adv-x="1220" 
d="M1159 494v-72h-717q20 -94 102 -152.5t187 -58.5q182 0 402 102v-223q-115 -62 -252 -88q-23 -51 -23 -104q0 -36 34.5 -67.5t84.5 -31.5q44 0 88 15v-172q-84 -41 -178 -41t-155.5 62.5t-61.5 172.5q0 85 32 148q-16 -2 -47 -2q-142 0 -254.5 41.5t-183.5 114
t-108 168.5t-37 208t37 206.5t108 165t183.5 110.5t254.5 40q72 0 140 -16.5t135 -56.5t117 -100.5t81 -155.5t31 -213zM432 600h389q0 98 -49.5 156.5t-138.5 58.5q-88 0 -144.5 -59.5t-56.5 -155.5z" />
    <glyph glyph-name="Ecaron" unicode="&#x11a;" horiz-adv-x="1325" 
d="M592 279h627v-279h-1045v1386h1028v-278h-610v-254h582v-279h-582v-296zM287 1827h215l182 -187l180 187h215l-182 -346h-428z" />
    <glyph glyph-name="ecaron" unicode="&#x11b;" horiz-adv-x="1220" 
d="M1159 494v-72h-717q20 -94 102 -152.5t187 -58.5q182 0 402 102v-223q-197 -108 -478 -108q-142 0 -254.5 41.5t-183.5 114t-108 168.5t-37 208t37 206.5t108 165t183.5 110.5t254.5 40q72 0 140 -16.5t135 -56.5t117 -100.5t81 -155.5t31 -213zM432 600h389
q0 98 -49.5 156.5t-138.5 58.5q-88 0 -144.5 -59.5t-56.5 -155.5zM223 1499h215l183 -186l180 186h215l-182 -346h-428z" />
    <glyph glyph-name="Gcircumflex" unicode="&#x11c;" horiz-adv-x="1636" 
d="M1454 1305v-328q-45 26 -77 41.5t-92.5 39.5t-134.5 36t-157 12q-112 0 -200.5 -30t-140 -74.5t-85 -103t-45.5 -109t-12 -99.5q0 -78 28 -147.5t80.5 -124t137 -86t190.5 -31.5q71 0 170 21v163h-188v279h553v-666q-126 -48 -224 -71q-187 -45 -389 -45
q-125 0 -238.5 26t-213.5 82t-173.5 138t-116 202t-42.5 266q0 152 55.5 298t169.5 235q135 106 274 141t308 35q120 0 238.5 -18.5t178 -35.5t129.5 -40q12 -4 17 -6zM1276 1481h-215l-180 184l-183 -184h-215l183 346h428z" />
    <glyph glyph-name="gcircumflex" unicode="&#x11d;" horiz-adv-x="1153" 
d="M1139 1018v-217h-178q94 -80 94 -201q0 -132 -107.5 -227t-296.5 -105q-125 -5 -125 -67q0 -34 33.5 -44t149.5 -20q25 -2 41 -3.5t49 -6.5t57 -11.5t57.5 -18t57.5 -26.5t50 -37t42 -49t26.5 -63.5t10.5 -79.5q0 -72 -27.5 -128.5t-87 -101.5t-162.5 -69t-245 -24
q-273 0 -400 73t-127 195q0 17 3.5 35.5t18 48.5t38.5 54t71.5 45.5t110.5 29.5q-37 14 -62.5 51t-25.5 78q0 31 12 63.5t49 65t94 43.5q-52 13 -99.5 39t-89 65.5t-66.5 97.5t-25 126q0 100 39 176t108 122t158 68.5t195 22.5h559zM393 625q0 -67 46.5 -114.5t121.5 -47.5
q77 0 128.5 48.5t51.5 117.5q0 75 -52.5 122.5t-117.5 47.5q-84 0 -131 -55t-47 -119zM594 -84q-124 0 -180 -26t-56 -85q0 -114 230 -114q102 0 163.5 30t61.5 89q0 29 -19 50t-43.5 31.5t-59 16.5t-55 7t-42.5 1zM973 1153h-215l-180 184l-183 -184h-215l182 346h429z" />
    <glyph glyph-name="Gbreve" unicode="&#x11e;" horiz-adv-x="1636" 
d="M1454 1305v-328q-45 26 -77 41.5t-92.5 39.5t-134.5 36t-157 12q-112 0 -200.5 -30t-140 -74.5t-85 -103t-45.5 -109t-12 -99.5q0 -78 28 -147.5t80.5 -124t137 -86t190.5 -31.5q71 0 170 21v163h-188v279h553v-666q-126 -48 -224 -71q-187 -45 -389 -45
q-125 0 -238.5 26t-213.5 82t-173.5 138t-116 202t-42.5 266q0 152 55.5 298t169.5 235q135 106 274 141t308 35q120 0 238.5 -18.5t178 -35.5t129.5 -40q12 -4 17 -6zM522 1827h178q7 -17 12 -26t23 -34t37.5 -40t54 -28t74.5 -13q30 0 56.5 6.5t44 14t34.5 23.5t25 24.5
t18.5 28t12 23.5t8.5 21h178q-18 -136 -124 -241t-255 -105q-145 0 -255 100t-122 246z" />
    <glyph glyph-name="gbreve" unicode="&#x11f;" horiz-adv-x="1153" 
d="M1139 1018v-217h-178q94 -80 94 -201q0 -132 -107.5 -227t-296.5 -105q-125 -5 -125 -67q0 -34 33.5 -44t149.5 -20q25 -2 41 -3.5t49 -6.5t57 -11.5t57.5 -18t57.5 -26.5t50 -37t42 -49t26.5 -63.5t10.5 -79.5q0 -72 -27.5 -128.5t-87 -101.5t-162.5 -69t-245 -24
q-273 0 -400 73t-127 195q0 17 3.5 35.5t18 48.5t38.5 54t71.5 45.5t110.5 29.5q-37 14 -62.5 51t-25.5 78q0 31 12 63.5t49 65t94 43.5q-52 13 -99.5 39t-89 65.5t-66.5 97.5t-25 126q0 100 39 176t108 122t158 68.5t195 22.5h559zM393 625q0 -67 46.5 -114.5t121.5 -47.5
q77 0 128.5 48.5t51.5 117.5q0 75 -52.5 122.5t-117.5 47.5q-84 0 -131 -55t-47 -119zM594 -84q-124 0 -180 -26t-56 -85q0 -114 230 -114q102 0 163.5 30t61.5 89q0 29 -19 50t-43.5 31.5t-59 16.5t-55 7t-42.5 1zM203 1499h178q7 -17 12 -26t23 -34t37.5 -40t54 -28
t74.5 -13q30 0 56.5 6.5t44 14t34.5 23.5t24.5 24t18 28.5t12 23.5t8.5 21h178q-18 -136 -123.5 -241t-254.5 -105q-145 0 -255 100t-122 246z" />
    <glyph glyph-name="Gdotaccent" unicode="&#x120;" horiz-adv-x="1636" 
d="M1454 1305v-328q-45 26 -77 41.5t-92.5 39.5t-134.5 36t-157 12q-112 0 -200.5 -30t-140 -74.5t-85 -103t-45.5 -109t-12 -99.5q0 -78 28 -147.5t80.5 -124t137 -86t190.5 -31.5q71 0 170 21v163h-188v279h553v-666q-126 -48 -224 -71q-187 -45 -389 -45
q-125 0 -238.5 26t-213.5 82t-173.5 138t-116 202t-42.5 266q0 152 55.5 298t169.5 235q135 106 274 141t308 35q120 0 238.5 -18.5t178 -35.5t129.5 -40q12 -4 17 -6zM737 1618q0 56 39.5 96.5t97.5 40.5t98 -40.5t40 -96.5q0 -57 -40 -97t-98 -40t-97.5 40.5t-39.5 96.5z
" />
    <glyph glyph-name="gdotaccent" unicode="&#x121;" horiz-adv-x="1153" 
d="M1139 1018v-217h-178q94 -80 94 -201q0 -132 -107.5 -227t-296.5 -105q-125 -5 -125 -67q0 -34 33.5 -44t149.5 -20q25 -2 41 -3.5t49 -6.5t57 -11.5t57.5 -18t57.5 -26.5t50 -37t42 -49t26.5 -63.5t10.5 -79.5q0 -72 -27.5 -128.5t-87 -101.5t-162.5 -69t-245 -24
q-273 0 -400 73t-127 195q0 17 3.5 35.5t18 48.5t38.5 54t71.5 45.5t110.5 29.5q-37 14 -62.5 51t-25.5 78q0 31 12 63.5t49 65t94 43.5q-52 13 -99.5 39t-89 65.5t-66.5 97.5t-25 126q0 100 39 176t108 122t158 68.5t195 22.5h559zM393 625q0 -67 46.5 -114.5t121.5 -47.5
q77 0 128.5 48.5t51.5 117.5q0 75 -52.5 122.5t-117.5 47.5q-84 0 -131 -55t-47 -119zM594 -84q-124 0 -180 -26t-56 -85q0 -114 230 -114q102 0 163.5 30t61.5 89q0 29 -19 50t-43.5 31.5t-59 16.5t-55 7t-42.5 1zM438 1290q0 56 39.5 96.5t97.5 40.5t98 -40.5t40 -96.5
q0 -57 -40 -97t-98 -40t-97.5 40.5t-39.5 96.5z" />
    <glyph glyph-name="Gcommaaccent" unicode="&#x122;" horiz-adv-x="1636" 
d="M1454 1305v-328q-45 26 -77 41.5t-92.5 39.5t-134.5 36t-157 12q-112 0 -200.5 -30t-140 -74.5t-85 -103t-45.5 -109t-12 -99.5q0 -78 28 -147.5t80.5 -124t137 -86t190.5 -31.5q71 0 170 21v163h-188v279h553v-666q-126 -48 -224 -71q-187 -45 -389 -45
q-125 0 -238.5 26t-213.5 82t-173.5 138t-116 202t-42.5 266q0 152 55.5 298t169.5 235q135 106 274 141t308 35q120 0 238.5 -18.5t178 -35.5t129.5 -40q12 -4 17 -6zM633 -463v117q18 -2 53 -2q89 0 122.5 14.5t33.5 50.5q0 34 -46 45t-128 11l10 112h123q187 0 276.5 -41
t89.5 -153q0 -89 -88.5 -137t-238.5 -48q-90 0 -207 31z" />
    <glyph glyph-name="gcommaaccent" unicode="&#x123;" horiz-adv-x="1153" 
d="M1139 1018v-217h-178q94 -80 94 -201q0 -132 -107.5 -227t-296.5 -105q-125 -5 -125 -67q0 -34 33.5 -44t149.5 -20q25 -2 41 -3.5t49 -6.5t57 -11.5t57.5 -18t57.5 -26.5t50 -37t42 -49t26.5 -63.5t10.5 -79.5q0 -72 -27.5 -128.5t-87 -101.5t-162.5 -69t-245 -24
q-273 0 -400 73t-127 195q0 17 3.5 35.5t18 48.5t38.5 54t71.5 45.5t110.5 29.5q-37 14 -62.5 51t-25.5 78q0 31 12 63.5t49 65t94 43.5q-52 13 -99.5 39t-89 65.5t-66.5 97.5t-25 126q0 100 39 176t108 122t158 68.5t195 22.5h559zM393 625q0 -67 46.5 -114.5t121.5 -47.5
q77 0 128.5 48.5t51.5 117.5q0 75 -52.5 122.5t-117.5 47.5q-84 0 -131 -55t-47 -119zM594 -84q-124 0 -180 -26t-56 -85q0 -114 230 -114q102 0 163.5 30t61.5 89q0 29 -19 50t-43.5 31.5t-59 16.5t-55 7t-42.5 1zM739 1577v-45q-86 -80 -77 -193q29 -11 48 -27.5t26 -34.5
t9.5 -29t2.5 -21q0 -51 -43 -84t-97 -33q-64 0 -117 44.5t-53 127.5q0 109 88 197.5t213 97.5z" />
    <glyph glyph-name="Hcircumflex" unicode="&#x124;" horiz-adv-x="1812" 
d="M1221 541h-629v-541h-418v1386h418v-509h629v509h417v-1386h-417v541zM1303 1481h-216l-180 184l-182 -184h-215l182 346h428z" />
    <glyph glyph-name="hcircumflex" unicode="&#x125;" horiz-adv-x="1302" 
d="M115 1386h360v-514q88 94 175.5 129t185.5 35q174 0 270 -99t96 -312v-625h-360v528v3q1 14 1 27.5t-1.5 43.5t-11 54t-24.5 49t-44 39t-68 14q-30 0 -59.5 -11.5t-51 -27t-44.5 -39.5t-35.5 -41.5t-28.5 -40.5v-598h-360v1386zM1047 1481h-216l-180 184l-182 -184h-215
l182 346h428z" />
    <glyph glyph-name="Hbar" unicode="&#x126;" horiz-adv-x="1812" 
d="M27 1253h147v133h418v-133h629v133h417v-133h148v-215h-148v-1038h-417v541h-629v-541h-418v1038h-147v215zM592 877h629v161h-629v-161z" />
    <glyph glyph-name="hbar" unicode="&#x127;" horiz-adv-x="1302" 
d="M877 1130h-402v-258q88 94 175.5 129t185.5 35q174 0 270 -99t96 -312v-625h-360v528v3q1 14 1 27.5t-1.5 43.5t-11 54t-24.5 49t-44 39t-68 14q-30 0 -59.5 -11.5t-51 -27t-44.5 -39.5t-35.5 -41.5t-28.5 -40.5v-598h-360v1130h-140v170h140v86h360v-86h402v-170z" />
    <glyph glyph-name="Itilde" unicode="&#x128;" horiz-adv-x="770" 
d="M176 1386h418v-1386h-418v1386zM618 1800h162q0 -152 -63.5 -235.5t-171.5 -83.5q-55 0 -171 43t-145 43q-40 0 -59 -25.5t-23 -60.5h-159q0 82 22.5 146.5t58.5 100.5t75 54t77 18q43 0 174 -43q115 -45 146 -45q38 0 57.5 27.5t19.5 60.5z" />
    <glyph glyph-name="itilde" unicode="&#x129;" horiz-adv-x="626" 
d="M133 1018h361v-1018h-361v1018zM549 1473h162q0 -152 -64 -236t-172 -84q-55 0 -171 43t-144 43q-40 0 -59 -25.5t-23 -60.5h-160q0 82 22.5 146.5t58.5 101t75.5 54.5t77.5 18q43 0 174 -43q118 -46 145 -46q38 0 58 28t20 61z" />
    <glyph glyph-name="Imacron" unicode="&#x12a;" horiz-adv-x="770" 
d="M176 1386h418v-1386h-418v1386zM770 1503h-772v246h772v-246z" />
    <glyph glyph-name="imacron" unicode="&#x12b;" horiz-adv-x="626" 
d="M133 1018h361v-1018h-361v1018zM700 1176h-772v245h772v-245z" />
    <glyph glyph-name="Ibreve" unicode="&#x12c;" horiz-adv-x="770" 
d="M176 1386h418v-1386h-418v1386zM6 1827h178q7 -17 12 -26t23 -34t37.5 -40t54 -28t74.5 -13q30 0 56.5 6.5t44 14t34.5 23.5t25 24.5t18.5 28t12 23.5t8.5 21h178q-18 -136 -124 -241t-255 -105q-145 0 -255 100t-122 246z" />
    <glyph glyph-name="ibreve" unicode="&#x12d;" horiz-adv-x="626" 
d="M133 1018h361v-1018h-361v1018zM-63 1499h178q5 -12 6.5 -14t9.5 -18.5t15 -24.5t19.5 -23.5t27 -23.5t32.5 -18t41 -14.5t49 -4.5q30 0 56.5 6.5t44 14t34.5 23.5t25 24.5t18.5 28t12 23.5t8.5 21h178q-18 -136 -124 -241t-255 -105q-145 0 -254.5 100t-121.5 246z" />
    <glyph glyph-name="Iogonek" unicode="&#x12e;" horiz-adv-x="770" 
d="M262 0h-86v1386h418v-1386h-145q-13 -57 -13 -84q0 -67 50 -104t116 -37q15 0 29.5 1.5t24 3t10.5 1.5v-184q-63 -25 -197 -25q-100 0 -169 66t-69 161q0 118 31 201z" />
    <glyph glyph-name="iogonek" unicode="&#x12f;" horiz-adv-x="626" 
d="M133 1018h361v-1018h-115q-23 -51 -23 -102q0 -36 34.5 -67.5t84.5 -31.5q45 0 88 15v-172q-84 -41 -178 -41t-155.5 62.5t-61.5 172.5q0 91 41 164h-76v1018zM313 1405q63 0 107.5 -44.5t44.5 -107.5t-44.5 -107t-107.5 -44t-107 44t-44 107t44 107.5t107 44.5z" />
    <glyph glyph-name="Idotaccent" unicode="&#x130;" horiz-adv-x="770" 
d="M176 1386h418v-1386h-418v1386zM248 1618q0 56 39.5 96.5t97.5 40.5t97.5 -40.5t39.5 -96.5q0 -57 -39.5 -97t-97.5 -40t-97.5 40.5t-39.5 96.5z" />
    <glyph glyph-name="dotlessi" unicode="&#x131;" horiz-adv-x="626" 
d="M133 1018h361v-1018h-361v1018z" />
    <glyph glyph-name="IJ" unicode="&#x132;" horiz-adv-x="1581" 
d="M176 1386h418v-1386h-418v1386zM987 1386h418v-1214q0 -73 -2.5 -127t-13.5 -122.5t-30 -117t-54 -98.5t-83.5 -81t-121 -50.5t-164.5 -19.5q-75 0 -150 14l-63 334q45 1 67.5 2.5t55 5t49 11t35.5 20t29.5 31.5t17.5 46q10 39 10 293v1073z" />
    <glyph glyph-name="ij" unicode="&#x133;" horiz-adv-x="1253" 
d="M133 1018h361v-1018h-361v1018zM313 1405q63 0 107.5 -44.5t44.5 -107.5t-44.5 -107t-107.5 -44t-107 44t-44 107t44 107.5t107 44.5zM760 1018h360v-1077q0 -92 -27 -167t-69 -121t-96 -77.5t-103.5 -44t-95.5 -12.5l-121 274q97 31 124.5 93.5t27.5 222.5v909z
M940 1405q63 0 107.5 -44.5t44.5 -107.5t-44.5 -107t-107.5 -44t-107.5 44t-44.5 107t44.5 107.5t107.5 44.5z" />
    <glyph glyph-name="Jcircumflex" unicode="&#x134;" horiz-adv-x="811" 
d="M217 1386h418v-1214q0 -73 -2.5 -127t-13.5 -122.5t-30 -117t-54 -98.5t-83.5 -81t-121 -50.5t-164.5 -19.5q-75 0 -150 14l-63 334q45 1 67.5 2.5t55 5t49 11t35.5 20t29.5 31.5t17.5 46q10 39 10 293v1073zM801 1481h-215l-180 184l-183 -184h-215l182 346h428z" />
    <glyph glyph-name="jcircumflex" unicode="&#x135;" horiz-adv-x="626" 
d="M133 1018h361v-1077q0 -92 -27.5 -167t-69.5 -121t-95.5 -77.5t-103.5 -44t-96 -12.5l-120 274q97 31 124 93t27 223v909zM709 1153h-215l-181 184l-182 -184h-215l182 346h428z" />
    <glyph glyph-name="Kcommaaccent" unicode="&#x136;" horiz-adv-x="1640" 
d="M174 1386h418v-620l502 620h454l-516 -649l600 -737h-510l-530 649v-649h-418v1386zM573 -463v117q18 -2 54 -2q89 0 122 14.5t33 50.5q0 34 -46 45t-128 11l10 112h123q92 0 155.5 -8.5t113.5 -29.5t74 -59.5t24 -96.5q0 -89 -89 -137t-239 -48q-90 0 -207 31z" />
    <glyph glyph-name="kcommaaccent" unicode="&#x137;" horiz-adv-x="1325" 
d="M113 1386h364v-813l357 445h432l-398 -475l457 -543h-457l-391 483v-483h-364v1386zM494 -360v116q74 -4 110.5 0.5t44.5 13t8 25.5q0 16 -22.5 29.5t-65.5 13.5v101q100 0 166.5 -11t100.5 -32.5t46.5 -47t12.5 -61.5q0 -69 -65 -118.5t-171 -49.5q-75 0 -165 21z" />
    <glyph glyph-name="kgreenlandic" unicode="&#x138;" horiz-adv-x="1325" 
d="M113 1018h364v-445l357 445h432l-398 -475l457 -543h-457l-391 483v-483h-364v1018z" />
    <glyph glyph-name="Lacute" unicode="&#x139;" horiz-adv-x="1296" 
d="M174 1386h418v-1054h635v-332h-1053v1386zM244 1481l172 317h389l-369 -317h-192z" />
    <glyph glyph-name="lacute" unicode="&#x13a;" horiz-adv-x="626" 
d="M133 1386h361v-1386h-361v1386zM135 1481l172 317h389l-368 -317h-193z" />
    <glyph glyph-name="Lcommaaccent" unicode="&#x13b;" horiz-adv-x="1296" 
d="M174 1386h418v-1054h635v-332h-1053v1386zM422 -463v117q18 -2 53 -2q89 0 122.5 14.5t33.5 50.5q0 34 -46 45t-128 11l10 112h123q187 0 276.5 -41t89.5 -153q0 -89 -88.5 -137t-238.5 -48q-90 0 -207 31z" />
    <glyph glyph-name="lcommaaccent" unicode="&#x13c;" horiz-adv-x="626" 
d="M133 1386h361v-1386h-361v1386zM113 -360v116q74 -4 110.5 0.5t44.5 13t8 25.5q0 16 -22.5 29.5t-65.5 13.5v101q100 0 166.5 -11t100.5 -32.5t46.5 -47t12.5 -61.5q0 -69 -64.5 -118.5t-170.5 -49.5q-76 0 -166 21z" />
    <glyph glyph-name="Lcaron" unicode="&#x13d;" horiz-adv-x="1296" 
d="M786 719v57q152 57 144 260q-144 43 -144 178q0 76 56 133.5t139 57.5q47 0 86.5 -17.5t66 -46t45 -66t27 -77.5t8.5 -80q0 -49 -14 -97.5t-46.5 -98t-80.5 -89.5t-122 -71t-165 -43zM174 1386h418v-1054h635v-332h-1053v1386z" />
    <glyph glyph-name="lcaron" unicode="&#x13e;" horiz-adv-x="1021" 
d="M133 1386h361v-1386h-361v1386zM596 719v57q151 57 143 260q-143 42 -143 178q0 76 56 133.5t139 57.5q47 0 86.5 -17.5t66 -46t45 -66t27 -77.5t8.5 -80q0 -49 -14 -97.5t-46.5 -98t-80.5 -89.5t-122 -71t-165 -43z" />
    <glyph glyph-name="Ldot" unicode="&#x13f;" horiz-adv-x="1296" 
d="M954 965q77 0 132 -54t55 -133q0 -78 -54.5 -134t-132.5 -56q-77 0 -131.5 55.5t-54.5 134.5t54.5 133t131.5 54zM174 1386h418v-1054h635v-332h-1053v1386z" />
    <glyph glyph-name="ldot" unicode="&#x140;" horiz-adv-x="774" 
d="M133 1386h361v-1386h-361v1386zM565 711q0 56 39.5 96.5t97.5 40.5t98 -40.5t40 -96.5q0 -57 -40 -97.5t-98 -40.5t-97.5 41t-39.5 97z" />
    <glyph glyph-name="Lslash" unicode="&#x141;" horiz-adv-x="1296" 
d="M592 975l260 199v-273l-260 -199v-370h635v-332h-1053v383l-186 -143v272l186 143v731h418v-411z" />
    <glyph glyph-name="lslash" unicode="&#x142;" horiz-adv-x="626" 
d="M494 940l143 111v-217l-143 -111v-723h-361v449l-143 -111v217l143 111v720h361v-446z" />
    <glyph glyph-name="Nacute" unicode="&#x143;" horiz-adv-x="1853" 
d="M174 1386h371l717 -768v768h417v-1386h-372l-719 772v-772h-414v1386zM768 1481l172 317h389l-368 -317h-193z" />
    <glyph glyph-name="nacute" unicode="&#x144;" horiz-adv-x="1302" 
d="M115 1018h360v-146q83 89 170 126.5t191 37.5q59 0 109 -12t85.5 -30t64 -47t46 -55.5t30 -64t18.5 -63t9 -62.5t3.5 -53t0.5 -42v-9v-598h-360v528v9v35.5t-3 39t-8 42.5t-16 38.5t-26.5 34.5t-39.5 22t-55 9q-29 0 -56.5 -9.5t-46.5 -22t-40 -33.5t-31 -34t-26 -35
t-19 -26v-598h-360v1018zM473 1153l172 317h389l-368 -317h-193z" />
    <glyph glyph-name="Ncommaaccent" unicode="&#x145;" horiz-adv-x="1853" 
d="M174 1386h371l717 -768v768h417v-1386h-372l-719 772v-772h-414v1386zM680 -463v117q18 -2 53 -2q89 0 122.5 14.5t33.5 50.5q0 34 -46 45t-128 11l10 112h123q187 0 276.5 -41t89.5 -153q0 -89 -88.5 -137t-238.5 -48q-90 0 -207 31z" />
    <glyph glyph-name="ncommaaccent" unicode="&#x146;" horiz-adv-x="1302" 
d="M115 1018h360v-146q83 89 170 126.5t191 37.5q59 0 109 -12t85.5 -30t64 -47t46 -55.5t30 -64t18.5 -63t9 -62.5t3.5 -53t0.5 -42v-9v-598h-360v528v9v35.5t-3 39t-8 42.5t-16 38.5t-26.5 34.5t-39.5 22t-55 9q-29 0 -56.5 -9.5t-46.5 -22t-40 -33.5t-31 -34t-26 -35
t-19 -26v-598h-360v1018zM477 -360v116q74 -4 111 0.5t45 13t8 25.5q0 16 -22.5 29.5t-65.5 13.5v101q100 0 166.5 -11t100.5 -32.5t46.5 -47t12.5 -61.5q0 -69 -65 -118.5t-171 -49.5q-76 0 -166 21z" />
    <glyph glyph-name="Ncaron" unicode="&#x147;" horiz-adv-x="1853" 
d="M174 1386h371l717 -768v768h417v-1386h-372l-719 772v-772h-414v1386zM530 1827h215l183 -187l180 187h215l-182 -346h-428z" />
    <glyph glyph-name="ncaron" unicode="&#x148;" horiz-adv-x="1302" 
d="M115 1018h360v-146q83 89 170 126.5t191 37.5q59 0 109 -12t85.5 -30t64 -47t46 -55.5t30 -64t18.5 -63t9 -62.5t3.5 -53t0.5 -42v-9v-598h-360v528v9v35.5t-3 39t-8 42.5t-16 38.5t-26.5 34.5t-39.5 22t-55 9q-29 0 -56.5 -9.5t-46.5 -22t-40 -33.5t-31 -34t-26 -35
t-19 -26v-598h-360v1018zM254 1499h215l182 -186l180 186h216l-183 -346h-428z" />
    <glyph glyph-name="napostrophe" unicode="&#x149;" horiz-adv-x="1734" 
d="M84 772v62q104 124 92 262q-35 16 -58.5 40t-32 50.5t-11 40.5t-2.5 26q0 72 52.5 117t119.5 45q76 0 138 -60.5t62 -174.5q0 -147 -101.5 -269t-258.5 -139zM547 1018h360v-146q83 89 170 126.5t191 37.5q59 0 109 -12t85.5 -30t64 -47t46 -55.5t30 -64t18.5 -63
t9 -62.5t3.5 -53t0.5 -42v-9v-598h-360v528v9v35.5t-3 39t-8 42.5t-16 38.5t-26.5 34.5t-39.5 22t-55 9q-29 0 -56.5 -9.5t-46.5 -22t-40 -33.5t-31 -34t-26 -35t-19 -26v-598h-360v1018z" />
    <glyph glyph-name="Eng" unicode="&#x14a;" horiz-adv-x="1812" 
d="M1659 713v-150q0 -136 -29.5 -239.5t-93 -181t-170.5 -118t-254 -40.5q-37 0 -123 8l19 303q25 -6 55 -6q24 0 51.5 12t57.5 38.5t49.5 79.5t19.5 124v178q0 78 -14.5 138.5t-48 111.5t-96.5 78.5t-154 27.5q-63 0 -116 -15t-86.5 -37t-62 -55t-43 -59.5t-28.5 -60.5
v-850h-418v1386h418v-182l36 36t40.5 36t53 40t61 33t77.5 30.5t89.5 17.5t109.5 8q161 0 278.5 -50.5t187 -145t102 -217.5t32.5 -279z" />
    <glyph glyph-name="eng" unicode="&#x14b;" horiz-adv-x="1302" 
d="M1202 598v-657q0 -92 -27 -167t-69 -121t-96 -77.5t-103.5 -44t-95.5 -12.5l-121 274q97 31 124.5 93.5t27.5 222.5v419v9v35.5t-3 39t-8 42.5t-16 38.5t-26.5 34.5t-39.5 22t-55 9q-29 0 -56.5 -9.5t-46.5 -22t-40 -33.5t-31 -34t-26 -35t-19 -26v-598h-360v1018h360
v-146q83 89 170 126.5t191 37.5q59 0 109 -12t85.5 -30t64 -47t46 -55.5t30 -64t18.5 -63t9 -62.5t3.5 -53t0.5 -42v-9z" />
    <glyph glyph-name="Omacron" unicode="&#x14c;" horiz-adv-x="1742" 
d="M1657 694q0 -145 -50.5 -272.5t-146 -226t-247.5 -156t-343 -57.5q-158 0 -289.5 40t-222 107.5t-153.5 159t-92 193.5t-29 212t29 211.5t92 193t153.5 159.5t222 107.5t289.5 39.5q154 0 284 -38t221.5 -104.5t156 -156.5t95 -194t30.5 -218zM510 694q0 -160 96.5 -258
t263.5 -98q170 0 265.5 98.5t95.5 257.5q0 158 -96 256.5t-265 98.5q-168 0 -264 -98t-96 -257zM1257 1503h-772v246h772v-246z" />
    <glyph glyph-name="omacron" unicode="&#x14d;" horiz-adv-x="1310" 
d="M655 1036q142 0 254.5 -40t184 -111.5t108.5 -166.5t37 -208t-37 -208t-108.5 -167t-184 -112.5t-254.5 -40.5t-254.5 40.5t-183.5 112.5t-108 167t-37 208t37 208t108 166.5t183.5 111.5t254.5 40zM655 768q-99 0 -151.5 -69t-52.5 -189t52.5 -190t151.5 -70t152 70
t53 190t-53 189t-152 69zM1040 1176h-772v245h772v-245z" />
    <glyph glyph-name="Obreve" unicode="&#x14e;" horiz-adv-x="1742" 
d="M1657 694q0 -145 -50.5 -272.5t-146 -226t-247.5 -156t-343 -57.5q-158 0 -289.5 40t-222 107.5t-153.5 159t-92 193.5t-29 212t29 211.5t92 193t153.5 159.5t222 107.5t289.5 39.5q154 0 284 -38t221.5 -104.5t156 -156.5t95 -194t30.5 -218zM510 694q0 -160 96.5 -258
t263.5 -98q170 0 265.5 98.5t95.5 257.5q0 158 -96 256.5t-265 98.5q-168 0 -264 -98t-96 -257zM494 1827h178q5 -12 6.5 -14t9.5 -18.5t15 -24.5t19.5 -23.5t27 -23.5t32.5 -18t41 -14.5t49 -4.5q30 0 56.5 6.5t44 14t34.5 23.5t25 24.5t18.5 28t12 23.5t8.5 21h178
q-18 -136 -124 -241t-255 -105q-145 0 -254.5 100t-121.5 246z" />
    <glyph glyph-name="obreve" unicode="&#x14f;" horiz-adv-x="1310" 
d="M655 1036q142 0 254.5 -40t184 -111.5t108.5 -166.5t37 -208t-37 -208t-108.5 -167t-184 -112.5t-254.5 -40.5t-254.5 40.5t-183.5 112.5t-108 167t-37 208t37 208t108 166.5t183.5 111.5t254.5 40zM655 768q-99 0 -151.5 -69t-52.5 -189t52.5 -190t151.5 -70t152 70
t53 190t-53 189t-152 69zM276 1499h179q5 -12 6.5 -14t9.5 -18.5t15 -24.5t19.5 -23.5t27 -23.5t32.5 -18t41 -14.5t49 -4.5q30 0 56.5 6.5t44 14t34.5 23.5t25 24.5t18.5 28t12 23.5t8.5 21h178q-18 -136 -124 -241t-255 -105q-145 0 -255 100t-122 246z" />
    <glyph glyph-name="Ohungarumlaut" unicode="&#x150;" horiz-adv-x="1742" 
d="M1657 694q0 -145 -50.5 -272.5t-146 -226t-247.5 -156t-343 -57.5q-158 0 -289.5 40t-222 107.5t-153.5 159t-92 193.5t-29 212t29 211.5t92 193t153.5 159.5t222 107.5t289.5 39.5q154 0 284 -38t221.5 -104.5t156 -156.5t95 -194t30.5 -218zM510 694q0 -160 96.5 -258
t263.5 -98q170 0 265.5 98.5t95.5 257.5q0 158 -96 256.5t-265 98.5q-168 0 -264 -98t-96 -257zM942 1481l172 317h389l-368 -317h-193zM461 1481l170 317h389l-369 -317h-190z" />
    <glyph glyph-name="ohungarumlaut" unicode="&#x151;" horiz-adv-x="1310" 
d="M655 1036q142 0 254.5 -40t184 -111.5t108.5 -166.5t37 -208t-37 -208t-108.5 -167t-184 -112.5t-254.5 -40.5t-254.5 40.5t-183.5 112.5t-108 167t-37 208t37 208t108 166.5t183.5 111.5t254.5 40zM655 768q-99 0 -151.5 -69t-52.5 -189t52.5 -190t151.5 -70t152 70
t53 190t-53 189t-152 69zM737 1153l172 317h389l-368 -317h-193zM256 1153l170 317h389l-369 -317h-190z" />
    <glyph glyph-name="OE" unicode="&#x152;" horiz-adv-x="2217" 
d="M2101 1108h-604v-254h565v-279h-565v-296h614v-279h-1208q-51 0 -84 1t-100.5 8t-120.5 20.5t-120.5 41.5t-125.5 68q-68 47 -119 109.5t-78.5 121.5t-44.5 126t-21.5 114.5t-4.5 94.5q0 148 55.5 289t182.5 237q50 38 106 66t119.5 44.5t112 26t119.5 13.5t103 4.5
t99 0.5h1120v-278zM1079 279v829h-69q-259 0 -379.5 -92.5t-120.5 -321.5t120.5 -322t379.5 -93h69z" />
    <glyph glyph-name="oe" unicode="&#x153;" horiz-adv-x="1923" 
d="M1862 492v-70h-674q5 -55 32.5 -96.5t61 -62.5t76 -33.5t68.5 -15.5t47 -3q73 0 155.5 21.5t115.5 36t93 42.5v-227q-69 -30 -115.5 -47t-141 -36t-189.5 -19q-125 0 -204 26t-151 76q-35 -24 -56.5 -36t-66.5 -30.5t-106 -27t-139 -8.5q-148 0 -264.5 41t-187.5 112.5
t-107.5 163.5t-36.5 199q0 117 37.5 215t108.5 170.5t181 112.5t248 40q73 0 135 -9.5t109 -27t70 -28.5t53 -29q53 30 85 45.5t100 32t144 16.5t147 -16.5t140 -56.5t119.5 -100.5t81.5 -155.5t31 -215zM1184 600h358q-29 213 -188 213q-170 0 -170 -213zM655 768
q-94 0 -149 -65.5t-55 -192.5q0 -52 11 -97t34.5 -82.5t64 -59t94.5 -21.5q89 0 147 66t58 194q0 126 -54.5 192t-150.5 66z" />
    <glyph glyph-name="Racute" unicode="&#x154;" horiz-adv-x="1531" 
d="M174 1386h711q107 0 193.5 -30t140 -76t90 -105t51 -113.5t14.5 -105.5q0 -67 -19.5 -124.5t-42.5 -90.5t-62 -65t-56 -41.5t-47 -24.5q36 -22 54.5 -36t47 -46.5t58 -86.5t69.5 -140l140 -301h-449l-109 246q-30 69 -57 118.5t-53 82t-48 51.5t-50.5 28.5t-51.5 12
t-59 2.5h-47v-541h-418v1386zM680 1120h-88v-334h90q152 0 209 33.5t57 128.5t-63 133.5t-205 38.5zM520 1481l172 317h389l-368 -317h-193z" />
    <glyph glyph-name="racute" unicode="&#x155;" horiz-adv-x="1009" 
d="M113 1018h360v-246q14 38 40.5 80t66.5 85t97 71t118 28q44 0 85 -11.5t65.5 -24t64.5 -37.5l-133 -361q-81 78 -166 78q-75 0 -131 -51.5t-107 -190.5v-438h-360v1018zM346 1153l172 317h389l-368 -317h-193z" />
    <glyph glyph-name="Rcommaaccent" unicode="&#x156;" horiz-adv-x="1531" 
d="M174 1386h711q107 0 193.5 -30t140 -76t90 -105t51 -113.5t14.5 -105.5q0 -67 -19.5 -124.5t-42.5 -90.5t-62 -65t-56 -41.5t-47 -24.5q36 -22 54.5 -36t47 -46.5t58 -86.5t69.5 -140l140 -301h-449l-109 246q-30 69 -57 118.5t-53 82t-48 51.5t-50.5 28.5t-51.5 12
t-59 2.5h-47v-541h-418v1386zM680 1120h-88v-334h90q152 0 209 33.5t57 128.5t-63 133.5t-205 38.5zM559 -463v117q18 -2 53 -2q89 0 122.5 14.5t33.5 50.5q0 34 -46 45t-128 11l10 112h123q92 0 155.5 -8.5t113.5 -29.5t74 -59.5t24 -96.5q0 -89 -89 -137t-239 -48
q-90 0 -207 31z" />
    <glyph glyph-name="rcommaaccent" unicode="&#x157;" horiz-adv-x="1009" 
d="M113 1018h360v-246q14 38 40.5 80t66.5 85t97 71t118 28q44 0 85 -11.5t65.5 -24t64.5 -37.5l-133 -361q-81 78 -166 78q-75 0 -131 -51.5t-107 -190.5v-438h-360v1018zM131 -360v116q74 -4 111 0.5t45 13t8 25.5q0 16 -22.5 29.5t-65.5 13.5v101q100 0 166.5 -11
t100 -32.5t46 -47t12.5 -61.5q0 -69 -64.5 -118.5t-170.5 -49.5q-76 0 -166 21z" />
    <glyph glyph-name="Rcaron" unicode="&#x158;" horiz-adv-x="1531" 
d="M174 1386h711q107 0 193.5 -30t140 -76t90 -105t51 -113.5t14.5 -105.5q0 -67 -19.5 -124.5t-42.5 -90.5t-62 -65t-56 -41.5t-47 -24.5q36 -22 54.5 -36t47 -46.5t58 -86.5t69.5 -140l140 -301h-449l-109 246q-30 69 -57 118.5t-53 82t-48 51.5t-50.5 28.5t-51.5 12
t-59 2.5h-47v-541h-418v1386zM680 1120h-88v-334h90q152 0 209 33.5t57 128.5t-63 133.5t-205 38.5zM297 1827h215l182 -187l180 187h216l-183 -346h-428z" />
    <glyph glyph-name="rcaron" unicode="&#x159;" horiz-adv-x="1009" 
d="M113 1018h360v-246q14 38 40.5 80t66.5 85t97 71t118 28q44 0 85 -11.5t65.5 -24t64.5 -37.5l-133 -361q-81 78 -166 78q-75 0 -131 -51.5t-107 -190.5v-438h-360v1018zM109 1499h215l182 -186l180 186h215l-182 -346h-428z" />
    <glyph glyph-name="Sacute" unicode="&#x15a;" horiz-adv-x="1253" 
d="M1083 1288v-325q-228 157 -413 157q-79 0 -113.5 -30.5t-34.5 -73.5q0 -41 34.5 -71t125.5 -73q55 -26 89 -43t79.5 -41t74 -42.5t63 -43.5t55 -47.5t42 -51.5t32.5 -58.5t18.5 -65.5t7.5 -76q0 -195 -146 -308t-379 -113q-235 0 -487 110v340q44 -28 76.5 -46
t92.5 -46.5t125 -43.5t130 -15q47 0 81 9.5t50.5 22t26 29t11 25t1.5 16.5q0 29 -15.5 54t-49 47t-64 37t-82.5 36q-66 28 -117 54.5t-105.5 67t-90.5 85t-59 106.5t-23 134q0 82 30.5 153.5t90 127.5t157 88t221.5 32q90 0 175.5 -15t146 -37.5t92.5 -37.5t51 -27z
M408 1481l172 317h389l-369 -317h-192z" />
    <glyph glyph-name="sacute" unicode="&#x15b;" horiz-adv-x="991" 
d="M858 954v-249q-3 2 -25.5 15t-38 22t-45 22.5t-56 21.5t-61.5 14.5t-69 6.5q-33 0 -56 -8.5t-33.5 -21t-14.5 -23t-4 -19.5q0 -17 6.5 -29t36.5 -30.5t88 -40.5q182 -70 253.5 -145t71.5 -193q0 -139 -102.5 -227t-304.5 -88q-113 0 -203.5 21t-189.5 58v256
q55 -32 87.5 -49t96 -37t121.5 -20q57 0 96 17.5t39 56.5q0 36 -42 63t-175 84q-45 19 -84 45t-76 62t-58.5 86t-21.5 106q0 55 25.5 108t74.5 97.5t130.5 72t183.5 27.5q190 0 350 -82zM317 1153l172 317h390l-369 -317h-193z" />
    <glyph glyph-name="Scircumflex" unicode="&#x15c;" horiz-adv-x="1253" 
d="M1083 1288v-325q-228 157 -413 157q-79 0 -113.5 -30.5t-34.5 -73.5q0 -41 34.5 -71t125.5 -73q55 -26 89 -43t79.5 -41t74 -42.5t63 -43.5t55 -47.5t42 -51.5t32.5 -58.5t18.5 -65.5t7.5 -76q0 -195 -146 -308t-379 -113q-235 0 -487 110v340q44 -28 76.5 -46
t92.5 -46.5t125 -43.5t130 -15q47 0 81 9.5t50.5 22t26 29t11 25t1.5 16.5q0 29 -15.5 54t-49 47t-64 37t-82.5 36q-66 28 -117 54.5t-105.5 67t-90.5 85t-59 106.5t-23 134q0 82 30.5 153.5t90 127.5t157 88t221.5 32q90 0 175.5 -15t146 -37.5t92.5 -37.5t51 -27z
M1022 1481h-215l-180 184l-183 -184h-215l183 346h428z" />
    <glyph glyph-name="scircumflex" unicode="&#x15d;" horiz-adv-x="991" 
d="M858 954v-249q-3 2 -25.5 15t-38 22t-45 22.5t-56 21.5t-61.5 14.5t-69 6.5q-33 0 -56 -8.5t-33.5 -21t-14.5 -23t-4 -19.5q0 -17 6.5 -29t36.5 -30.5t88 -40.5q182 -70 253.5 -145t71.5 -193q0 -139 -102.5 -227t-304.5 -88q-113 0 -203.5 21t-189.5 58v256
q55 -32 87.5 -49t96 -37t121.5 -20q57 0 96 17.5t39 56.5q0 36 -42 63t-175 84q-45 19 -84 45t-76 62t-58.5 86t-21.5 106q0 55 25.5 108t74.5 97.5t130.5 72t183.5 27.5q190 0 350 -82zM891 1153h-215l-180 184l-183 -184h-215l183 346h428z" />
    <glyph glyph-name="uni015E" unicode="&#x15e;" horiz-adv-x="1253" 
d="M1083 1288v-325q-228 157 -413 157q-79 0 -113.5 -30.5t-34.5 -73.5q0 -41 34.5 -71t125.5 -73q55 -26 89 -43t79.5 -41t74 -42.5t63 -43.5t55 -47.5t42 -51.5t32.5 -58.5t18.5 -65.5t7.5 -76q0 -169 -111.5 -277.5t-298.5 -135.5l-22 -49q82 -20 126 -64.5t44 -107.5
q0 -86 -80.5 -142.5t-249.5 -56.5h-197v137q43 0 74.5 3t62 10.5t46.5 24.5t16 42q0 31 -22 45.5t-74 17.5l96 134q-214 15 -422 108v340q44 -28 76.5 -46t92.5 -46.5t125 -43.5t130 -15q47 0 81 9.5t50.5 22t26 29t11 25t1.5 16.5q0 29 -15.5 54t-49 47t-64 37t-82.5 36
q-66 28 -117 54.5t-105.5 67t-90.5 85t-59 106.5t-23 134q0 82 30.5 153.5t90 127.5t157 88t221.5 32q90 0 175.5 -15t146 -37.5t92.5 -37.5t51 -27z" />
    <glyph glyph-name="uni015F" unicode="&#x15f;" horiz-adv-x="991" 
d="M858 954v-249q-3 2 -25.5 15t-38 22t-45 22.5t-56 21.5t-61.5 14.5t-69 6.5q-33 0 -56 -8.5t-33.5 -21t-14.5 -23t-4 -19.5q0 -17 6.5 -29t36.5 -30.5t88 -40.5q182 -70 253.5 -145t71.5 -193q0 -128 -86.5 -214t-257.5 -99l-20 -43q82 -20 126 -64.5t44 -107.5
q0 -86 -80.5 -142.5t-249.5 -56.5h-197v137q43 0 74.5 3t62 10.5t46.5 24.5t16 42q0 31 -22 45.5t-74 17.5l100 138q-129 14 -282 73v256q55 -32 87.5 -49t96 -37t121.5 -20q57 0 96 17.5t39 56.5q0 36 -42 63t-175 84q-45 19 -84 45t-76 62t-58.5 86t-21.5 106
q0 55 25.5 108t74.5 97.5t130.5 72t183.5 27.5q190 0 350 -82z" />
    <glyph glyph-name="Scaron" unicode="&#x160;" horiz-adv-x="1253" 
d="M1083 1288v-325q-228 157 -413 157q-79 0 -113.5 -30.5t-34.5 -73.5q0 -41 34.5 -71t125.5 -73q55 -26 89 -43t79.5 -41t74 -42.5t63 -43.5t55 -47.5t42 -51.5t32.5 -58.5t18.5 -65.5t7.5 -76q0 -195 -146 -308t-379 -113q-235 0 -487 110v340q44 -28 76.5 -46
t92.5 -46.5t125 -43.5t130 -15q47 0 81 9.5t50.5 22t26 29t11 25t1.5 16.5q0 29 -15.5 54t-49 47t-64 37t-82.5 36q-66 28 -117 54.5t-105.5 67t-90.5 85t-59 106.5t-23 134q0 82 30.5 153.5t90 127.5t157 88t221.5 32q90 0 175.5 -15t146 -37.5t92.5 -37.5t51 -27z
M231 1827h215l183 -187l180 187h215l-182 -346h-428z" />
    <glyph glyph-name="scaron" unicode="&#x161;" horiz-adv-x="991" 
d="M858 954v-249q-3 2 -25.5 15t-38 22t-45 22.5t-56 21.5t-61.5 14.5t-69 6.5q-33 0 -56 -8.5t-33.5 -21t-14.5 -23t-4 -19.5q0 -17 6.5 -29t36.5 -30.5t88 -40.5q182 -70 253.5 -145t71.5 -193q0 -139 -102.5 -227t-304.5 -88q-113 0 -203.5 21t-189.5 58v256
q55 -32 87.5 -49t96 -37t121.5 -20q57 0 96 17.5t39 56.5q0 36 -42 63t-175 84q-45 19 -84 45t-76 62t-58.5 86t-21.5 106q0 55 25.5 108t74.5 97.5t130.5 72t183.5 27.5q190 0 350 -82zM100 1499h215l183 -186l180 186h215l-182 -346h-428z" />
    <glyph glyph-name="uni021A" unicode="&#x162;" horiz-adv-x="1572" 
d="M70 1386h1433v-337h-508v-1049h-417v1049h-508v337zM508 -463v117q18 -2 53 -2q89 0 122.5 14.5t33.5 50.5q0 34 -46 45t-128 11l10 112h123q187 0 276.5 -41t89.5 -153q0 -89 -88.5 -137t-238.5 -48q-90 0 -207 31z" />
    <glyph glyph-name="uni021A" unicode="&#x21a;" horiz-adv-x="1572" 
d="M70 1386h1433v-337h-508v-1049h-417v1049h-508v337zM508 -463v117q18 -2 53 -2q89 0 122.5 14.5t33.5 50.5q0 34 -46 45t-128 11l10 112h123q187 0 276.5 -41t89.5 -153q0 -89 -88.5 -137t-238.5 -48q-90 0 -207 31z" />
    <glyph glyph-name="uni021B" unicode="&#x163;" horiz-adv-x="960" 
d="M891 1018v-250h-344v-326q0 -25 0.5 -37.5t3 -34t8 -33.5t16 -27t25.5 -23t38.5 -13.5t53.5 -5.5q53 0 104 18t122 54v-281q-57 -29 -155 -53t-188 -24q-389 0 -389 380v406h-163v63l483 492h41v-305h344zM387 -360v116q74 -4 111 0.5t45 13t8 25.5q0 16 -22.5 29.5
t-65.5 13.5v101q100 0 166.5 -11t100 -32.5t46 -47t12.5 -61.5q0 -69 -64.5 -118.5t-170.5 -49.5q-76 0 -166 21z" />
    <glyph glyph-name="uni021B" unicode="&#x21b;" horiz-adv-x="960" 
d="M891 1018v-250h-344v-326q0 -25 0.5 -37.5t3 -34t8 -33.5t16 -27t25.5 -23t38.5 -13.5t53.5 -5.5q53 0 104 18t122 54v-281q-57 -29 -155 -53t-188 -24q-389 0 -389 380v406h-163v63l483 492h41v-305h344zM387 -360v116q74 -4 111 0.5t45 13t8 25.5q0 16 -22.5 29.5
t-65.5 13.5v101q100 0 166.5 -11t100 -32.5t46 -47t12.5 -61.5q0 -69 -64.5 -118.5t-170.5 -49.5q-76 0 -166 21z" />
    <glyph glyph-name="Tcaron" unicode="&#x164;" horiz-adv-x="1572" 
d="M70 1386h1433v-337h-508v-1049h-417v1049h-508v337zM389 1827h215l182 -187l181 187h215l-183 -346h-428z" />
    <glyph glyph-name="tcaron" unicode="&#x165;" horiz-adv-x="1378" 
d="M891 1018v-250h-344v-326q0 -25 0.5 -37.5t3 -34t8 -33.5t16 -27t25.5 -23t38.5 -13.5t53.5 -5.5q53 0 104 18t122 54v-281q-57 -29 -155 -53t-188 -24q-389 0 -389 380v406h-163v63l483 492h41v-305h344zM952 719v57q152 57 144 260q-144 43 -144 178q0 76 56 133.5
t139 57.5q47 0 86.5 -17.5t66 -46t45 -66t27 -77.5t8.5 -80q0 -49 -14 -97.5t-46.5 -98t-80.5 -89.5t-122 -71t-165 -43z" />
    <glyph glyph-name="Tbar" unicode="&#x166;" horiz-adv-x="1572" 
d="M70 1386h1433v-337h-508v-428h353v-215h-353v-406h-417v406h-373v215h373v428h-508v337z" />
    <glyph glyph-name="tbar" unicode="&#x167;" horiz-adv-x="960" 
d="M891 449h-344v-7q0 -25 0.5 -37.5t3 -34t8 -33.5t16 -27t25.5 -23t38.5 -13.5t53.5 -5.5q53 0 104 18t122 54v-281q-57 -29 -155 -53t-188 -24q-389 0 -389 380v87h-163v169h163v150h-163v63l483 492h41v-305h344v-250h-344v-150h344v-169z" />
    <glyph glyph-name="Utilde" unicode="&#x168;" horiz-adv-x="1771" 
d="M154 1386h417v-657q0 -205 85.5 -302t230.5 -97q143 0 228 96t85 301v659h418v-765q0 -144 -47 -258t-121 -183.5t-173 -115.5t-195 -64t-195 -18q-69 0 -138 9t-142.5 30.5t-138 54.5t-123 84t-100.5 115.5t-66.5 153t-24.5 192.5v765zM1120 1800h162
q0 -152 -63.5 -235.5t-171.5 -83.5q-55 0 -171 43t-145 43q-40 0 -59 -25.5t-23 -60.5h-160q0 82 22.5 146.5t58.5 100.5t75.5 54t77.5 18q43 0 174 -43q115 -45 145 -45q38 0 58 27.5t20 60.5z" />
    <glyph glyph-name="utilde" unicode="&#x169;" horiz-adv-x="1302" 
d="M1188 0h-361v145q-75 -81 -159.5 -122t-200.5 -41q-59 0 -109.5 12t-86 30t-63.5 47t-46 55.5t-30.5 64t-18.5 63.5t-9 62.5t-3.5 53t-0.5 42.5v8v598h361v-529v-10q0 -32 0.5 -51.5t8.5 -55.5t22 -57t44 -38t72 -17q22 0 43.5 5.5t38.5 13.5t34.5 22t28.5 24t25.5 27.5
t20 25.5t16.5 24.5t12 17.5v598h361v-1018zM885 1473h162q0 -152 -64 -236t-172 -84q-55 0 -171 43t-144 43q-40 0 -59 -25.5t-23 -60.5h-160q0 82 22.5 146.5t58.5 101t75 54.5t77 18q44 0 175 -43q118 -46 145 -46q38 0 58 28t20 61z" />
    <glyph glyph-name="Umacron" unicode="&#x16a;" horiz-adv-x="1771" 
d="M154 1386h417v-657q0 -205 85.5 -302t230.5 -97q143 0 228 96t85 301v659h418v-765q0 -144 -47 -258t-121 -183.5t-173 -115.5t-195 -64t-195 -18q-69 0 -138 9t-142.5 30.5t-138 54.5t-123 84t-100.5 115.5t-66.5 153t-24.5 192.5v765zM1272 1503h-772v246h772v-246z
" />
    <glyph glyph-name="umacron" unicode="&#x16b;" horiz-adv-x="1302" 
d="M1188 0h-361v145q-75 -81 -159.5 -122t-200.5 -41q-59 0 -109.5 12t-86 30t-63.5 47t-46 55.5t-30.5 64t-18.5 63.5t-9 62.5t-3.5 53t-0.5 42.5v8v598h361v-529v-10q0 -32 0.5 -51.5t8.5 -55.5t22 -57t44 -38t72 -17q22 0 43.5 5.5t38.5 13.5t34.5 22t28.5 24t25.5 27.5
t20 25.5t16.5 24.5t12 17.5v598h361v-1018zM1036 1176h-772v245h772v-245z" />
    <glyph glyph-name="Ubreve" unicode="&#x16c;" horiz-adv-x="1771" 
d="M154 1386h417v-657q0 -205 85.5 -302t230.5 -97q143 0 228 96t85 301v659h418v-765q0 -144 -47 -258t-121 -183.5t-173 -115.5t-195 -64t-195 -18q-69 0 -138 9t-142.5 30.5t-138 54.5t-123 84t-100.5 115.5t-66.5 153t-24.5 192.5v765zM508 1827h178q7 -17 12 -26
t23 -34t37.5 -40t54 -28t74.5 -13q30 0 56.5 6.5t44 14t34.5 23.5t24.5 24t18 28.5t12 23.5t8.5 21h179q-18 -136 -124 -241t-255 -105q-145 0 -255 100t-122 246z" />
    <glyph glyph-name="ubreve" unicode="&#x16d;" horiz-adv-x="1302" 
d="M1188 0h-361v145q-75 -81 -159.5 -122t-200.5 -41q-59 0 -109.5 12t-86 30t-63.5 47t-46 55.5t-30.5 64t-18.5 63.5t-9 62.5t-3.5 53t-0.5 42.5v8v598h361v-529v-10q0 -32 0.5 -51.5t8.5 -55.5t22 -57t44 -38t72 -17q22 0 43.5 5.5t38.5 13.5t34.5 22t28.5 24t25.5 27.5
t20 25.5t16.5 24.5t12 17.5v598h361v-1018zM272 1499h179q5 -12 6.5 -14t9.5 -18.5t15 -24.5t19.5 -23.5t27 -23.5t32.5 -18t41 -14.5t49 -4.5q30 0 56.5 6.5t44 14t34.5 23.5t25 24.5t18.5 28t12 23.5t8.5 21h178q-18 -136 -124 -241t-255 -105q-145 0 -255 100t-122 246z
" />
    <glyph glyph-name="Uring" unicode="&#x16e;" horiz-adv-x="1771" 
d="M154 1386h417v-657q0 -205 85.5 -302t230.5 -97q143 0 228 96t85 301v659h418v-765q0 -144 -47 -258t-121 -183.5t-173 -115.5t-195 -64t-195 -18q-69 0 -138 9t-142.5 30.5t-138 54.5t-123 84t-100.5 115.5t-66.5 153t-24.5 192.5v765zM885 1890q87 0 147 -59t60 -145
t-60.5 -146.5t-146.5 -60.5t-145.5 60.5t-59.5 146.5t59.5 145t145.5 59zM885 1792q-44 0 -75.5 -31t-31.5 -75t31.5 -76.5t75.5 -32.5t76 32.5t32 76.5t-32 75t-76 31z" />
    <glyph glyph-name="uring" unicode="&#x16f;" horiz-adv-x="1302" 
d="M1188 0h-361v145q-75 -81 -159.5 -122t-200.5 -41q-59 0 -109.5 12t-86 30t-63.5 47t-46 55.5t-30.5 64t-18.5 63.5t-9 62.5t-3.5 53t-0.5 42.5v8v598h361v-529v-10q0 -32 0.5 -51.5t8.5 -55.5t22 -57t44 -38t72 -17q22 0 43.5 5.5t38.5 13.5t34.5 22t28.5 24t25.5 27.5
t20 25.5t16.5 24.5t12 17.5v598h361v-1018zM649 1563q86 0 146.5 -59.5t60.5 -145.5t-60.5 -146.5t-146.5 -60.5t-145.5 60.5t-59.5 146.5t59.5 145.5t145.5 59.5zM649 1464q-44 0 -75 -31t-31 -75q0 -45 31 -77t75 -32t76.5 32.5t32.5 76.5t-32 75t-77 31z" />
    <glyph glyph-name="Uhungarumlaut" unicode="&#x170;" horiz-adv-x="1771" 
d="M154 1386h417v-657q0 -205 85.5 -302t230.5 -97q143 0 228 96t85 301v659h418v-765q0 -144 -47 -258t-121 -183.5t-173 -115.5t-195 -64t-195 -18q-69 0 -138 9t-142.5 30.5t-138 54.5t-123 84t-100.5 115.5t-66.5 153t-24.5 192.5v765zM969 1481l172 317h389l-369 -317
h-192zM487 1481l170 317h390l-369 -317h-191z" />
    <glyph glyph-name="uhungarumlaut" unicode="&#x171;" horiz-adv-x="1302" 
d="M1188 0h-361v145q-75 -81 -159.5 -122t-200.5 -41q-59 0 -109.5 12t-86 30t-63.5 47t-46 55.5t-30.5 64t-18.5 63.5t-9 62.5t-3.5 53t-0.5 42.5v8v598h361v-529v-10q0 -32 0.5 -51.5t8.5 -55.5t22 -57t44 -38t72 -17q22 0 43.5 5.5t38.5 13.5t34.5 22t28.5 24t25.5 27.5
t20 25.5t16.5 24.5t12 17.5v598h361v-1018zM733 1153l172 317h389l-368 -317h-193zM252 1153l170 317h389l-369 -317h-190z" />
    <glyph glyph-name="Uogonek" unicode="&#x172;" horiz-adv-x="1771" 
d="M154 1386h417v-657q0 -205 85.5 -302t230.5 -97q143 0 228 96t85 301v659h418v-765q0 -132 -39.5 -239t-103 -176t-150 -117.5t-173.5 -72t-181 -30.5q-8 -36 -8 -70q0 -67 49.5 -104t115.5 -37q15 0 29.5 1.5t24 3t10.5 1.5v-184q-68 -25 -197 -25q-100 0 -168.5 66
t-68.5 161q0 96 24 189q-93 9 -177.5 33t-168.5 73.5t-145 118.5t-99 174t-38 234v765z" />
    <glyph glyph-name="uogonek" unicode="&#x173;" horiz-adv-x="1302" 
d="M1188 0h-103q-22 -49 -22 -102q0 -36 34.5 -67.5t84.5 -31.5q44 0 88 15v-172q-84 -41 -178 -41t-156 62.5t-62 172.5q0 91 41 164h-88v145q-75 -81 -159.5 -122t-200.5 -41q-59 0 -109.5 12t-86 30t-63.5 47t-46 55.5t-30.5 64t-18.5 63.5t-9 62.5t-3.5 53t-0.5 42.5v8
v598h361v-529v-10q0 -32 0.5 -51.5t8.5 -55.5t22 -57t44 -38t72 -17q22 0 43.5 5.5t38.5 13.5t34.5 22t28.5 24t25.5 27.5t20 25.5t16.5 24.5t12 17.5v598h361v-1018z" />
    <glyph glyph-name="Wcircumflex" unicode="&#x174;" horiz-adv-x="2437" 
d="M16 1386h433l288 -768l330 768h299l324 -768l301 768h428l-600 -1404h-242l-360 817l-369 -817h-244zM1614 1481h-215l-180 184l-183 -184h-215l183 346h428z" />
    <glyph glyph-name="wcircumflex" unicode="&#x175;" horiz-adv-x="1748" 
d="M14 1018h365l186 -514l199 514h229l201 -514l180 514h361l-402 -1018h-227l-227 555l-226 -555h-227zM1270 1153h-215l-181 184l-182 -184h-215l182 346h428z" />
    <glyph glyph-name="Ycircumflex" unicode="&#x176;" horiz-adv-x="1538" 
d="M12 1386h434l318 -436l319 436h443l-543 -751v-635h-418v627zM1165 1481h-215l-180 184l-182 -184h-215l182 346h428z" />
    <glyph glyph-name="ycircumflex" unicode="&#x177;" horiz-adv-x="1193" 
d="M27 1018h387l207 -506l235 506h350l-692 -1481h-364l280 596zM993 1153h-215l-180 184l-182 -184h-215l182 346h428z" />
    <glyph glyph-name="Ydieresis" unicode="&#x178;" horiz-adv-x="1538" 
d="M12 1386h434l318 -436l319 436h443l-543 -751v-635h-418v627zM377 1618q0 56 39.5 96.5t97.5 40.5t97.5 -40.5t39.5 -96.5q0 -57 -39.5 -97t-97.5 -40t-97.5 40.5t-39.5 96.5zM887 1618q0 57 39 97t98 40q58 0 97.5 -40.5t39.5 -96.5q0 -57 -39.5 -97t-97.5 -40
q-59 0 -98 40t-39 97z" />
    <glyph glyph-name="Zacute" unicode="&#x179;" horiz-adv-x="1492" 
d="M1446 0h-1407l717 1055h-658v331h1348l-715 -1054h715v-332zM526 1481l172 317h389l-368 -317h-193z" />
    <glyph glyph-name="zacute" unicode="&#x17a;" horiz-adv-x="1130" 
d="M70 752v266h1013v-33l-487 -719h477v-266h-1044v33l487 719h-446zM346 1153l172 317h389l-368 -317h-193z" />
    <glyph glyph-name="Zdotaccent" unicode="&#x17b;" horiz-adv-x="1492" 
d="M1446 0h-1407l717 1055h-658v331h1348l-715 -1054h715v-332zM608 1618q0 56 39.5 96.5t97.5 40.5t98 -40.5t40 -96.5q0 -57 -40 -97t-98 -40t-97.5 40.5t-39.5 96.5z" />
    <glyph glyph-name="zdotaccent" unicode="&#x17c;" horiz-adv-x="1130" 
d="M70 752v266h1013v-33l-487 -719h477v-266h-1044v33l487 719h-446zM428 1290q0 56 39.5 96.5t97.5 40.5t97.5 -40.5t39.5 -96.5q0 -57 -39.5 -97t-97.5 -40t-97.5 40.5t-39.5 96.5z" />
    <glyph glyph-name="Zcaron" unicode="&#x17d;" horiz-adv-x="1492" 
d="M1446 0h-1407l717 1055h-658v331h1348l-715 -1054h715v-332zM350 1827h215l183 -187l180 187h215l-182 -346h-429z" />
    <glyph glyph-name="zcaron" unicode="&#x17e;" horiz-adv-x="1130" 
d="M70 752v266h1013v-33l-487 -719h477v-266h-1044v33l487 719h-446zM170 1499h215l182 -186l181 186h215l-183 -346h-428z" />
    <glyph glyph-name="uni018f" unicode="&#x18f;" horiz-adv-x="1742" 
d="M793 1083q-153 0 -275 -32.5t-194 -77.5v309q238 123 546 123q154 0 284 -38t221.5 -104.5t156 -156.5t95 -194t30.5 -218q0 -145 -50.5 -272.5t-146 -226t-247.5 -156t-343 -57.5q-158 0 -289.5 40t-222 107.5t-153.5 159t-92 193.5t-29 212q0 90 22 183h1068
q-58 91 -161.5 148.5t-219.5 57.5zM870 338q123 0 208.5 54t123.5 149h-665q37 -95 123.5 -149t209.5 -54z" />
    <glyph glyph-name="florin" unicode="&#x192;" horiz-adv-x="1216" 
d="M-33 -434l39 254q56 -17 121 -17q95 0 132 51.5t58 194.5l95 656h-232l37 243h232q22 152 60 232q106 224 396 225q82 0 219 -27l-34 -250q-90 11 -119 11q-35 0 -59 -5t-53.5 -22.5t-49 -58.5t-29.5 -105h228l-39 -243h-224l-118 -811q-13 -91 -52.5 -156.5
t-109.5 -118.5q-107 -82 -264 -82q-87 0 -234 29z" />
    <glyph glyph-name="AEacute" unicode="&#x1fc;" horiz-adv-x="2279" 
d="M887 1386h1272v-278h-605v-254h570v-279h-570v-296h619v-279h-1036v516h-400l-303 -516h-424zM1137 756v436l-256 -436h256zM1268 1481l172 317h389l-369 -317h-192z" />
    <glyph glyph-name="aeacute" unicode="&#x1fd;" horiz-adv-x="1708" 
d="M106 627v270q49 29 81.5 45.5t92.5 42t126.5 38.5t138.5 13q76 0 144 -16.5t100.5 -32t76.5 -41.5q33 24 59 39t89.5 33t136.5 18q75 0 145.5 -19.5t134.5 -62t111.5 -104.5t76 -153.5t28.5 -202.5v-72h-656q3 -53 29 -93t59 -61.5t74.5 -35t70 -17.5t50.5 -4
q145 0 350 104v-229q-240 -104 -448 -104q-236 0 -418 129q-189 -129 -400 -129q-134 0 -210 77t-76 181q0 36 9.5 68.5t23.5 58t39 50t45.5 41t54.5 34t55 27.5t57 22.5t51 17.5t46 14q152 46 204 68q0 40 -2.5 63.5t-11 45.5t-24.5 33t-42.5 17.5t-66.5 6.5
q-119 0 -212.5 -47.5t-191.5 -132.5zM657 238v247q-60 -28 -84 -40t-61 -34t-50.5 -37.5t-24.5 -38.5t-11 -50q0 -38 21.5 -73.5t70.5 -35.5q72 0 139 62zM985 600h326q-1 28 -5 53t-15 56t-27.5 53t-46 37.5t-68.5 15.5q-74 0 -118.5 -54.5t-45.5 -160.5zM635 1153l172 317
h389l-369 -317h-192z" />
    <glyph glyph-name="Oslashacute" unicode="&#x1fe;" horiz-adv-x="1742" 
d="M399 102l-188 -182l-117 121l176 168q-186 202 -186 485q0 110 29 211.5t92 193t153.5 159.5t222 107.5t289.5 39.5q298 0 498 -137l164 155l117 -118l-156 -150q164 -181 164 -461q0 -110 -29 -212t-92 -193.5t-153.5 -159t-222.5 -107.5t-290 -40q-284 0 -471 120z
M1194 868l-508 -489q78 -41 186 -41q167 0 263 99.5t96 254.5q0 104 -37 176zM563 492l520 501q-86 56 -213 56q-171 0 -265.5 -100.5t-94.5 -252.5q0 -117 53 -204zM696 1481l172 317h389l-368 -317h-193z" />
    <glyph glyph-name="oslashacute" unicode="&#x1ff;" horiz-adv-x="1310" 
d="M987 963l141 155l86 -78l-131 -147q156 -147 156 -383q0 -71 -17 -141t-60 -141t-106.5 -124.5t-165 -87.5t-228.5 -34q-203 0 -338 75l-142 -157l-86 75l133 150q-39 39 -57 61q-100 124 -100 318q0 82 21 158t66.5 144.5t112 119.5t164.5 80.5t217 29.5q201 0 334 -73z
M469 387l309 344q-49 41 -119 41q-56 0 -97.5 -21.5t-65 -59.5t-34.5 -83.5t-11 -99.5q0 -66 18 -121zM844 631l-309 -342q56 -43 122 -43q35 0 67.5 12t64.5 40t51.5 85t19.5 135q0 70 -16 113zM481 1153l172 317h389l-368 -317h-193z" />
    <glyph glyph-name="uni0218" unicode="&#x218;" horiz-adv-x="1253" 
d="M1083 1288v-325q-228 157 -413 157q-79 0 -113.5 -30.5t-34.5 -73.5q0 -41 34.5 -71t125.5 -73q55 -26 89 -43t79.5 -41t74 -42.5t63 -43.5t55 -47.5t42 -51.5t32.5 -58.5t18.5 -65.5t7.5 -76q0 -195 -146 -308t-379 -113q-235 0 -487 110v340q44 -28 76.5 -46
t92.5 -46.5t125 -43.5t130 -15q47 0 81 9.5t50.5 22t26 29t11 25t1.5 16.5q0 29 -15.5 54t-49 47t-64 37t-82.5 36q-66 28 -117 54.5t-105.5 67t-90.5 85t-59 106.5t-23 134q0 82 30.5 153.5t90 127.5t157 88t221.5 32q90 0 175.5 -15t146 -37.5t92.5 -37.5t51 -27z
M358 -463v117q18 -2 54 -2q89 0 122 14.5t33 50.5q0 34 -46 45t-128 11l10 112h123q92 0 155.5 -8.5t113.5 -29.5t74 -59.5t24 -96.5q0 -89 -89 -137t-239 -48q-90 0 -207 31z" />
    <glyph glyph-name="uni0219" unicode="&#x219;" horiz-adv-x="991" 
d="M858 954v-249q-3 2 -25.5 15t-38 22t-45 22.5t-56 21.5t-61.5 14.5t-69 6.5q-33 0 -56 -8.5t-33.5 -21t-14.5 -23t-4 -19.5q0 -17 6.5 -29t36.5 -30.5t88 -40.5q182 -70 253.5 -145t71.5 -193q0 -139 -102.5 -227t-304.5 -88q-113 0 -203.5 21t-189.5 58v256
q55 -32 87.5 -49t96 -37t121.5 -20q57 0 96 17.5t39 56.5q0 36 -42 63t-175 84q-45 19 -84 45t-76 62t-58.5 86t-21.5 106q0 55 25.5 108t74.5 97.5t130.5 72t183.5 27.5q190 0 350 -82zM307 -360v116q74 -4 111 0.5t45 13t8 25.5q0 16 -22.5 29.5t-65.5 13.5v101
q100 0 166.5 -11t100.5 -32.5t46.5 -47t12.5 -61.5q0 -69 -65 -118.5t-171 -49.5q-76 0 -166 21z" />
    <glyph glyph-name="uni0259" unicode="&#x259;" horiz-adv-x="1220" 
d="M72 524v72h737q-20 94 -102 152.5t-187 58.5q-82 0 -147 -24t-152 -78v223q149 108 375 108q142 0 251.5 -41.5t176.5 -114.5t101 -168t34 -208q0 -112 -37 -206.5t-108.5 -165t-184 -110.5t-254.5 -40q-72 0 -140 16.5t-135 56.5t-116.5 100.5t-80.5 155.5t-31 213z
M819 418h-409q0 -97 54 -156t144 -59q89 0 150 60t61 155z" />
    <glyph glyph-name="circumflex" unicode="&#x2c6;" horiz-adv-x="681" 
d="M737 1153h-215l-180 184l-182 -184h-215l182 346h428z" />
    <glyph glyph-name="caron" unicode="&#x2c7;" horiz-adv-x="681" 
d="M-55 1499h215l182 -186l180 186h215l-182 -346h-428z" />
    <glyph glyph-name="uni02C9" unicode="&#x2c9;" horiz-adv-x="681" 
d="M727 1176h-772v245h772v-245z" />
    <glyph glyph-name="breve" unicode="&#x2d8;" horiz-adv-x="681" 
d="M-37 1499h178q7 -17 12 -26t23 -34t37.5 -40t54 -28t74.5 -13q30 0 56.5 6.5t44 14t34.5 23.5t25 24.5t18.5 28t12 23.5t8.5 21h178q-18 -136 -124 -241t-255 -105q-145 0 -255 100t-122 246z" />
    <glyph glyph-name="dotaccent" unicode="&#x2d9;" horiz-adv-x="681" 
d="M205 1290q0 56 39.5 96.5t97.5 40.5t97.5 -40.5t39.5 -96.5q0 -57 -39.5 -97t-97.5 -40t-97.5 40.5t-39.5 96.5z" />
    <glyph glyph-name="ring" unicode="&#x2da;" horiz-adv-x="681" 
d="M340 1563q86 0 146.5 -59.5t60.5 -145.5t-60.5 -146.5t-146.5 -60.5t-145.5 60.5t-59.5 146.5t59.5 145.5t145.5 59.5zM340 1464q-44 0 -75.5 -31t-31.5 -75t31.5 -76.5t75.5 -32.5t76.5 32.5t32.5 76.5t-32 75t-77 31z" />
    <glyph glyph-name="ogonek" unicode="&#x2db;" horiz-adv-x="681" 
d="M233 16h168q-30 -58 -30 -118q0 -36 34 -67.5t84 -31.5q45 0 89 15v-172q-84 -41 -179 -41q-94 0 -155.5 62.5t-61.5 172.5q0 96 51 180z" />
    <glyph glyph-name="tilde" unicode="&#x2dc;" horiz-adv-x="681" 
d="M575 1473h162q0 -153 -63.5 -236.5t-171.5 -83.5q-56 0 -172 43t-144 43q-40 0 -59 -25.5t-23 -60.5h-159q0 82 22.5 146.5t58.5 101t75 54.5t77 18q43 0 174 -43q118 -46 146 -46q38 0 57.5 28t19.5 61z" />
    <glyph glyph-name="hungarumlaut" unicode="&#x2dd;" horiz-adv-x="681" 
d="M408 1153l172 317h389l-369 -317h-192zM-74 1153l170 317h389l-368 -317h-191z" />
    <glyph glyph-name="Delta" unicode="&#x394;" horiz-adv-x="1480" 
d="M1440 0h-1399v156l438 1278h533l428 -1278v-156zM977 297l-232 737q-3 5 -5 12.5t-4 16.5t-3 14q-4 12 -4 17q-5 -24 -16 -56l-232 -741h496z" />
    <glyph glyph-name="Delta" unicode="&#x2206;" horiz-adv-x="1480" 
d="M1440 0h-1399v156l438 1278h533l428 -1278v-156zM977 297l-232 737q-3 5 -5 12.5t-4 16.5t-3 14q-4 12 -4 17q-5 -24 -16 -56l-232 -741h496z" />
    <glyph glyph-name="Omega" unicode="&#x3a9;" horiz-adv-x="1517" 
d="M1442 0h-611v283q197 197 197 473q0 175 -68.5 279t-193.5 104q-132 0 -205.5 -105t-73.5 -286q0 -278 199 -465v-283h-608v295h264q-55 43 -97.5 88t-84.5 109t-65 148.5t-23 182.5q0 277 194.5 456t505.5 179q162 0 291.5 -48.5t212.5 -133.5t126.5 -198.5t43.5 -246.5
q0 -180 -72 -308.5t-200 -227.5h268v-295z" />
    <glyph glyph-name="Omega" unicode="&#x2126;" horiz-adv-x="1517" 
d="M1442 0h-611v283q197 197 197 473q0 175 -68.5 279t-193.5 104q-132 0 -205.5 -105t-73.5 -286q0 -278 199 -465v-283h-608v295h264q-55 43 -97.5 88t-84.5 109t-65 148.5t-23 182.5q0 277 194.5 456t505.5 179q162 0 291.5 -48.5t212.5 -133.5t126.5 -198.5t43.5 -246.5
q0 -180 -72 -308.5t-200 -227.5h268v-295z" />
    <glyph glyph-name="uni03BC" unicode="&#x3bc;" horiz-adv-x="1302" 
d="M461 31v-494h-361v1481h361v-533v-37.5t3 -40t8 -44t15.5 -38t25.5 -35t39.5 -21.5t55.5 -9t61 11t50 24.5t43.5 39.5t34 40t30.5 41v602h361v-1018h-361v55q-21 -21 -38.5 -34t-59.5 -26t-96 -13q-61 0 -96.5 12t-75.5 37z" />
    <glyph glyph-name="pi" unicode="&#x3c0;" horiz-adv-x="1388" 
d="M1294 268l66 -225q-31 -25 -94.5 -43t-132.5 -18q-74 0 -131 21.5t-91 55.5t-56 81.5t-30 94t-8 99.5v438h-205v-453q0 -195 -34 -319h-359q41 150 41 338v432q-70 -10 -141 -55l-99 227q65 44 165.5 69t195.5 25h952v-264h-162v-391q0 -137 58 -137q27 0 65 24z" />
    <glyph glyph-name="Wgrave" unicode="&#x1e80;" horiz-adv-x="2437" 
d="M16 1386h433l288 -768l330 768h299l324 -768l301 768h428l-600 -1404h-242l-360 817l-369 -817h-244zM1438 1481h-193l-368 317h389z" />
    <glyph glyph-name="wgrave" unicode="&#x1e81;" horiz-adv-x="1748" 
d="M14 1018h365l186 -514l199 514h229l201 -514l180 514h361l-402 -1018h-227l-227 555l-226 -555h-227zM1073 1153h-192l-369 317h389z" />
    <glyph glyph-name="Wacute" unicode="&#x1e82;" horiz-adv-x="2437" 
d="M16 1386h433l288 -768l330 768h299l324 -768l301 768h428l-600 -1404h-242l-360 817l-369 -817h-244zM999 1481l172 317h390l-369 -317h-193z" />
    <glyph glyph-name="wacute" unicode="&#x1e83;" horiz-adv-x="1748" 
d="M14 1018h365l186 -514l199 514h229l201 -514l180 514h361l-402 -1018h-227l-227 555l-226 -555h-227zM676 1153l172 317h389l-369 -317h-192z" />
    <glyph glyph-name="Wdieresis" unicode="&#x1e84;" horiz-adv-x="2437" 
d="M16 1386h433l288 -768l330 768h299l324 -768l301 768h428l-600 -1404h-242l-360 817l-369 -817h-244zM825 1618q0 56 40 96.5t98 40.5t97.5 -40.5t39.5 -96.5q0 -57 -39.5 -97t-97.5 -40t-98 40.5t-40 96.5zM1335 1618q0 56 39.5 96.5t98.5 40.5q58 0 97.5 -40.5
t39.5 -96.5q0 -57 -39.5 -97t-97.5 -40q-59 0 -98.5 40.5t-39.5 96.5z" />
    <glyph glyph-name="wdieresis" unicode="&#x1e85;" horiz-adv-x="1748" 
d="M14 1018h365l186 -514l199 514h229l201 -514l180 514h361l-402 -1018h-227l-227 555l-226 -555h-227zM481 1290q0 56 39.5 96.5t97.5 40.5t98 -40.5t40 -96.5q0 -57 -40 -97t-98 -40t-97.5 40.5t-39.5 96.5zM991 1290q0 57 39 97t98 40q58 0 98 -40.5t40 -96.5
q0 -57 -40 -97t-98 -40q-59 0 -98 40t-39 97z" />
    <glyph glyph-name="Ygrave" unicode="&#x1ef2;" horiz-adv-x="1538" 
d="M12 1386h434l318 -436l319 436h443l-543 -751v-635h-418v627zM987 1481h-192l-369 317h389z" />
    <glyph glyph-name="ygrave" unicode="&#x1ef3;" horiz-adv-x="1193" 
d="M27 1018h387l207 -506l235 506h350l-692 -1481h-364l280 596zM815 1153h-192l-369 317h389z" />
    <glyph glyph-name="endash" unicode="&#x2013;" horiz-adv-x="1024" 
d="M-12 637h1048v-250h-1048v250z" />
    <glyph glyph-name="emdash" unicode="&#x2014;" horiz-adv-x="2048" 
d="M-12 637h2072v-250h-2072v250z" />
    <glyph glyph-name="quoteleft" unicode="&#x2018;" horiz-adv-x="618" 
d="M547 1405v-64q-166 -62 -158 -286q158 -45 158 -197q0 -84 -61.5 -146.5t-151.5 -62.5q-65 0 -116 29t-81 76t-45.5 101t-15.5 110q0 54 15.5 107.5t51 108t88.5 99t134.5 78t181.5 47.5z" />
    <glyph glyph-name="quoteright" unicode="&#x2019;" horiz-adv-x="618" 
d="M72 649v64q165 62 157 286q-157 45 -157 197q0 84 61.5 146.5t151.5 62.5q65 0 116 -28.5t81 -75.5t45.5 -101t15.5 -110q0 -68 -26 -135.5t-79 -131t-147.5 -110.5t-218.5 -64z" />
    <glyph glyph-name="quotesinglbase" unicode="&#x201a;" horiz-adv-x="618" 
d="M72 -344v63q166 62 157 287q-157 45 -157 197q0 84 61.5 146.5t151.5 62.5q65 0 116 -29t81 -76t45.5 -101t15.5 -110q0 -54 -15.5 -107.5t-51 -108t-88.5 -99t-134.5 -78t-181.5 -47.5z" />
    <glyph glyph-name="quotedblleft" unicode="&#x201c;" horiz-adv-x="1150" 
d="M1098 1405v-64q-166 -62 -158 -286q158 -45 158 -197q0 -84 -61.5 -146.5t-151.5 -62.5q-65 0 -116 29t-81 76t-45.5 101t-15.5 110q0 54 15.5 107.5t51 108t88.5 99t134.5 78t181.5 47.5zM547 1405v-64q-166 -62 -158 -286q158 -45 158 -197q0 -84 -61.5 -146.5
t-151.5 -62.5q-65 0 -116 29t-81 76t-45.5 101t-15.5 110q0 54 15.5 107.5t51 108t88.5 99t134.5 78t181.5 47.5z" />
    <glyph glyph-name="quotedblright" unicode="&#x201d;" horiz-adv-x="1150" 
d="M53 649v64q166 62 158 286q-158 45 -158 197q0 84 61.5 146.5t151.5 62.5q65 0 116 -28.5t81 -75.5t45.5 -101t15.5 -110q0 -68 -26 -135.5t-79 -131t-147.5 -110.5t-218.5 -64zM604 649v64q166 62 158 286q-158 45 -158 197q0 84 61.5 146.5t151.5 62.5q65 0 116 -28.5
t81 -75.5t45.5 -101t15.5 -110q0 -68 -26 -135.5t-79 -131t-147.5 -110.5t-218.5 -64z" />
    <glyph glyph-name="quotedblbase" unicode="&#x201e;" horiz-adv-x="1150" 
d="M53 -344v63q166 62 158 287q-158 45 -158 197q0 84 61.5 146.5t151.5 62.5q65 0 116 -29t81 -76t45.5 -101t15.5 -110q0 -54 -15.5 -107.5t-51 -108t-88.5 -99t-134.5 -78t-181.5 -47.5zM604 -344v63q166 62 158 287q-158 45 -158 197q0 84 61.5 146.5t151.5 62.5
q65 0 116 -29t81 -76t45.5 -101t15.5 -110q0 -54 -15.5 -107.5t-51 -108t-88.5 -99t-134.5 -78t-181.5 -47.5z" />
    <glyph glyph-name="dagger" unicode="&#x2020;" horiz-adv-x="1130" 
d="M641 752l111 -1096q4 -32 4 -72q0 -44 -26 -54.5t-101 -10.5h-117q-32 0 -45.5 0.5t-35.5 4t-31 10t-17 20.5t-8 34q0 36 4 52l110 1112l-288 -66q-90 -18 -101 -18q-59 0 -59 110v86q0 25 0.5 37.5t3.5 31t9 27.5t17.5 16t28.5 7q28 0 88 -14l301 -68l-73 369
q-10 57 -10 78q0 35 30 46t96 11h62q21 0 32 -0.5t28.5 -2t27 -5t20 -10t15 -17t4.5 -24.5q0 -20 -16 -105l-64 -340l301 68q59 14 88 14q17 0 29 -7t18 -16t9 -27.5t3.5 -31.5t0.5 -37v-86q0 -110 -60 -110q-10 0 -100 18z" />
    <glyph glyph-name="daggerdbl" unicode="&#x2021;" horiz-adv-x="1130" 
d="M641 936l277 55q87 17 108 17q17 0 29 -7t17.5 -15.5t8.5 -24t3.5 -25t0.5 -25.5v-84q0 -29 -1 -44t-6 -34t-17.5 -27.5t-32.5 -8.5q-12 0 -30 3.5t-37 7.5l-19 5l-301 59l59 -323l-59 -330l305 64q66 12 74 12q38 0 51.5 -24.5t13.5 -73.5v-90q0 -107 -59 -107
q-12 0 -42 5t-32 5l-311 62l59 -318q15 -78 15 -88q0 -22 -10 -36t-31 -19.5t-36 -6.5t-42 -1h-74q-20 0 -32 1t-31 5t-29 15.5t-10 29.5q0 10 10 78l62 340l-312 -60q-6 -2 -42 -7t-42 -5q-51 0 -51 90v96q0 55 9.5 82t41.5 27q11 0 70 -12l326 -64l-70 330l70 323
l-291 -59q-64 -16 -90 -16q-19 0 -32 8t-19.5 18t-10 28.5t-4 29t-0.5 30.5v107q0 74 64 74q7 0 73 -13l310 -59l-62 319q-12 59 -12 88q0 22 8 35t28.5 19t39 7t55.5 1h55q109 0 109 -55q0 -32 -13 -95z" />
    <glyph glyph-name="bullet" unicode="&#x2022;" horiz-adv-x="1024" 
d="M512 1026q137 0 234.5 -96.5t97.5 -235.5q0 -137 -97 -234.5t-235 -97.5t-235 97.5t-97 234.5q0 139 97.5 235.5t234.5 96.5z" />
    <glyph glyph-name="ellipsis" unicode="&#x2026;" horiz-adv-x="2048" 
d="M1024 412q88 0 151.5 -63t63.5 -152t-63 -152t-152 -63t-152 63t-63 152q0 90 63.5 152.5t151.5 62.5zM1706 412q89 0 152 -63t63 -152t-63 -152t-152 -63q-88 0 -151.5 63t-63.5 152q0 90 63.5 152.5t151.5 62.5zM342 412q88 0 151.5 -63t63.5 -152t-63 -152t-152 -63
t-152 63t-63 152q0 90 62.5 152.5t152.5 62.5z" />
    <glyph glyph-name="perthousand" unicode="&#x2030;" horiz-adv-x="2406" 
d="M446 928q56 0 96 39t40 94t-40 95t-96 40q-55 0 -94 -39.5t-39 -95.5q0 -55 38.5 -94t94.5 -39zM446 1405q143 0 244 -100t101 -242t-101 -243t-244 -101q-142 0 -242 100.5t-100 243.5t100 242.5t242 99.5zM424 -37h-205l1002 1442h202zM1958 649q143 0 243.5 -100
t100.5 -242q0 -143 -101 -243.5t-243 -100.5t-242 100.5t-100 243.5t100 242.5t242 99.5zM1958 172q56 0 95.5 39t39.5 94t-39.5 95t-95.5 40q-55 0 -94 -39.5t-39 -95.5q0 -55 38.5 -94t94.5 -39zM1194 649q143 0 243.5 -100t100.5 -242q0 -143 -101 -243.5t-243 -100.5
t-242 100.5t-100 243.5t100 242.5t242 99.5zM1194 172q56 0 95.5 39t39.5 94t-39.5 95t-95.5 40q-55 0 -94 -39.5t-39 -95.5q0 -55 38.5 -94t94.5 -39z" />
    <glyph glyph-name="guilsinglleft" unicode="&#x2039;" 
d="M680 991l-313 -493l313 -498h-334l-315 498l315 493h334z" />
    <glyph glyph-name="guilsinglright" unicode="&#x203a;" 
d="M45 991h334l315 -493l-315 -498h-334l313 498z" />
    <glyph glyph-name="fraction" unicode="&#x2044;" horiz-adv-x="210" 
d="M475 1405h207l-948 -1454h-207z" />
    <glyph glyph-name="fraction" unicode="&#x2215;" horiz-adv-x="210" 
d="M475 1405h207l-948 -1454h-207z" />
    <glyph glyph-name="Euro" unicode="&#x20ac;" horiz-adv-x="1273" 
d="M1067 635l-25 -172h-477q37 -86 102.5 -136.5t155.5 -50.5q211 0 379 130v-322q-99 -64 -202 -83t-240 -19q-235 0 -393 128.5t-213 352.5h-150l25 172h100q-2 20 -2 59v54h-123l25 172h123q28 121 88.5 215t142.5 152.5t179 88t204 29.5q238 0 432 -84v-338
q-173 129 -356 129q-91 0 -162 -50.5t-111 -141.5h527l-25 -172h-545q-2 -18 -2 -60q0 -35 2 -53h541z" />
    <glyph glyph-name="afii61289" unicode="&#x2113;" horiz-adv-x="1009" 
d="M801 252l80 -174q-148 -113 -303 -113q-165 0 -248.5 102t-83.5 273v92l-105 -96l-82 137l187 170v399q0 217 96.5 333t259.5 116q72 0 126 -24.5t84 -65.5t44 -85.5t14 -92.5q0 -83 -24.5 -163.5t-72.5 -155.5t-99.5 -137t-122.5 -134v-250q0 -197 115 -197q69 0 135 66
zM702 1184q0 37 -16 61.5t-49 24.5q-86 0 -86 -166v-248q63 66 107 161t44 167z" />
    <glyph glyph-name="trademark" unicode="&#x2122;" horiz-adv-x="1941" 
d="M37 1386h801v-192h-285v-621h-236v621h-280v192zM932 1386h356l113 -444l119 444h348v-813h-223v576l-154 -576h-184l-152 576v-576h-223v813z" />
    <glyph glyph-name="estimated" unicode="&#x212e;" horiz-adv-x="1353" 
d="M1196 565h-872v-389q128 -125 311 -125q264 0 414 256q13 -7 37 -22.5t36 -22.5q-98 -143 -211.5 -215t-275.5 -72q-167 0 -294 79.5t-193 212.5t-66 298t65.5 298t192 212.5t293.5 79.5q171 0 298.5 -79.5t193 -211.5t71.5 -299zM946 641v309q-131 131 -315 131
q-181 0 -307 -129v-311h622z" />
    <glyph glyph-name="onethird" unicode="&#x2153;" horiz-adv-x="1662" 
d="M487 682h-249v704h249v-704zM1153 1405h207l-948 -1454h-207zM1014 43v190q54 -41 100 -60t100 -19q43 0 75 17.5t32 47.5q0 78 -166 78v139q35 0 54 1.5t46 7t39.5 20t12.5 37.5q0 25 -25.5 45t-71.5 20q-77 0 -174 -57v166q137 47 236 47q136 0 210 -61.5t74 -135.5
q0 -87 -92 -153q107 -62 107 -170q0 -99 -84 -156t-209 -57q-67 0 -141.5 16.5t-122.5 36.5z" />
    <glyph glyph-name="twothirds" unicode="&#x2154;" horiz-adv-x="1662" 
d="M1153 1405h207l-948 -1454h-207zM1014 43v190q54 -41 100 -60t100 -19q43 0 75 17.5t32 47.5q0 78 -166 78v139q35 0 54 1.5t46 7t39.5 20t12.5 37.5q0 25 -25.5 45t-71.5 20q-77 0 -174 -57v166q137 47 236 47q136 0 210 -61.5t74 -135.5q0 -87 -92 -153
q107 -62 107 -170q0 -99 -84 -156t-209 -57q-67 0 -141.5 16.5t-122.5 36.5zM686 866v-184h-645v35q71 57 186 172q78 78 117 133t39 111q0 41 -27.5 65.5t-76.5 24.5q-101 0 -211 -101v201q46 25 76.5 39t86.5 28.5t113 14.5q138 0 209.5 -66t71.5 -159q0 -42 -11.5 -79.5
t-41 -79.5t-54 -70.5t-76.5 -84.5h244z" />
    <glyph glyph-name="oneeighth" unicode="&#x215b;" horiz-adv-x="1662" 
d="M487 682h-249v704h249v-704zM1153 1405h207l-948 -1454h-207zM1096 365q-56 29 -84.5 64.5t-28.5 90.5q0 78 78 140.5t237 62.5q85 0 149.5 -18.5t99.5 -49.5t52 -65t17 -70q0 -55 -29 -90.5t-86 -64.5q65 -22 101 -67t36 -103q0 -24 -7.5 -48.5t-30 -53.5t-58.5 -51
t-99 -37t-145 -15q-81 0 -143.5 14.5t-98.5 36t-59 50.5t-31 54t-8 50q0 58 36.5 103t101.5 67zM1298 426q31 0 52.5 21.5t21.5 56.5q0 30 -18.5 54t-55.5 24t-54 -22.5t-17 -55.5q0 -35 20.5 -56.5t50.5 -21.5zM1298 129q35 0 61.5 24t26.5 62q0 42 -25 65t-63 23
q-36 0 -62 -23t-26 -65q0 -40 26.5 -63t61.5 -23z" />
    <glyph glyph-name="threeeighths" unicode="&#x215c;" horiz-adv-x="1662" 
d="M1153 1405h207l-948 -1454h-207zM1096 365q-56 29 -84.5 64.5t-28.5 90.5q0 78 78 140.5t237 62.5q85 0 149.5 -18.5t99.5 -49.5t52 -65t17 -70q0 -55 -29 -90.5t-86 -64.5q65 -22 101 -67t36 -103q0 -24 -7.5 -48.5t-30 -53.5t-58.5 -51t-99 -37t-145 -15
q-81 0 -143.5 14.5t-98.5 36t-59 50.5t-31 54t-8 50q0 58 36.5 103t101.5 67zM1298 426q31 0 52.5 21.5t21.5 56.5q0 30 -18.5 54t-55.5 24t-54 -22.5t-17 -55.5q0 -35 20.5 -56.5t50.5 -21.5zM1298 129q35 0 61.5 24t26.5 62q0 42 -25 65t-63 23q-36 0 -62 -23t-26 -65
q0 -40 26.5 -63t61.5 -23zM78 725v190q105 -79 201 -79q43 0 74.5 17t31.5 48q0 78 -166 78v139q35 0 54 1.5t46 7t39.5 20t12.5 37.5q0 25 -25.5 45t-71.5 20q-77 0 -174 -57v166q137 47 236 47q136 0 210.5 -61.5t74.5 -135.5q0 -87 -93 -153q107 -62 107 -170
q0 -99 -84 -156t-209 -57q-67 0 -141.5 16.5t-122.5 36.5z" />
    <glyph glyph-name="fiveeighths" unicode="&#x215d;" horiz-adv-x="1662" 
d="M1153 1405h207l-948 -1454h-207zM1096 365q-56 29 -84.5 64.5t-28.5 90.5q0 78 78 140.5t237 62.5q85 0 149.5 -18.5t99.5 -49.5t52 -65t17 -70q0 -55 -29 -90.5t-86 -64.5q65 -22 101 -67t36 -103q0 -24 -7.5 -48.5t-30 -53.5t-58.5 -51t-99 -37t-145 -15
q-81 0 -143.5 14.5t-98.5 36t-59 50.5t-31 54t-8 50q0 58 36.5 103t101.5 67zM1298 426q31 0 52.5 21.5t21.5 56.5q0 30 -18.5 54t-55.5 24t-54 -22.5t-17 -55.5q0 -35 20.5 -56.5t50.5 -21.5zM1298 129q35 0 61.5 24t26.5 62q0 42 -25 65t-63 23q-36 0 -62 -23t-26 -65
q0 -40 26.5 -63t61.5 -23zM655 1386v-174h-280l-13 -102q43 0 68 -2q108 -9 170 -67.5t62 -137.5q0 -101 -82 -166t-230 -65q-144 0 -266 55v166q115 -51 201 -51q118 0 118 73q0 37 -37 60.5t-116 23.5q-56 0 -117 -18l43 405h479z" />
    <glyph glyph-name="seveneighths" unicode="&#x215e;" horiz-adv-x="1662" 
d="M1153 1405h207l-948 -1454h-207zM1096 365q-56 29 -84.5 64.5t-28.5 90.5q0 78 78 140.5t237 62.5q85 0 149.5 -18.5t99.5 -49.5t52 -65t17 -70q0 -55 -29 -90.5t-86 -64.5q65 -22 101 -67t36 -103q0 -24 -7.5 -48.5t-30 -53.5t-58.5 -51t-99 -37t-145 -15
q-81 0 -143.5 14.5t-98.5 36t-59 50.5t-31 54t-8 50q0 58 36.5 103t101.5 67zM1298 426q31 0 52.5 21.5t21.5 56.5q0 30 -18.5 54t-55.5 24t-54 -22.5t-17 -55.5q0 -35 20.5 -56.5t50.5 -21.5zM1298 129q35 0 61.5 24t26.5 62q0 42 -25 65t-63 23q-36 0 -62 -23t-26 -65
q0 -40 26.5 -63t61.5 -23zM334 676l-242 43l244 473h-287v194h649v-18z" />
    <glyph glyph-name="partialdiff" unicode="&#x2202;" horiz-adv-x="1179" 
d="M1149 922q0 -206 -45 -379q-44 -165 -124 -290.5t-200 -200.5t-262 -75q-201 0 -328 122t-127 311q0 122 31 224.5t82.5 171.5t119.5 117.5t140.5 70.5t147.5 22q144 0 217 -76q2 18 2 53q0 112 -56 174t-153 62q-90 0 -197 -60q-65 221 -71 242q131 88 315 88
q234 0 371 -152.5t137 -424.5zM518 252q62 0 115.5 65.5t86 159t46.5 199.5q-42 88 -121 88q-88 0 -155.5 -109.5t-67.5 -265.5q0 -62 25 -99.5t71 -37.5z" />
    <glyph glyph-name="product" unicode="&#x220f;" horiz-adv-x="1472" 
d="M1343 -467h-395v1532h-426v-1532h-393v1880h1214v-1880z" />
    <glyph glyph-name="summation" unicode="&#x2211;" horiz-adv-x="1292" 
d="M1153 -467h-1112v217l483 735l-456 701v227h1054v-326h-581l391 -595l-410 -631h631v-328z" />
    <glyph glyph-name="minus" unicode="&#x2212;" horiz-adv-x="1366" 
d="M121 817h1124v-248h-1124v248z" />
    <glyph glyph-name="uni2219" unicode="&#x2219;" horiz-adv-x="575" 
d="M291 909q89 0 151 -63t62 -152t-62 -152t-151 -63q-88 0 -152.5 63t-64.5 152q0 90 64 152.5t153 62.5z" />
    <glyph glyph-name="radical" unicode="&#x221a;" horiz-adv-x="1050" 
d="M1081 1491l-333 -1516h-285l-215 560l-105 -72l-118 180l372 258l199 -532l242 1122h243z" />
    <glyph glyph-name="infinity" unicode="&#x221e;" horiz-adv-x="1570" 
d="M1522 606q0 -173 -111 -285t-274 -112q-100 0 -192.5 47t-162.5 135q-66 -82 -155.5 -132t-192.5 -50q-70 0 -137 24.5t-123.5 71t-90.5 124t-34 173.5q0 91 34.5 166.5t90 122t123 71.5t137.5 25q208 0 352 -182q55 74 147 128t202 54q166 0 276.5 -109t110.5 -272z
M1249 604q0 60 -36 98.5t-101 38.5q-56 0 -100 -35t-90 -106q85 -143 192 -143q63 0 99 43t36 104zM459 457q97 0 188 143q-90 141 -190 141q-61 0 -98 -41t-37 -100q0 -60 38 -101.5t99 -41.5z" />
    <glyph glyph-name="integral" unicode="&#x222b;" horiz-adv-x="1005" 
d="M838 1255l-27 -10q-36 12 -70 12q-100 0 -100 -137v-1140q0 -98 -22.5 -178t-69 -142.5t-125.5 -96.5t-186 -34q-52 0 -114.5 11t-96.5 28l20 88q7 29 24.5 97.5t18.5 70.5q59 -19 90 -19q103 0 103 138v1136q0 101 23 182.5t70.5 144t126.5 96.5t185 34q55 0 119 -14.5
t96 -32.5q-4 -15 -17.5 -62t-19.5 -69q-5 -18 -14.5 -53t-13.5 -50z" />
    <glyph glyph-name="approxequal" unicode="&#x2248;" horiz-adv-x="1193" 
d="M969 1077l166 -223q-70 -106 -145.5 -154.5t-182.5 -48.5q-139 0 -234 64q-92 61 -172 61q-94 0 -170 -139l-180 217q36 52 67 87t72 67.5t90 48.5t107 16q130 0 234 -61q59 -34 98 -49t78 -15q48 0 93.5 38.5t78.5 90.5zM969 590l166 -223q-70 -106 -145.5 -154.5
t-182.5 -48.5q-140 0 -234 63q-94 62 -172 62q-94 0 -170 -139l-180 217q36 52 67 87t72 67.5t90 48.5t107 16q128 0 234 -62q108 -63 176 -63q48 0 93.5 38.5t78.5 90.5z" />
    <glyph glyph-name="notequal" unicode="&#x2260;" horiz-adv-x="1193" 
d="M1061 229h-465l-82 -188h-326l80 188h-133v297h260l86 193h-346v297h473l99 233h331l-102 -233h125v-297h-254l-86 -193h340v-297z" />
    <glyph glyph-name="lessequal" unicode="&#x2264;" horiz-adv-x="1193" 
d="M1061 608v-303l-926 350v277l926 348v-303l-537 -184zM1061 0h-926v268h926v-268z" />
    <glyph glyph-name="greaterequal" unicode="&#x2265;" horiz-adv-x="1193" 
d="M135 305v303l537 185l-537 184v303l926 -348v-277zM1061 0h-926v268h926v-268z" />
    <glyph glyph-name="lozenge" unicode="&#x25ca;" horiz-adv-x="1144" 
d="M610 1434l400 -717l-400 -717h-166l-397 715l397 719h166zM741 717l-213 397l-213 -397l213 -395z" />
    <glyph glyph-name="one.alt" unicode="&#xe000;" horiz-adv-x="1216" 
d="M559 1405h275v-1405h-379v903q-94 -64 -201 -90v285q107 56 175 121t130 186z" />
    <glyph glyph-name="zero.fitted" unicode="&#xf639;" horiz-adv-x="1216" 
d="M68 692q0 181 44 321t120.5 224t171.5 126t204 42q87 0 165 -26t147.5 -82t120 -138t79.5 -202t29 -265q0 -146 -29 -265.5t-79.5 -201t-120 -137t-147.5 -81t-165 -25.5q-109 0 -204 41.5t-171.5 125t-120.5 223t-44 320.5zM463 692q0 -47 0.5 -72t2 -70.5t5.5 -71.5
t10.5 -62.5t17 -57.5t25.5 -42t36.5 -30.5t47.5 -9.5t47.5 9.5t36.5 30t26 42t17.5 57.5t10.5 63t5.5 71.5t2 70.5t0.5 72q0 40 -0.5 64t-2 67.5t-5.5 71.5t-10.5 65.5t-17.5 61t-26 46t-36.5 33.5t-47.5 11t-47.5 -10.5t-36.5 -33.5t-26 -46.5t-17 -61t-10 -65t-5.5 -72
t-2 -67.5t-0.5 -64z" />
    <glyph glyph-name="two.fitted" unicode="&#xf63a;" horiz-adv-x="1183" 
d="M1114 311v-311h-1053v27q103 98 322 358q47 55 75 89t67.5 90.5t61 101t38 101.5t16.5 112q0 97 -55.5 156t-141.5 59q-170 0 -338 -176v327q2 1 31 20t38 24t38.5 22.5t46 24.5t47.5 21t56 20t57.5 14t66 11t68.5 3q197 0 326 -116t129 -312q0 -32 -3.5 -63.5
t-11.5 -61.5t-15.5 -55t-21 -54t-22 -47t-24.5 -44.5t-22.5 -36.5t-22 -33.5t-17.5 -26.5q-86 -128 -184 -244h448z" />
    <glyph glyph-name="three.fitted" unicode="&#xf63b;" horiz-adv-x="1067" 
d="M66 82v311q163 -137 317 -137q93 0 146 49.5t53 112.5q0 79 -63 131t-169 53h-45v223h53q54 0 95.5 17t63 43.5t32 52.5t10.5 49q0 63 -49 111.5t-125 48.5q-138 0 -283 -96v266q63 26 106.5 41.5t120.5 31t152 15.5q97 0 178 -26t133 -66t88 -90.5t51 -98t15 -90.5
q0 -92 -56 -179.5t-132 -129.5q29 -16 51.5 -30.5t54.5 -44.5t53 -64t36.5 -87t15.5 -114q0 -88 -30.5 -159t-79 -115t-110.5 -74.5t-121.5 -42.5t-117.5 -12q-107 0 -233 29.5t-211 70.5z" />
    <glyph glyph-name="four.fitted" unicode="&#xf63c;" horiz-adv-x="1216" 
d="M979 0h-369v299h-563v264l635 823h297v-849h164v-238h-164v-299zM266 537h344v444z" />
    <glyph glyph-name="five.fitted" unicode="&#xf63d;" horiz-adv-x="1138" 
d="M995 1386v-292h-495v-238q75 6 88 6q105 0 194 -35t147.5 -94.5t91 -136.5t32.5 -162q0 -89 -31 -169t-90 -144t-155.5 -101.5t-217.5 -37.5q-266 0 -461 133v299q66 -48 181 -97t202 -49q54 0 93 17.5t57.5 45t26.5 52.5t8 49q0 34 -12.5 65t-40.5 59t-82.5 45
t-129.5 17q-108 0 -208 -40v808h802z" />
    <glyph glyph-name="six.fitted" unicode="&#xf63e;" horiz-adv-x="1216" 
d="M621 1407l342 -113q-242 -206 -353 -374q38 10 92 10q187 0 318 -125.5t131 -325.5q0 -96 -38.5 -185.5t-106.5 -159t-169.5 -111t-220.5 -41.5q-132 0 -238.5 46t-173 123.5t-101.5 174.5t-35 204q0 234 149 465t404 412zM791 485q0 94 -54 140.5t-125 46.5
q-50 0 -88.5 -19.5t-58 -50t-28.5 -60t-9 -57.5q0 -81 50.5 -136.5t127.5 -55.5q49 0 86.5 19.5t58 50t30.5 62t10 60.5z" />
    <glyph glyph-name="seven.fitted" unicode="&#xf63f;" horiz-adv-x="1169" 
d="M528 -18l-321 102l424 995h-561v307h1050v-40z" />
    <glyph glyph-name="eight.fitted" unicode="&#xf640;" horiz-adv-x="1216" 
d="M291 715q-84 52 -130 120.5t-46 176.5q0 47 14 97t50 104t89.5 96t141.5 69t198 27q112 0 201.5 -27.5t143 -69t88.5 -96t48 -103.5t13 -97q0 -108 -44.5 -174.5t-131.5 -122.5q101 -51 162 -144t61 -198q0 -37 -9.5 -79.5t-44 -100.5t-90 -102.5t-159 -76.5t-238.5 -32
q-100 0 -183 16.5t-137.5 43t-96 63t-64.5 72t-37 75.5t-18 67.5t-4 53.5q0 106 60 198.5t163 143.5zM608 801q57 0 100.5 51.5t43.5 132.5q0 27 -6.5 56t-21.5 60t-44 50.5t-68 19.5q-41 0 -71 -18t-46 -47.5t-23 -59.5t-7 -61q0 -81 43 -132.5t100 -51.5zM610 203
q73 0 128 56.5t55 150.5t-58 149t-127 55q-71 0 -127.5 -55t-56.5 -149q0 -100 57 -153.5t129 -53.5z" />
    <glyph glyph-name="nine.fitted" unicode="&#xf641;" horiz-adv-x="1216" 
d="M596 -20l-342 112q238 203 352 375q-38 -10 -92 -10q-187 0 -317.5 125t-130.5 325q0 96 38 186t106 159t169.5 111t220.5 42q106 0 196.5 -30.5t154.5 -82.5t109.5 -122t67 -149.5t21.5 -164.5q0 -234 -149 -464.5t-404 -411.5zM426 901q0 -94 53.5 -140t124.5 -46
q50 0 88.5 19.5t58 49.5t28.5 59.5t9 57.5q0 81 -50.5 137t-127.5 56q-49 0 -86.5 -19.5t-57.5 -50.5t-30 -62.5t-10 -60.5z" />
    <glyph glyph-name="zero.taboldstyle" unicode="&#xf643;" horiz-adv-x="1173" 
d="M53 520q0 160 74 286.5t196.5 193.5t268.5 67q231 0 379.5 -147.5t148.5 -393.5q0 -133 -45.5 -239.5t-121 -171.5t-168.5 -99t-195 -34q-145 0 -265.5 62t-196 186.5t-75.5 289.5zM588 735q-88 0 -131 -58.5t-43 -150.5q0 -89 42.5 -151t129.5 -62q83 0 128.5 58.5
t45.5 158.5q0 89 -43.5 147t-128.5 58z" />
    <glyph glyph-name="one.taboldstyle" unicode="&#xf644;" horiz-adv-x="1173" 
d="M866 0h-360v596l-283 -252v401l350 322h293v-1067z" />
    <glyph glyph-name="two.taboldstyle" unicode="&#xf645;" horiz-adv-x="1173" 
d="M803 307h270v-307h-1007v72l286 207q163 117 240.5 198.5t77.5 161.5q0 50 -35 83.5t-135 33.5q-86 0 -182 -41t-218 -117v340q159 69 274 99t249 30q114 0 196.5 -27.5t128 -76.5t66 -107t20.5 -129q0 -106 -48.5 -196.5t-182.5 -223.5z" />
    <glyph glyph-name="three.taboldstyle" unicode="&#xf646;" horiz-adv-x="1173" 
d="M109 1049h964l-303 -639q73 -20 130 -65t89.5 -101.5t49 -114.5t16.5 -113q0 -207 -166 -351t-414 -144q-76 0 -153 15.5t-116 29t-106 39.5v348q88 -60 166.5 -90.5t182.5 -30.5q108 0 176.5 44.5t68.5 141.5q0 88 -67 146.5t-189 58.5q-74 0 -149 -18l260 536h-440v308
z" />
    <glyph glyph-name="four.taboldstyle" unicode="&#xf647;" horiz-adv-x="1173" 
d="M1182 0h-170v-479h-340v479h-678v238l764 829h254v-829h170v-238zM344 238h328v360z" />
    <glyph glyph-name="five.taboldstyle" unicode="&#xf648;" horiz-adv-x="1173" 
d="M1100 1049v-308h-469l-51 -264q97 -10 175 -37.5t127 -61.5t85 -80t53 -83t26.5 -81t11 -64t1.5 -41q0 -69 -16 -135.5t-58 -135.5t-105.5 -120.5t-168 -84t-236.5 -32.5q-73 0 -147 13t-110.5 24t-111.5 36v347q115 -55 200 -82t179 -27q101 0 157 39.5t56 112.5
q0 20 -5.5 41.5t-25 50t-51.5 50t-92.5 37t-140.5 15.5q-119 0 -193 -12l142 883h768z" />
    <glyph glyph-name="six.taboldstyle" unicode="&#xf649;" horiz-adv-x="1173" 
d="M606 1415l336 -119q-306 -270 -356 -376q48 10 102 10q81 0 159 -31.5t141 -87.5t101.5 -143t38.5 -189q0 -96 -38 -185.5t-106 -159t-169.5 -111t-220.5 -41.5q-152 0 -275.5 64.5t-198.5 191t-75 292.5q0 106 32 213t84.5 197.5t126.5 179t151.5 159t166.5 136.5z
M768 487q0 31 -8.5 61t-27.5 59.5t-56 48t-86 18.5q-74 0 -129 -56t-55 -133q0 -79 49.5 -135.5t126.5 -56.5q79 0 132.5 52t53.5 142z" />
    <glyph glyph-name="seven.taboldstyle" unicode="&#xf64a;" horiz-adv-x="1173" 
d="M541 -358l-324 102l426 997h-561v308h1051v-43z" />
    <glyph glyph-name="eight.taboldstyle" unicode="&#xf64b;" horiz-adv-x="1173" 
d="M268 715q-64 29 -120 111t-56 186q0 48 13 97t48 103.5t88.5 96t143 69t203.5 27.5q106 0 192 -25.5t140.5 -65.5t92 -93t53 -105t15.5 -104q0 -58 -17 -109.5t-44.5 -87.5t-56 -60.5t-58.5 -39.5q64 -32 110 -77t68.5 -93t32.5 -90t10 -82q0 -56 -15.5 -108.5
t-54.5 -105t-98 -91t-155 -62.5t-217 -24q-126 0 -224 26.5t-156 66.5t-96 94t-51.5 103.5t-13.5 100.5q0 45 11 87.5t35 88t69 88.5t108 78zM586 811q66 0 105.5 50t39.5 124q0 29 -7.5 58t-23 56t-44 43.5t-66.5 16.5q-78 0 -113 -52.5t-35 -121.5q0 -39 13 -76.5
t47.5 -67.5t83.5 -30zM586 258q76 0 128 50t52 124t-52 124t-128 50t-128 -50t-52 -124t52 -124t128 -50z" />
    <glyph glyph-name="nine.taboldstyle" unicode="&#xf64c;" horiz-adv-x="1173" 
d="M567 -367l-336 119q96 84 139.5 124t105.5 109t112 144q-72 -10 -92 -10q-89 0 -171 33t-144 91t-99 143t-37 183q0 96 38.5 186t106.5 159t169.5 111t220.5 42q133 0 239.5 -46t172.5 -124t101 -175t35 -204q0 -234 -152.5 -468.5t-408.5 -416.5zM406 561q0 -24 5 -48
t18 -49.5t32.5 -44.5t51 -31.5t71.5 -12.5q83 0 133.5 59t50.5 129q0 79 -49.5 136t-126.5 57q-79 0 -132.5 -52.5t-53.5 -142.5z" />
    <glyph glyph-name="zero.denominator" unicode="&#xf655;" 
d="M25 356q0 175 94.5 271t240.5 96q148 0 243 -96t95 -271t-95 -270.5t-243 -95.5q-146 0 -240.5 95.5t-94.5 270.5zM274 356q0 -42 2.5 -72.5t11 -63t26.5 -49.5t46 -17q89 0 89 202q0 205 -89 205q-86 0 -86 -205z" />
    <glyph glyph-name="one.denominator" unicode="&#xf656;" 
d="M487 0h-249v705h249v-705z" />
    <glyph glyph-name="two.denominator" unicode="&#xf657;" 
d="M686 184v-184h-645v35q71 57 186 172q78 78 117 133t39 111q0 41 -27.5 65.5t-76.5 24.5q-101 0 -211 -101v201q46 25 76.5 39t86.5 28.5t113 14.5q138 0 209.5 -66t71.5 -159q0 -42 -11.5 -79.5t-41 -79.5t-54 -70.5t-76.5 -84.5h244z" />
    <glyph glyph-name="three.denominator" unicode="&#xf658;" 
d="M78 43v190q105 -79 201 -79q43 0 74.5 17t31.5 48q0 78 -166 78v139q35 0 54 1.5t46 7t39.5 20t12.5 37.5q0 25 -25.5 45t-71.5 20q-77 0 -174 -57v166q137 47 236 47q136 0 210.5 -61.5t74.5 -135.5q0 -87 -93 -153q107 -62 107 -170q0 -99 -84 -156t-209 -57
q-67 0 -141.5 16.5t-122.5 36.5z" />
    <glyph glyph-name="four.denominator" unicode="&#xf659;" 
d="M594 0h-223v147h-351v152l386 414h188v-420h96v-146h-96v-147zM193 293h178v190z" />
    <glyph glyph-name="five.denominator" unicode="&#xf65a;" 
d="M655 705v-175h-280l-13 -102q43 0 68 -2q108 -9 170 -67.5t62 -137.5q0 -101 -82 -166t-230 -65q-144 0 -266 55v166q115 -51 201 -51q118 0 118 73q0 37 -37 60.5t-116 23.5q-56 0 -117 -18l43 406h479z" />
    <glyph glyph-name="six.denominator" unicode="&#xf65b;" 
d="M403 723l201 -82q-138 -75 -213 -162q114 8 202.5 -55.5t88.5 -173.5q0 -101 -83.5 -180.5t-229.5 -79.5q-157 0 -242.5 85t-85.5 206q0 133 100 253.5t262 188.5zM457 252q0 48 -27 74t-65 26q-48 0 -73.5 -30.5t-25.5 -69.5q0 -43 26.5 -70.5t67.5 -27.5
q44 0 70.5 30.5t26.5 67.5z" />
    <glyph glyph-name="seven.denominator" unicode="&#xf65c;" 
d="M334 -6l-242 43l244 473h-287v195h649v-19z" />
    <glyph glyph-name="eight.denominator" unicode="&#xf65d;" 
d="M160 365q-56 29 -84.5 64.5t-28.5 90.5q0 78 78 140.5t237 62.5q85 0 149.5 -18.5t99.5 -49.5t52 -65t17 -70q0 -55 -29 -90.5t-86 -64.5q65 -22 101 -67t36 -103q0 -24 -7.5 -48.5t-30 -53.5t-58.5 -51t-99 -37t-145 -15q-81 0 -143.5 14.5t-98.5 36t-59 50.5t-30.5 54
t-7.5 50q0 58 36 103t101 67zM362 426q31 0 52.5 21.5t21.5 56.5q0 30 -18.5 54t-55.5 24t-54 -22.5t-17 -55.5q0 -35 20.5 -56.5t50.5 -21.5zM362 129q36 0 62.5 24t26.5 62q0 42 -25.5 65t-63.5 23q-36 0 -62 -23t-26 -65q0 -40 26.5 -63t61.5 -23z" />
    <glyph glyph-name="nine.denominator" unicode="&#xf65e;" 
d="M317 -10l-200 82q139 76 213 161q-114 -8 -202.5 56t-88.5 174q0 101 83.5 180.5t229.5 79.5q157 0 242.5 -85t85.5 -206q0 -133 -100.5 -253t-262.5 -189zM264 461q0 -48 27 -74.5t65 -26.5q48 0 73.5 31t25.5 70q0 43 -27 70.5t-68 27.5q-44 0 -70 -30.5t-26 -67.5z
" />
    <glyph glyph-name="zero.numerator" unicode="&#xf661;" 
d="M25 1038q0 175 94.5 271t240.5 96q148 0 243 -96t95 -271t-95 -270.5t-243 -95.5q-146 0 -240.5 95.5t-94.5 270.5zM274 1038q0 -42 2.5 -72.5t11 -63t26.5 -49.5t46 -17q89 0 89 202q0 205 -89 205q-86 0 -86 -205z" />
    <glyph glyph-name="one.numerator" unicode="&#xf662;" 
d="M487 682h-249v704h249v-704z" />
    <glyph glyph-name="two.numerator" unicode="&#xf663;" 
d="M686 866v-184h-645v35q71 57 186 172q78 78 117 133t39 111q0 41 -27.5 65.5t-76.5 24.5q-101 0 -211 -101v201q46 25 76.5 39t86.5 28.5t113 14.5q138 0 209.5 -66t71.5 -159q0 -42 -11.5 -79.5t-41 -79.5t-54 -70.5t-76.5 -84.5h244z" />
    <glyph glyph-name="three.numerator" unicode="&#xf664;" 
d="M78 725v190q105 -79 201 -79q43 0 74.5 17t31.5 48q0 78 -166 78v139q35 0 54 1.5t46 7t39.5 20t12.5 37.5q0 25 -25.5 45t-71.5 20q-77 0 -174 -57v166q137 47 236 47q136 0 210.5 -61.5t74.5 -135.5q0 -87 -93 -153q107 -62 107 -170q0 -99 -84 -156t-209 -57
q-67 0 -141.5 16.5t-122.5 36.5z" />
    <glyph glyph-name="four.numerator" unicode="&#xf665;" 
d="M594 682h-223v147h-351v152l386 414h188v-420h96v-146h-96v-147zM193 975h178v190z" />
    <glyph glyph-name="five.numerator" unicode="&#xf666;" 
d="M655 1386v-174h-280l-13 -102q43 0 68 -2q108 -9 170 -67.5t62 -137.5q0 -101 -82 -166t-230 -65q-144 0 -266 55v166q115 -51 201 -51q118 0 118 73q0 37 -37 60.5t-116 23.5q-56 0 -117 -18l43 405h479z" />
    <glyph glyph-name="six.numerator" unicode="&#xf667;" 
d="M403 1405l201 -82q-138 -75 -213 -162q114 8 202.5 -55.5t88.5 -173.5q0 -101 -83.5 -180.5t-229.5 -79.5q-157 0 -242.5 85t-85.5 206q0 133 100 253.5t262 188.5zM457 934q0 48 -27 74t-65 26q-48 0 -73.5 -30.5t-25.5 -69.5q0 -43 26.5 -70.5t67.5 -27.5
q44 0 70.5 30.5t26.5 67.5z" />
    <glyph glyph-name="seven.numerator" unicode="&#xf668;" 
d="M334 676l-242 43l244 473h-287v194h649v-18z" />
    <glyph glyph-name="eight.numerator" unicode="&#xf669;" 
d="M160 1047q-56 29 -84.5 64.5t-28.5 90.5q0 78 78 140.5t237 62.5q85 0 149.5 -18.5t99.5 -49.5t52 -65t17 -70q0 -55 -29 -90.5t-86 -64.5q65 -22 101 -67t36 -103q0 -24 -7.5 -48.5t-30 -53.5t-58.5 -51t-99 -37t-145 -15q-81 0 -143.5 14.5t-98.5 36t-59 50.5t-30.5 54
t-7.5 50q0 58 36 103t101 67zM362 1108q31 0 52.5 21.5t21.5 56.5q0 30 -18.5 54t-55.5 24t-54 -22.5t-17 -55.5q0 -35 20.5 -56.5t50.5 -21.5zM362 811q36 0 62.5 24t26.5 62q0 42 -25.5 65t-63.5 23q-36 0 -62 -23t-26 -65q0 -40 26.5 -63t61.5 -23z" />
    <glyph glyph-name="nine.numerator" unicode="&#xf66a;" 
d="M317 672l-200 82q139 76 213 161q-114 -8 -202.5 56t-88.5 174q0 101 83.5 180.5t229.5 79.5q157 0 242.5 -85t85.5 -206q0 -133 -100.5 -253t-262.5 -189zM264 1143q0 -48 27 -74.5t65 -26.5q48 0 73.5 31t25.5 70q0 43 -27 70.5t-68 27.5q-44 0 -70 -30.5t-26 -67.5z
" />
    <glyph glyph-name="abreve.sc" unicode="&#xf66d;" horiz-adv-x="1292" 
d="M1288 0h-409l-56 150h-401l-41 -150h-377l410 1090h397zM743 371l-145 356l-113 -356h258zM268 1585h178q7 -17 12 -26t23 -34t37.5 -40t54 -28t74.5 -13q30 0 56.5 6.5t44 14t34.5 23.5t25 24.5t18.5 28t12 23.5t8.5 21h178q-18 -136 -124 -241t-255 -105
q-145 0 -255 100t-122 246z" />
    <glyph glyph-name="amacron.sc" unicode="&#xf66e;" horiz-adv-x="1292" 
d="M1288 0h-409l-56 150h-401l-41 -150h-377l410 1090h397zM743 371l-145 356l-113 -356h258zM1032 1262h-772v245h772v-245z" />
    <glyph glyph-name="aogonek.sc" unicode="&#xf66f;" horiz-adv-x="1292" 
d="M1288 0h-125q-22 -49 -22 -102q0 -36 34.5 -67.5t84.5 -31.5q44 0 88 15v-172q-84 -41 -179 -41q-94 0 -155.5 62.5t-61.5 172.5q0 91 41 164h-114l-56 150h-401l-41 -150h-377l410 1090h397zM743 371l-145 356l-113 -356h258z" />
    <glyph glyph-name="aeacute.sc" unicode="&#xf670;" horiz-adv-x="1730" 
d="M813 0v166h-344l-96 -166h-373l672 1090h964v-250h-467v-174h443v-236h-443v-180h480v-250h-836zM596 416h217v360zM965 1239l172 317h389l-369 -317h-192z" />
    <glyph glyph-name="cacute.sc" unicode="&#xf671;" horiz-adv-x="1216" 
d="M1114 1018v-326q-32 26 -56.5 43t-72 41.5t-110.5 37.5t-138 13q-137 0 -217 -81t-80 -201q0 -130 85 -206.5t202 -76.5q68 0 143.5 22t124 45.5t131.5 67.5v-293q-94 -56 -189 -87t-232 -31q-124 0 -228.5 31t-178.5 84t-126 124.5t-77 152t-25 165.5q0 116 43 216.5
t125 178t212.5 122t294.5 44.5q216 0 369 -86zM512 1239l172 317h389l-368 -317h-193z" />
    <glyph glyph-name="ccaron.sc" unicode="&#xf672;" horiz-adv-x="1216" 
d="M1114 1018v-326q-32 26 -56.5 43t-72 41.5t-110.5 37.5t-138 13q-137 0 -217 -81t-80 -201q0 -130 85 -206.5t202 -76.5q68 0 143.5 22t124 45.5t131.5 67.5v-293q-94 -56 -189 -87t-232 -31q-124 0 -228.5 31t-178.5 84t-126 124.5t-77 152t-25 165.5q0 116 43 216.5
t125 178t212.5 122t294.5 44.5q216 0 369 -86zM295 1585h215l182 -186l180 186h215l-182 -346h-428z" />
    <glyph glyph-name="ccircumflex.sc" unicode="&#xf673;" horiz-adv-x="1216" 
d="M1114 1018v-326q-32 26 -56.5 43t-72 41.5t-110.5 37.5t-138 13q-137 0 -217 -81t-80 -201q0 -130 85 -206.5t202 -76.5q68 0 143.5 22t124 45.5t131.5 67.5v-293q-94 -56 -189 -87t-232 -31q-124 0 -228.5 31t-178.5 84t-126 124.5t-77 152t-25 165.5q0 116 43 216.5
t125 178t212.5 122t294.5 44.5q216 0 369 -86zM1098 1239h-215l-181 184l-182 -184h-215l182 346h428z" />
    <glyph glyph-name="cdotaccent.sc" unicode="&#xf674;" horiz-adv-x="1216" 
d="M1114 1018v-326q-32 26 -56.5 43t-72 41.5t-110.5 37.5t-138 13q-137 0 -217 -81t-80 -201q0 -130 85 -206.5t202 -76.5q68 0 143.5 22t124 45.5t131.5 67.5v-293q-94 -56 -189 -87t-232 -31q-124 0 -228.5 31t-178.5 84t-126 124.5t-77 152t-25 165.5q0 116 43 216.5
t125 178t212.5 122t294.5 44.5q216 0 369 -86zM573 1376q0 56 40 96.5t98 40.5t97.5 -40.5t39.5 -96.5q0 -57 -39.5 -97t-97.5 -40t-98 40.5t-40 96.5z" />
    <glyph glyph-name="dcaron.sc" unicode="&#xf675;" horiz-adv-x="1271" 
d="M119 0v1090h463q109 0 200.5 -22t154 -57t111 -83.5t77 -98.5t46.5 -104.5t24.5 -98t6.5 -83.5q0 -43 -6.5 -88t-25.5 -99.5t-48 -103.5t-77.5 -96t-111.5 -81t-154 -54.5t-199 -20.5h-461zM475 813v-537h115q115 0 178 77.5t63 189.5q0 131 -66.5 200.5t-174.5 69.5
h-115zM158 1585h215l182 -186l180 186h215l-182 -346h-428z" />
    <glyph glyph-name="dcroat.sc" unicode="&#xf676;" horiz-adv-x="1271" 
d="M119 471h-109v150h109v469h463q109 0 200.5 -22t154 -57t111 -83.5t77 -98.5t46.5 -104.5t24.5 -98t6.5 -83.5q0 -43 -6.5 -88t-25.5 -99.5t-48 -103.5t-77.5 -96t-111.5 -81t-154 -54.5t-199 -20.5h-461v471zM473 471v-195h117q54 0 96.5 17t69 44t44 63t24.5 71.5
t7 71.5q0 39 -7 75t-24.5 72t-44 63t-69 43.5t-96.5 16.5h-117v-192h174v-150h-174z" />
    <glyph glyph-name="ebreve.sc" unicode="&#xf677;" horiz-adv-x="1050" 
d="M956 1090v-250h-481v-164h459v-236h-459v-190h494v-250h-850v1090h837zM147 1585h179q5 -12 6.5 -14t9.5 -18.5t15 -24.5t19.5 -23.5t27 -23.5t32.5 -18t41 -14.5t49 -4.5q30 0 56.5 6.5t44 14t34.5 23.5t25 24.5t18.5 28t12 23.5t8.5 21h178q-18 -136 -124 -241
t-255 -105q-145 0 -255 100t-122 246z" />
    <glyph glyph-name="ecaron.sc" unicode="&#xf678;" horiz-adv-x="1050" 
d="M956 1090v-250h-481v-164h459v-236h-459v-190h494v-250h-850v1090h837zM129 1585h215l182 -186l181 186h215l-183 -346h-428z" />
    <glyph glyph-name="edotaccent.sc" unicode="&#xf679;" horiz-adv-x="1050" 
d="M956 1090v-250h-481v-164h459v-236h-459v-190h494v-250h-850v1090h837zM403 1376q0 56 40 96.5t98 40.5t97.5 -40.5t39.5 -96.5q0 -57 -39.5 -97t-97.5 -40t-98 40.5t-40 96.5z" />
    <glyph glyph-name="emacron.sc" unicode="&#xf67a;" horiz-adv-x="1050" 
d="M956 1090v-250h-481v-164h459v-236h-459v-190h494v-250h-850v1090h837zM922 1262h-772v245h772v-245z" />
    <glyph glyph-name="eng.sc" unicode="&#xf67b;" horiz-adv-x="1343" 
d="M668 -8l16 256q30 -6 61 -6q45 0 74.5 18t43.5 53.5t19 73t5 90.5v94q0 256 -160 256q-76 0 -142 -49.5t-110 -134.5v-643h-354v1090h356v-156q25 26 39.5 40t53 43t73.5 45.5t89.5 30t113.5 13.5q84 0 153.5 -24.5t125 -75t86 -136t30.5 -200.5v-230q0 -89 -11 -155
t-40.5 -126t-80 -97t-132 -58.5t-193.5 -21.5q-55 0 -116 10z" />
    <glyph glyph-name="eogonek.sc" unicode="&#xf67c;" horiz-adv-x="1050" 
d="M956 1090v-250h-481v-164h459v-236h-459v-190h494v-250h-164q-23 -51 -23 -102q0 -36 34.5 -67.5t84.5 -31.5q45 0 88 15v-172q-84 -41 -178 -41t-155.5 62.5t-61.5 172.5q0 91 41 164h-516v1090h837z" />
    <glyph glyph-name="gbreve.sc" unicode="&#xf67d;" horiz-adv-x="1288" 
d="M1159 1028v-289q-233 88 -414 88q-141 0 -223 -78t-82 -210q0 -135 76.5 -206t202.5 -71q57 0 110 14v123h-135v205h492v-473q-71 -57 -193.5 -101t-281.5 -44q-186 0 -332 69.5t-227.5 196.5t-81.5 291q0 114 42 213.5t123 178t213.5 124t301.5 45.5q109 0 195 -18
t214 -58zM358 1585h179q5 -12 6.5 -14t9.5 -18.5t15 -24.5t19.5 -23.5t27 -23.5t32.5 -18t41 -14.5t49 -4.5q30 0 56.5 6.5t44 14t34.5 23.5t25 24.5t18.5 28t12 23.5t8.5 21h178q-18 -136 -124 -241t-255 -105q-145 0 -255 100t-122 246z" />
    <glyph glyph-name="gcircumflex.sc" unicode="&#xf67e;" horiz-adv-x="1288" 
d="M1159 1028v-289q-233 88 -414 88q-141 0 -223 -78t-82 -210q0 -135 76.5 -206t202.5 -71q57 0 110 14v123h-135v205h492v-473q-71 -57 -193.5 -101t-281.5 -44q-186 0 -332 69.5t-227.5 196.5t-81.5 291q0 114 42 213.5t123 178t213.5 124t301.5 45.5q109 0 195 -18
t214 -58zM1130 1239h-215l-180 184l-182 -184h-215l182 346h428z" />
    <glyph glyph-name="gcommaaccent.sc" unicode="&#xf67f;" horiz-adv-x="1288" 
d="M1159 1028v-289q-233 88 -414 88q-141 0 -223 -78t-82 -210q0 -135 76.5 -206t202.5 -71q57 0 110 14v123h-135v205h492v-473q-71 -57 -193.5 -101t-281.5 -44q-186 0 -332 69.5t-227.5 196.5t-81.5 291q0 114 42 213.5t123 178t213.5 124t301.5 45.5q109 0 195 -18
t214 -58zM436 -463v117q18 -2 53 -2q89 0 122.5 14.5t33.5 50.5q0 34 -46 45t-128 11l10 112h123q92 0 155.5 -8.5t113.5 -29.5t74 -59.5t24 -96.5q0 -89 -89 -137t-239 -48q-90 0 -207 31z" />
    <glyph glyph-name="gdotaccent.sc" unicode="&#xf680;" horiz-adv-x="1288" 
d="M1159 1028v-289q-233 88 -414 88q-141 0 -223 -78t-82 -210q0 -135 76.5 -206t202.5 -71q57 0 110 14v123h-135v205h492v-473q-71 -57 -193.5 -101t-281.5 -44q-186 0 -332 69.5t-227.5 196.5t-81.5 291q0 114 42 213.5t123 178t213.5 124t301.5 45.5q109 0 195 -18
t214 -58zM596 1376q0 56 39.5 96.5t97.5 40.5t97.5 -40.5t39.5 -96.5q0 -57 -39.5 -97t-97.5 -40t-97.5 40.5t-39.5 96.5z" />
    <glyph glyph-name="hbar.sc" unicode="&#xf681;" horiz-adv-x="1343" 
d="M23 821v150h96v119h356v-119h393v119h357v-119h96v-150h-96v-821h-357v399h-393v-399h-356v821h-96zM475 690h393v131h-393v-131z" />
    <glyph glyph-name="hcircumflex.sc" unicode="&#xf682;" horiz-adv-x="1343" 
d="M119 1090h356v-400h393v400h357v-1090h-357v399h-393v-399h-356v1090zM1067 1239h-215l-180 184l-183 -184h-215l183 346h428z" />
    <glyph glyph-name="ibreve.sc" unicode="&#xf683;" horiz-adv-x="593" 
d="M475 1090v-1090h-356v1090h356zM-80 1585h178q7 -17 12 -26t23 -34t37.5 -40t54 -28t74.5 -13q30 0 56.5 6.5t44 14t34.5 23.5t25 24.5t18.5 28t12 23.5t8.5 21h178q-18 -136 -124 -241t-255 -105q-145 0 -255 100t-122 246z" />
    <glyph glyph-name="ij.sc" unicode="&#xf684;" horiz-adv-x="1216" 
d="M475 1090v-1090h-356v1090h356zM741 190v900h357v-926q0 -75 -6.5 -135.5t-22 -123t-45.5 -108.5t-74.5 -83.5t-111 -56.5t-152.5 -19q-57 0 -143 14l-39 280h61q45 0 74.5 3.5t49.5 18.5t30 27.5t15.5 48.5t6 61.5t0.5 85.5v7v6z" />
    <glyph glyph-name="imacron.sc" unicode="&#xf685;" horiz-adv-x="593" 
d="M475 1090v-1090h-356v1090h356zM684 1262h-772v245h772v-245z" />
    <glyph glyph-name="iogonek.sc" unicode="&#xf686;" horiz-adv-x="593" 
d="M475 1090v-1090h-106q-23 -51 -23 -102q0 -36 34.5 -67.5t84.5 -31.5q45 0 88 15v-172q-84 -41 -178 -41t-155.5 62.5t-61.5 172.5q0 91 41 164h-80v1090h356z" />
    <glyph glyph-name="itilde.sc" unicode="&#xf687;" horiz-adv-x="593" 
d="M475 1090v-1090h-356v1090h356zM532 1559h162q0 -153 -63.5 -236.5t-171.5 -83.5q-56 0 -171.5 43t-144.5 43q-40 0 -59 -25.5t-23 -60.5h-159q0 82 22.5 146.5t58.5 101t75 54.5t77 18q43 0 174 -43q118 -46 146 -46q38 0 57.5 28t19.5 61z" />
    <glyph glyph-name="jcircumflex.sc" unicode="&#xf688;" horiz-adv-x="622" 
d="M147 190v900h357v-926q0 -75 -6.5 -135.5t-22 -123t-45.5 -108.5t-74.5 -83.5t-111 -56.5t-152.5 -19q-57 0 -143 14l-39 280h61q45 0 74.5 3.5t49.5 18.5t30 27.5t15.5 48.5t6 61.5t0.5 85.5v7v6zM723 1239h-215l-180 184l-183 -184h-215l183 346h428z" />
    <glyph glyph-name="kcommaaccent.sc" unicode="&#xf689;" horiz-adv-x="1271" 
d="M410 -463v117q18 -2 53 -2q89 0 122 14.5t33 50.5q0 34 -46 45t-128 11l11 112h123q187 0 276.5 -41t89.5 -153q0 -89 -89 -137t-239 -48q-89 0 -206 31zM119 1090h356v-398l303 398h383l-366 -494l477 -596h-447l-350 436v-436h-356v1090z" />
    <glyph glyph-name="lacute.sc" unicode="&#xf68a;" horiz-adv-x="1032" 
d="M119 1090h356v-799h520v-291h-876v1090zM236 1239l172 317h389l-369 -317h-192z" />
    <glyph glyph-name="lcaron.sc" unicode="&#xf68b;" horiz-adv-x="1032" 
d="M633 502v51q135 50 127 231q-127 36 -127 158q0 68 49.5 118t122.5 50q68 0 117 -40t69.5 -96t20.5 -118q0 -54 -21 -108t-63.5 -105t-118.5 -89t-176 -52zM119 1090h356v-799h520v-291h-876v1090z" />
    <glyph glyph-name="lcommaaccent.sc" unicode="&#xf68c;" horiz-adv-x="1032" 
d="M299 -463v117q18 -2 53 -2q89 0 122.5 14.5t33.5 50.5q0 34 -46 45t-128 11l10 112h123q92 0 155.5 -8.5t113.5 -29.5t74 -59.5t24 -96.5q0 -89 -89 -137t-239 -48q-90 0 -207 31zM119 1090h356v-799h520v-291h-876v1090z" />
    <glyph glyph-name="ldot.sc" unicode="&#xf68d;" horiz-adv-x="1032" 
d="M119 1090h356v-799h520v-291h-876v1090zM772 852q70 0 120 -48.5t50 -119.5q0 -67 -50.5 -116.5t-119.5 -49.5t-118.5 49t-49.5 117q0 71 49.5 119.5t118.5 48.5z" />
    <glyph glyph-name="nacute.sc" unicode="&#xf68e;" horiz-adv-x="1333" 
d="M119 1090h315l424 -500v500h356v-1090h-292l-447 535v-535h-356v1090zM467 1239l172 317h389l-369 -317h-192z" />
    <glyph glyph-name="ncaron.sc" unicode="&#xf68f;" horiz-adv-x="1333" 
d="M119 1090h315l424 -500v500h356v-1090h-292l-447 535v-535h-356v1090zM270 1585h215l183 -186l180 186h215l-182 -346h-428z" />
    <glyph glyph-name="ncommaaccent.sc" unicode="&#xf690;" horiz-adv-x="1333" 
d="M434 -463v117q18 -2 53 -2q89 0 122.5 14.5t33.5 50.5q0 34 -46 45t-128 11l10 112h123q92 0 155.5 -8.5t113.5 -29.5t74 -59.5t24 -96.5q0 -89 -89 -137t-239 -48q-90 0 -207 31zM119 1090h315l424 -500v500h356v-1090h-292l-447 535v-535h-356v1090z" />
    <glyph glyph-name="obreve.sc" unicode="&#xf691;" horiz-adv-x="1366" 
d="M70 543q0 106 45.5 207.5t124 180t194 126t246.5 47.5q115 0 225.5 -40t197.5 -111t140 -177t53 -229q0 -113 -46.5 -216t-126.5 -179t-195 -121t-246 -45q-165 0 -305 70t-223.5 198.5t-83.5 288.5zM682 786q-100 0 -171 -70.5t-71 -170.5t71 -171t171 -71t172 71
t72 171q0 99 -72 170t-172 71zM305 1585h178q7 -17 12 -26t23 -34t37.5 -40t54 -28t74.5 -13q30 0 56.5 6.5t44 14t34.5 23.5t25 24.5t18.5 28t12 23.5t8.5 21h178q-18 -136 -124 -241t-255 -105q-145 0 -255 100t-122 246z" />
    <glyph glyph-name="ohungarumlaut.sc" unicode="&#xf692;" horiz-adv-x="1366" 
d="M70 543q0 106 45.5 207.5t124 180t194 126t246.5 47.5q115 0 225.5 -40t197.5 -111t140 -177t53 -229q0 -113 -46.5 -216t-126.5 -179t-195 -121t-246 -45q-165 0 -305 70t-223.5 198.5t-83.5 288.5zM682 786q-100 0 -171 -70.5t-71 -170.5t71 -171t171 -71t172 71
t72 171q0 99 -72 170t-172 71zM766 1239l172 317h389l-369 -317h-192zM285 1239l170 317h389l-369 -317h-190z" />
    <glyph glyph-name="omacron.sc" unicode="&#xf693;" horiz-adv-x="1366" 
d="M70 543q0 106 45.5 207.5t124 180t194 126t246.5 47.5q115 0 225.5 -40t197.5 -111t140 -177t53 -229q0 -113 -46.5 -216t-126.5 -179t-195 -121t-246 -45q-165 0 -305 70t-223.5 198.5t-83.5 288.5zM682 786q-100 0 -171 -70.5t-71 -170.5t71 -171t171 -71t172 71
t72 171q0 99 -72 170t-172 71zM1069 1262h-772v245h772v-245z" />
    <glyph glyph-name="oslashacute.sc" unicode="&#xf694;" horiz-adv-x="1366" 
d="M469 430l328 328q-50 28 -115 28q-59 0 -107.5 -24t-77.5 -63t-44 -86t-10.5 -95.5t26.5 -87.5zM213 176q-143 164 -143 367q0 76 24.5 153.5t75.5 151t121.5 130.5t171.5 91.5t217 34.5q201 0 360 -105l117 117l92 -92l-106 -106q153 -135 153 -371q0 -117 -46.5 -220.5
t-127.5 -178.5t-195.5 -118.5t-244.5 -43.5q-113 0 -199.5 27t-171.5 81l-123 -123l-90 90zM555 340q54 -37 133 -37q72 0 139.5 51t91.5 133t-30 185zM508 1239l172 317h389l-369 -317h-192z" />
    <glyph glyph-name="racute.sc" unicode="&#xf695;" horiz-adv-x="1198" 
d="M119 0v1090h518q113 0 198 -19.5t135.5 -51t82 -77.5t42.5 -91.5t11 -100.5q0 -77 -36 -155t-107 -126q34 -25 61 -72.5t70 -156.5q71 -179 96 -240h-383q-68 243 -105 309q-23 42 -46.5 57t-61.5 15h-119v-381h-356zM475 844v-248h107q71 0 112 34t41 91t-40.5 90
t-110.5 33h-109zM358 1239l172 317h390l-369 -317h-193z" />
    <glyph glyph-name="rcaron.sc" unicode="&#xf696;" horiz-adv-x="1198" 
d="M119 0v1090h518q113 0 198 -19.5t135.5 -51t82 -77.5t42.5 -91.5t11 -100.5q0 -77 -36 -155t-107 -126q34 -25 61 -72.5t70 -156.5q71 -179 96 -240h-383q-68 243 -105 309q-23 42 -46.5 57t-61.5 15h-119v-381h-356zM475 844v-248h107q71 0 112 34t41 91t-40.5 90
t-110.5 33h-109zM203 1585h215l182 -186l180 186h215l-182 -346h-428z" />
    <glyph glyph-name="rcommaaccent.sc" unicode="&#xf697;" horiz-adv-x="1198" 
d="M119 0v1090h518q113 0 198 -19.5t135.5 -51t82 -77.5t42.5 -91.5t11 -100.5q0 -77 -36 -155t-107 -126q34 -25 61 -72.5t70 -156.5q71 -179 96 -240h-383q-68 243 -105 309q-23 42 -46.5 57t-61.5 15h-119v-381h-356zM475 844v-248h107q71 0 112 34t41 91t-40.5 90
t-110.5 33h-109zM354 -463v117q18 -2 54 -2q89 0 122 14.5t33 50.5q0 34 -46 45t-128 11l10 112h123q92 0 155.5 -8.5t113.5 -29.5t74 -59.5t24 -96.5q0 -89 -89 -137t-239 -48q-90 0 -207 31z" />
    <glyph glyph-name="sacute.sc" unicode="&#xf698;" horiz-adv-x="1003" 
d="M899 1022v-279q-6 3 -35.5 18.5t-44 22t-46 20.5t-56 21.5t-57.5 16t-67 12.5t-69 4q-56 0 -81 -24.5t-25 -57.5q0 -9 2 -16.5t8.5 -14.5t13 -12.5t20 -12.5t25.5 -12.5t34 -14t40 -15.5t48.5 -19t56.5 -22q86 -34 144.5 -74.5t86 -83.5t37.5 -80t10 -80
q0 -147 -122 -240t-312 -93q-221 0 -424 90v305q155 -87 248 -114t182 -27q33 0 52.5 15t19.5 40q0 19 -4 29.5t-24 29t-70.5 41.5t-135.5 54q-288 104 -288 329q0 45 14 89t47 87.5t82 76t124.5 53t168.5 20.5q119 0 205.5 -20.5t191.5 -61.5zM303 1239l172 317h389
l-368 -317h-193z" />
    <glyph glyph-name="scedilla.sc" unicode="&#xf699;" horiz-adv-x="1003" 
d="M899 1022v-279q-6 3 -35.5 18.5t-44 22t-46 20.5t-56 21.5t-57.5 16t-67 12.5t-69 4q-56 0 -81 -24.5t-25 -57.5q0 -9 2 -16.5t8.5 -14.5t13 -12.5t20 -12.5t25.5 -12.5t34 -14t40 -15.5t48.5 -19t56.5 -22q86 -34 144.5 -74.5t86 -83.5t37.5 -80t10 -80
q0 -129 -95.5 -218t-250.5 -109l-25 -51q82 -20 126 -64.5t44 -107.5q0 -86 -80.5 -142.5t-248.5 -56.5h-197v137q43 0 74.5 3t62 10.5t46.5 24.5t16 42q0 31 -22.5 45.5t-74.5 17.5l103 140q-176 15 -336 86v305q155 -87 248 -114t182 -27q33 0 52.5 15t19.5 40
q0 19 -4 29.5t-24 29t-70.5 41.5t-135.5 54q-288 104 -288 329q0 45 14 89t47 87.5t82 76t124.5 53t168.5 20.5q119 0 205.5 -20.5t191.5 -61.5z" />
    <glyph glyph-name="scircumflex.sc" unicode="&#xf69a;" horiz-adv-x="1003" 
d="M899 1022v-279q-6 3 -35.5 18.5t-44 22t-46 20.5t-56 21.5t-57.5 16t-67 12.5t-69 4q-56 0 -81 -24.5t-25 -57.5q0 -9 2 -16.5t8.5 -14.5t13 -12.5t20 -12.5t25.5 -12.5t34 -14t40 -15.5t48.5 -19t56.5 -22q86 -34 144.5 -74.5t86 -83.5t37.5 -80t10 -80
q0 -147 -122 -240t-312 -93q-221 0 -424 90v305q155 -87 248 -114t182 -27q33 0 52.5 15t19.5 40q0 19 -4 29.5t-24 29t-70.5 41.5t-135.5 54q-288 104 -288 329q0 45 14 89t47 87.5t82 76t124.5 53t168.5 20.5q119 0 205.5 -20.5t191.5 -61.5zM881 1239h-215l-181 184
l-182 -184h-215l182 346h428z" />
    <glyph glyph-name="scommaaccent.sc" unicode="&#xf69b;" horiz-adv-x="1003" 
d="M899 1022v-279q-6 3 -35.5 18.5t-44 22t-46 20.5t-56 21.5t-57.5 16t-67 12.5t-69 4q-56 0 -81 -24.5t-25 -57.5q0 -9 2 -16.5t8.5 -14.5t13 -12.5t20 -12.5t25.5 -12.5t34 -14t40 -15.5t48.5 -19t56.5 -22q86 -34 144.5 -74.5t86 -83.5t37.5 -80t10 -80
q0 -147 -122 -240t-312 -93q-221 0 -424 90v305q155 -87 248 -114t182 -27q33 0 52.5 15t19.5 40q0 19 -4 29.5t-24 29t-70.5 41.5t-135.5 54q-288 104 -288 329q0 45 14 89t47 87.5t82 76t124.5 53t168.5 20.5q119 0 205.5 -20.5t191.5 -61.5zM252 -463v117q18 -2 53 -2
q89 0 122.5 14.5t33.5 50.5q0 34 -46 45t-128 11l10 112h123q187 0 276.5 -41t89.5 -153q0 -89 -88.5 -137t-238.5 -48q-90 0 -207 31z" />
    <glyph glyph-name="tbar.sc" unicode="&#xf69c;" horiz-adv-x="1171" 
d="M1122 1090v-304h-358v-235h323v-170h-323v-381h-356v381h-324v170h324v235h-359v304h1073z" />
    <glyph glyph-name="tcaron.sc" unicode="&#xf69d;" horiz-adv-x="1171" 
d="M1122 1090v-304h-358v-786h-356v786h-359v304h1073zM188 1499h215l183 -186l180 186h215l-182 -346h-428z" />
    <glyph glyph-name="tcommaaccent.sc" unicode="&#xf69e;" horiz-adv-x="1171" 
d="M348 -463v117q18 -2 53 -2q89 0 122.5 14.5t33.5 50.5q0 34 -46 45t-128 11l10 112h123q92 0 155.5 -8.5t113.5 -29.5t74 -59.5t24 -96.5q0 -89 -89 -137t-239 -48q-90 0 -207 31zM1122 1090v-304h-358v-786h-356v786h-359v304h1073z" />
    <glyph glyph-name="ubreve.sc" unicode="&#xf69f;" horiz-adv-x="1323" 
d="M106 1090h359v-547q0 -110 54 -175t151 -65q188 0 188 229v558h359v-601q0 -503 -562 -503q-124 0 -223 29t-172.5 88t-113.5 154.5t-40 221.5v611zM283 1585h178q7 -17 12 -26t23 -34t37.5 -40t54 -28t74.5 -13q30 0 56.5 6.5t44 14t34.5 23.5t24.5 24t18 28.5t12 23.5
t8.5 21h178q-18 -136 -124 -241t-255 -105q-145 0 -254.5 100t-121.5 246z" />
    <glyph glyph-name="uhungarumlaut.sc" unicode="&#xf6a0;" horiz-adv-x="1323" 
d="M106 1090h359v-547q0 -110 54 -175t151 -65q188 0 188 229v558h359v-601q0 -503 -562 -503q-124 0 -223 29t-172.5 88t-113.5 154.5t-40 221.5v611zM743 1239l172 317h390l-369 -317h-193zM262 1239l170 317h389l-368 -317h-191z" />
    <glyph glyph-name="umacron.sc" unicode="&#xf6a1;" horiz-adv-x="1323" 
d="M106 1090h359v-547q0 -110 54 -175t151 -65q188 0 188 229v558h359v-601q0 -503 -562 -503q-124 0 -223 29t-172.5 88t-113.5 154.5t-40 221.5v611zM1047 1262h-773v245h773v-245z" />
    <glyph glyph-name="uogonek.sc" unicode="&#xf6a2;" horiz-adv-x="1323" 
d="M106 1090h359v-547q0 -110 54 -175t151 -65q188 0 188 229v558h359v-601q0 -471 -488 -501q-16 -43 -16 -90q0 -36 34 -67.5t84 -31.5q45 0 89 15v-172q-84 -41 -179 -41q-94 0 -155.5 62.5t-61.5 172.5q0 84 37 154q-213 21 -334 143t-121 346v611z" />
    <glyph glyph-name="uring.sc" unicode="&#xf6a3;" horiz-adv-x="1323" 
d="M106 1090h359v-547q0 -110 54 -175t151 -65q188 0 188 229v558h359v-601q0 -503 -562 -503q-124 0 -223 29t-172.5 88t-113.5 154.5t-40 221.5v611zM659 1649q86 0 146.5 -59.5t60.5 -145.5t-60.5 -146.5t-146.5 -60.5t-145 60t-59 147q0 86 59 145.5t145 59.5zM659 1550
q-44 0 -75 -31t-31 -75q0 -45 31 -77t75 -32t76.5 32.5t32.5 76.5t-32 75t-77 31z" />
    <glyph glyph-name="utilde.sc" unicode="&#xf6a4;" horiz-adv-x="1323" 
d="M106 1090h359v-547q0 -110 54 -175t151 -65q188 0 188 229v558h359v-601q0 -503 -562 -503q-124 0 -223 29t-172.5 88t-113.5 154.5t-40 221.5v611zM895 1559h162q0 -152 -64 -236t-172 -84q-55 0 -171 43t-144 43q-40 0 -59 -25.5t-23 -60.5h-160q0 82 22.5 146.5
t58.5 101t75.5 54.5t77.5 18q43 0 174 -43q118 -46 145 -46q38 0 58 28t20 61z" />
    <glyph glyph-name="wacute.sc" unicode="&#xf6a5;" horiz-adv-x="1906" 
d="M1055 1090l241 -545l242 545h369l-525 -1104h-149l-281 639l-278 -639h-152l-522 1104h367l241 -545l242 545h205zM819 1239l172 317h389l-368 -317h-193z" />
    <glyph glyph-name="wcircumflex.sc" unicode="&#xf6a6;" horiz-adv-x="1906" 
d="M1055 1090l241 -545l242 545h369l-525 -1104h-149l-281 639l-278 -639h-152l-522 1104h367l241 -545l242 545h205zM1350 1239h-215l-181 184l-182 -184h-215l182 346h428z" />
    <glyph glyph-name="wdieresis.sc" unicode="&#xf6a7;" horiz-adv-x="1906" 
d="M1055 1090l241 -545l242 545h369l-525 -1104h-149l-281 639l-278 -639h-152l-522 1104h367l241 -545l242 545h205zM561 1376q0 56 39.5 96.5t97.5 40.5t98 -40.5t40 -96.5q0 -57 -40 -97t-98 -40t-97.5 40.5t-39.5 96.5zM1071 1376q0 57 39 97t98 40q58 0 98 -40.5
t40 -96.5q0 -57 -40 -97t-98 -40q-59 0 -98 40t-39 97z" />
    <glyph glyph-name="wgrave.sc" unicode="&#xf6a8;" horiz-adv-x="1906" 
d="M1055 1090l241 -545l242 545h369l-525 -1104h-149l-281 639l-278 -639h-152l-522 1104h367l241 -545l242 545h205zM1112 1239h-192l-369 317h389z" />
    <glyph glyph-name="ycircumflex.sc" unicode="&#xf6a9;" horiz-adv-x="1206" 
d="M0 1090h385l217 -394l219 394h385l-424 -662v-428h-356v428zM999 1239h-215l-180 184l-182 -184h-215l182 346h428z" />
    <glyph glyph-name="ygrave.sc" unicode="&#xf6aa;" horiz-adv-x="1206" 
d="M0 1090h385l217 -394l219 394h385l-424 -662v-428h-356v428zM782 1239h-192l-369 317h389z" />
    <glyph glyph-name="zacute.sc" unicode="&#xf6ab;" horiz-adv-x="1144" 
d="M1108 0h-1079l516 795h-482v295h1029l-508 -795h524v-295zM373 1239l172 317h389l-369 -317h-192z" />
    <glyph glyph-name="zdotaccent.sc" unicode="&#xf6ac;" horiz-adv-x="1144" 
d="M1108 0h-1079l516 795h-482v295h1029l-508 -795h524v-295zM434 1376q0 56 39.5 96.5t97.5 40.5t98 -40.5t40 -96.5q0 -57 -40 -97t-98 -40t-97.5 40.5t-39.5 96.5z" />
    <glyph glyph-name="idotaccent.sc" unicode="&#xf6ad;" horiz-adv-x="593" 
d="M475 1090v-1090h-356v1090h356zM160 1376q0 56 39.5 96.5t97.5 40.5t97.5 -40.5t39.5 -96.5q0 -57 -39.5 -97t-97.5 -40t-97.5 40.5t-39.5 96.5z" />
    <glyph glyph-name="one.fitted" unicode="&#xf6d6;" horiz-adv-x="665" 
d="M522 0h-379v1386h379v-1386z" />
    <glyph glyph-name="one.fitted" unicode="&#xf6dc;" horiz-adv-x="665" 
d="M522 0h-379v1386h379v-1386z" />
    <glyph glyph-name="lslash.sc" unicode="&#xf6f9;" horiz-adv-x="1032" 
d="M475 801l215 172v-258l-215 -172v-252h520v-291h-876v260l-111 -88v262l111 88v568h356v-289z" />
    <glyph glyph-name="oe.sc" unicode="&#xf6fa;" horiz-adv-x="1736" 
d="M1645 1090v-250h-467v-162h442v-236h-442v-192h477v-250h-967q-135 0 -247 34.5t-195 102t-129.5 173.5t-46.5 241q0 177 79 299.5t216.5 181t322.5 58.5h957zM821 250v590h-71q-154 0 -232 -78t-78 -219q0 -133 79 -213t231 -80h71z" />
    <glyph glyph-name="scaron.sc" unicode="&#xf6fd;" horiz-adv-x="1003" 
d="M899 1022v-279q-6 3 -35.5 18.5t-44 22t-46 20.5t-56 21.5t-57.5 16t-67 12.5t-69 4q-56 0 -81 -24.5t-25 -57.5q0 -9 2 -16.5t8.5 -14.5t13 -12.5t20 -12.5t25.5 -12.5t34 -14t40 -15.5t48.5 -19t56.5 -22q86 -34 144.5 -74.5t86 -83.5t37.5 -80t10 -80
q0 -147 -122 -240t-312 -93q-221 0 -424 90v305q155 -87 248 -114t182 -27q33 0 52.5 15t19.5 40q0 19 -4 29.5t-24 29t-70.5 41.5t-135.5 54q-288 104 -288 329q0 45 14 89t47 87.5t82 76t124.5 53t168.5 20.5q119 0 205.5 -20.5t191.5 -61.5zM106 1585h216l182 -186
l180 186h215l-182 -346h-428z" />
    <glyph glyph-name="zcaron.sc" unicode="&#xf6ff;" horiz-adv-x="1144" 
d="M1108 0h-1079l516 795h-482v295h1029l-508 -795h524v-295zM176 1585h215l182 -186l181 186h215l-183 -346h-428z" />
    <glyph glyph-name="ampersand.sc" unicode="&#xf726;" horiz-adv-x="1169" 
d="M954 250l232 -250h-391l-66 72q-6 -3 -28.5 -14t-31 -15t-31 -14t-35.5 -14t-36 -11t-41.5 -10t-42.5 -5.5t-49 -2.5q-84 0 -150 19.5t-106.5 50t-67 71.5t-37 80.5t-10.5 79.5q0 86 48.5 155t169.5 127q-3 3 -22.5 25.5t-23.5 28.5t-19 26.5t-19.5 33t-13 33t-11 42
t-2.5 45.5q0 42 20.5 90t62 97t120 81.5t178.5 32.5q90 0 158.5 -25t107 -66.5t57.5 -88.5t19 -97q0 -32 -10 -62t-29.5 -55t-39 -45.5t-46.5 -39.5t-44 -30t-40 -24t-25 -14l123 -129q69 48 101 160h319q-60 -119 -109.5 -190.5t-138.5 -147.5zM543 682q91 52 92 112v10v5
q0 29 -22.5 50.5t-65.5 21.5q-42 0 -64 -22t-22 -56q0 -22 13.5 -45t26.5 -36.5t42 -39.5zM563 254l-139 152q-74 -51 -74 -99q0 -36 25.5 -59t81.5 -23q57 0 106 29z" />
    <glyph glyph-name="zero.oldstyle" unicode="&#xf730;" horiz-adv-x="1173" 
d="M53 520q0 160 74 286.5t196.5 193.5t268.5 67q231 0 379.5 -147.5t148.5 -393.5q0 -133 -45.5 -239.5t-121 -171.5t-168.5 -99t-195 -34q-145 0 -265.5 62t-196 186.5t-75.5 289.5zM588 735q-88 0 -131 -58.5t-43 -150.5q0 -89 42.5 -151t129.5 -62q83 0 128.5 58.5
t45.5 158.5q0 89 -43.5 147t-128.5 58z" />
    <glyph glyph-name="one.oldstyle" unicode="&#xf731;" horiz-adv-x="960" 
d="M768 0h-360v596l-283 -252v401l350 322h293v-1067z" />
    <glyph glyph-name="two.oldstyle" unicode="&#xf732;" horiz-adv-x="1173" 
d="M809 307h270v-307h-1007v72l286 207q163 117 240.5 198.5t77.5 161.5q0 50 -35 83.5t-135 33.5q-86 0 -182 -41t-218 -117v340q159 69 274 99t249 30q114 0 196.5 -27.5t128 -76.5t66 -107t20.5 -129q0 -106 -48.5 -196.5t-182.5 -223.5z" />
    <glyph glyph-name="three.oldstyle" unicode="&#xf733;" horiz-adv-x="1064" 
d="M70 1049h964l-303 -639q73 -20 130 -65t89.5 -101.5t49 -114.5t16.5 -113q0 -207 -166 -351t-414 -144q-76 0 -153 15.5t-116 29t-106 39.5v348q88 -60 166.5 -90.5t182.5 -30.5q108 0 176.5 44.5t68.5 141.5q0 88 -67 146.5t-189 58.5q-74 0 -149 -18l260 536h-440v308z
" />
    <glyph glyph-name="four.oldstyle" unicode="&#xf734;" horiz-adv-x="1210" 
d="M1198 0h-170v-479h-340v479h-678v238l764 829h254v-829h170v-238zM360 238h328v360z" />
    <glyph glyph-name="five.oldstyle" unicode="&#xf735;" horiz-adv-x="1044" 
d="M1024 1049v-308h-469l-51 -264q97 -10 175 -37.5t127 -61.5t85 -80t53 -83t26.5 -81t11 -64t1.5 -41q0 -69 -16 -135.5t-58 -135.5t-105.5 -120.5t-168 -84t-236.5 -32.5q-73 0 -147 13t-110 24t-111 36v347q115 -55 200 -82t179 -27q101 0 157 39.5t56 112.5
q0 16 -4 33.5t-15 41t-34 43.5t-56 37.5t-86.5 28t-120.5 10.5q-118 0 -192 -12l141 883h768z" />
    <glyph glyph-name="six.oldstyle" unicode="&#xf736;" horiz-adv-x="1165" 
d="M602 1415l336 -119q-306 -270 -356 -376q48 10 102 10q81 0 159 -31.5t141 -87.5t101.5 -143t38.5 -189q0 -96 -38 -185.5t-106 -159t-169.5 -111t-220.5 -41.5q-152 0 -275.5 64.5t-198.5 191t-75 292.5q0 106 32 213t84.5 197.5t126.5 179t151.5 159t166.5 136.5z
M764 487q0 31 -8.5 61t-27.5 59.5t-56 48t-86 18.5q-74 0 -129.5 -56t-55.5 -133q0 -79 50 -135.5t127 -56.5q79 0 132.5 52t53.5 142z" />
    <glyph glyph-name="seven.oldstyle" unicode="&#xf737;" horiz-adv-x="1130" 
d="M524 -358l-323 102l426 997h-561v308h1050v-43z" />
    <glyph glyph-name="eight.oldstyle" unicode="&#xf738;" horiz-adv-x="1163" 
d="M264 715q-64 29 -120 111t-56 186q0 48 13 97t48 103.5t88.5 96t143 69t203.5 27.5q106 0 192 -25.5t140.5 -65.5t92 -93t53 -105t15.5 -104q0 -58 -17 -109.5t-44.5 -87.5t-56 -60.5t-58.5 -39.5q64 -32 110 -77t68.5 -93t32.5 -90t10 -82q0 -56 -15.5 -108.5
t-54.5 -105t-98 -91t-155 -62.5t-217 -24q-126 0 -224 26.5t-156 66.5t-96 94t-51.5 103.5t-13.5 100.5q0 45 11 87.5t35 88t69 88.5t108 78zM582 811q66 0 105.5 50t39.5 124q0 29 -7.5 58t-23 56t-44 43.5t-66.5 16.5q-78 0 -113 -52.5t-35 -121.5q0 -39 13 -76.5
t47.5 -67.5t83.5 -30zM582 258q76 0 128 50t52 124t-52 124t-128 50t-128.5 -50t-52.5 -124t52.5 -124t128.5 -50z" />
    <glyph glyph-name="nine.oldstyle" unicode="&#xf739;" horiz-adv-x="1165" 
d="M563 -367l-336 119q96 84 139.5 124t105.5 109t112 144q-72 -10 -92 -10q-89 0 -171 33t-144 91t-99 143t-37 183q0 96 38 186t106 159t169.5 111t220.5 42q107 0 197.5 -30.5t154.5 -82.5t109 -122t66.5 -149.5t21.5 -164.5q0 -234 -152.5 -468.5t-408.5 -416.5z
M401 561q0 -31 9 -61t28 -59.5t56 -47.5t86 -18q83 0 133.5 59t50.5 129q0 79 -49.5 136t-126.5 57q-79 0 -133 -52.5t-54 -142.5z" />
    <glyph glyph-name="a.sc" unicode="&#xf761;" horiz-adv-x="1292" 
d="M1288 0h-409l-56 150h-401l-41 -150h-377l410 1090h397zM743 371l-145 356l-113 -356h258z" />
    <glyph glyph-name="b.sc" unicode="&#xf762;" horiz-adv-x="1216" 
d="M119 0v1090h551q104 0 181.5 -17t121.5 -43t70 -64.5t34 -73.5t8 -79q0 -40 -10.5 -74t-22.5 -54t-34.5 -41t-32.5 -28t-31 -20q193 -62 193 -266q0 -54 -13 -100.5t-44.5 -89.5t-79.5 -73.5t-123 -48.5t-170 -18h-598zM475 446v-213h141q30 0 47.5 1t44 6t41 15t26 30
t11.5 49q0 112 -139 112h-172zM592 856h-123v-194h125q28 0 47 3t40.5 12t32.5 30t11 53q0 28 -9 47t-19.5 28.5t-32 14.5t-34.5 5.5t-38 0.5z" />
    <glyph glyph-name="c.sc" unicode="&#xf763;" horiz-adv-x="1216" 
d="M1114 1018v-326q-32 26 -56.5 43t-72 41.5t-110.5 37.5t-138 13q-137 0 -217 -81t-80 -201q0 -130 85 -206.5t202 -76.5q68 0 143.5 22t124 45.5t131.5 67.5v-293q-94 -56 -189 -87t-232 -31q-124 0 -228.5 31t-178.5 84t-126 124.5t-77 152t-25 165.5q0 116 43 216.5
t125 178t212.5 122t294.5 44.5q216 0 369 -86z" />
    <glyph glyph-name="d.sc" unicode="&#xf764;" horiz-adv-x="1271" 
d="M119 0v1090h463q109 0 200.5 -22t154 -57t111 -83.5t77 -98.5t46.5 -104.5t24.5 -98t6.5 -83.5q0 -43 -6.5 -88t-25.5 -99.5t-48 -103.5t-77.5 -96t-111.5 -81t-154 -54.5t-199 -20.5h-461zM475 813v-537h115q115 0 178 77.5t63 189.5q0 131 -66.5 200.5t-174.5 69.5
h-115z" />
    <glyph glyph-name="e.sc" unicode="&#xf765;" horiz-adv-x="1050" 
d="M956 1090v-250h-481v-164h459v-236h-459v-190h494v-250h-850v1090h837z" />
    <glyph glyph-name="f.sc" unicode="&#xf766;" horiz-adv-x="999" 
d="M918 1090v-250h-443v-211h443v-250h-443v-379h-356v1090h799z" />
    <glyph glyph-name="g.sc" unicode="&#xf767;" horiz-adv-x="1288" 
d="M1159 1028v-289q-233 88 -414 88q-141 0 -223 -78t-82 -210q0 -135 76.5 -206t202.5 -71q57 0 110 14v123h-135v205h492v-473q-71 -57 -193.5 -101t-281.5 -44q-186 0 -332 69.5t-227.5 196.5t-81.5 291q0 114 42 213.5t123 178t213.5 124t301.5 45.5q109 0 195 -18
t214 -58z" />
    <glyph glyph-name="h.sc" unicode="&#xf768;" horiz-adv-x="1343" 
d="M119 1090h356v-400h393v400h357v-1090h-357v399h-393v-399h-356v1090z" />
    <glyph glyph-name="i.sc" unicode="&#xf769;" horiz-adv-x="593" 
d="M475 1090v-1090h-356v1090h356z" />
    <glyph glyph-name="j.sc" unicode="&#xf76a;" horiz-adv-x="622" 
d="M147 190v900h357v-926q0 -75 -6.5 -135.5t-22 -123t-45.5 -108.5t-74.5 -83.5t-111 -56.5t-152.5 -19q-57 0 -143 14l-39 280h61q45 0 74.5 3.5t49.5 18.5t30 27.5t15.5 48.5t6 61.5t0.5 85.5v7v6z" />
    <glyph glyph-name="k.sc" unicode="&#xf76b;" horiz-adv-x="1271" 
d="M119 1090h356v-398l303 398h383l-366 -494l477 -596h-447l-350 436v-436h-356v1090z" />
    <glyph glyph-name="l.sc" unicode="&#xf76c;" horiz-adv-x="1032" 
d="M119 1090h356v-799h520v-291h-876v1090z" />
    <glyph glyph-name="m.sc" unicode="&#xf76d;" horiz-adv-x="1495" 
d="M748 680l372 410h256v-1090h-356v537l-256 -297h-35l-262 297v-537h-348v1090h254z" />
    <glyph glyph-name="n.sc" unicode="&#xf76e;" horiz-adv-x="1333" 
d="M119 1090h315l424 -500v500h356v-1090h-292l-447 535v-535h-356v1090z" />
    <glyph glyph-name="o.sc" unicode="&#xf76f;" horiz-adv-x="1366" 
d="M70 543q0 106 45.5 207.5t124 180t194 126t246.5 47.5q115 0 225.5 -40t197.5 -111t140 -177t53 -229q0 -113 -46.5 -216t-126.5 -179t-195 -121t-246 -45q-165 0 -305 70t-223.5 198.5t-83.5 288.5zM682 786q-100 0 -171 -70.5t-71 -170.5t71 -171t171 -71t172 71
t72 171q0 99 -72 170t-172 71z" />
    <glyph glyph-name="p.sc" unicode="&#xf770;" horiz-adv-x="1140" 
d="M119 0v1090h592q91 0 165 -33t118.5 -85.5t68.5 -113t24 -119.5q0 -68 -23.5 -131.5t-68.5 -116t-118.5 -84.5t-165.5 -32h-236v-375h-356zM475 844v-223h115q21 0 33.5 0.5t35.5 6.5t36.5 17.5t24.5 35t11 56.5q0 30 -11 51.5t-24.5 32t-36 16t-36 6.5t-33.5 1h-115z
" />
    <glyph glyph-name="q.sc" unicode="&#xf771;" horiz-adv-x="1366" 
d="M1321 -74l-242 -207q-107 25 -192 53.5t-138.5 52t-109.5 61.5t-84 61.5t-84 72.5q-174 55 -287.5 194t-113.5 325q0 104 43.5 205t120 181t193.5 129.5t253 49.5q115 0 225.5 -40t197.5 -111t140 -177t53 -229q0 -163 -84.5 -292.5t-236.5 -203.5q12 -11 32.5 -22.5
t50 -22.5t54 -20t61.5 -19.5t56 -16t53.5 -14.5t38.5 -10zM682 786q-100 0 -171 -70.5t-71 -170.5t71 -171t171 -71t172 71t72 171q0 99 -72 170t-172 71z" />
    <glyph glyph-name="r.sc" unicode="&#xf772;" horiz-adv-x="1198" 
d="M119 0v1090h518q113 0 198 -19.5t135.5 -51t82 -77.5t42.5 -91.5t11 -100.5q0 -77 -36 -155t-107 -126q34 -25 61 -72.5t70 -156.5q71 -179 96 -240h-383q-68 243 -105 309q-23 42 -46.5 57t-61.5 15h-119v-381h-356zM475 844v-248h107q71 0 112 34t41 91t-40.5 90
t-110.5 33h-109z" />
    <glyph glyph-name="s.sc" unicode="&#xf773;" horiz-adv-x="1003" 
d="M899 1022v-279q-6 3 -35.5 18.5t-44 22t-46 20.5t-56 21.5t-57.5 16t-67 12.5t-69 4q-56 0 -81 -24.5t-25 -57.5q0 -9 2 -16.5t8.5 -14.5t13 -12.5t20 -12.5t25.5 -12.5t34 -14t40 -15.5t48.5 -19t56.5 -22q86 -34 144.5 -74.5t86 -83.5t37.5 -80t10 -80
q0 -147 -122 -240t-312 -93q-221 0 -424 90v305q155 -87 248 -114t182 -27q33 0 52.5 15t19.5 40q0 19 -4 29.5t-24 29t-70.5 41.5t-135.5 54q-288 104 -288 329q0 45 14 89t47 87.5t82 76t124.5 53t168.5 20.5q119 0 205.5 -20.5t191.5 -61.5z" />
    <glyph glyph-name="t.sc" unicode="&#xf774;" horiz-adv-x="1171" 
d="M1122 1090v-304h-358v-786h-356v786h-359v304h1073z" />
    <glyph glyph-name="u.sc" unicode="&#xf775;" horiz-adv-x="1323" 
d="M106 1090h359v-547q0 -110 54 -175t151 -65q188 0 188 229v558h359v-601q0 -503 -562 -503q-124 0 -223 29t-172.5 88t-113.5 154.5t-40 221.5v611z" />
    <glyph glyph-name="v.sc" unicode="&#xf776;" horiz-adv-x="1212" 
d="M520 -14l-516 1104h367l233 -551l238 551h366l-518 -1104h-170z" />
    <glyph glyph-name="w.sc" unicode="&#xf777;" horiz-adv-x="1906" 
d="M1055 1090l241 -545l242 545h369l-525 -1104h-149l-281 639l-278 -639h-152l-522 1104h367l241 -545l242 545h205z" />
    <glyph glyph-name="x.sc" unicode="&#xf778;" horiz-adv-x="1372" 
d="M4 0l463 567l-428 523h438l209 -314l209 314h436l-428 -523l465 -567h-436l-246 356l-246 -356h-436z" />
    <glyph glyph-name="y.sc" unicode="&#xf779;" horiz-adv-x="1206" 
d="M0 1090h385l217 -394l219 394h385l-424 -662v-428h-356v428z" />
    <glyph glyph-name="z.sc" unicode="&#xf77a;" horiz-adv-x="1144" 
d="M1108 0h-1079l516 795h-482v295h1029l-508 -795h524v-295z" />
    <glyph glyph-name="agrave.sc" unicode="&#xf7e0;" horiz-adv-x="1292" 
d="M1288 0h-409l-56 150h-401l-41 -150h-377l410 1090h397zM743 371l-145 356l-113 -356h258zM866 1239h-192l-369 317h389z" />
    <glyph glyph-name="aacute.sc" unicode="&#xf7e1;" horiz-adv-x="1292" 
d="M1288 0h-409l-56 150h-401l-41 -150h-377l410 1090h397zM743 371l-145 356l-113 -356h258zM438 1239l172 317h389l-368 -317h-193z" />
    <glyph glyph-name="acircumflex.sc" unicode="&#xf7e2;" horiz-adv-x="1292" 
d="M1288 0h-409l-56 150h-401l-41 -150h-377l410 1090h397zM743 371l-145 356l-113 -356h258zM1010 1239h-215l-181 184l-182 -184h-215l182 346h428z" />
    <glyph glyph-name="atilde.sc" unicode="&#xf7e3;" horiz-adv-x="1292" 
d="M1288 0h-409l-56 150h-401l-41 -150h-377l410 1090h397zM743 371l-145 356l-113 -356h258zM881 1559h161q0 -153 -63.5 -236.5t-171.5 -83.5q-56 0 -171.5 43t-143.5 43q-40 0 -59 -25.5t-23 -60.5h-160q0 82 22.5 146.5t58.5 101t75 54.5t77 18q43 0 174 -43
q118 -46 146 -46q38 0 58 28t20 61z" />
    <glyph glyph-name="adieresis.sc" unicode="&#xf7e4;" horiz-adv-x="1292" 
d="M1288 0h-409l-56 150h-401l-41 -150h-377l410 1090h397zM743 371l-145 356l-113 -356h258zM221 1376q0 56 39.5 96.5t97.5 40.5t98 -40.5t40 -96.5q0 -57 -40 -97t-98 -40t-97.5 40.5t-39.5 96.5zM731 1376q0 57 39 97t98 40q58 0 98 -40.5t40 -96.5q0 -57 -40 -97
t-98 -40q-59 0 -98 40t-39 97z" />
    <glyph glyph-name="aring.sc" unicode="&#xf7e5;" horiz-adv-x="1292" 
d="M1288 0h-409l-56 150h-401l-41 -150h-377l410 1090h397zM743 371l-145 356l-113 -356h258zM612 1649q86 0 146.5 -59.5t60.5 -145.5t-60.5 -146.5t-146.5 -60.5t-145 60t-59 147q0 86 59 145.5t145 59.5zM612 1550q-44 0 -75 -31t-31 -75q0 -45 31 -77t75 -32t76.5 32.5
t32.5 76.5t-32 75t-77 31z" />
    <glyph glyph-name="ae.sc" unicode="&#xf7e6;" horiz-adv-x="1730" 
d="M813 0v166h-344l-96 -166h-373l672 1090h964v-250h-467v-174h443v-236h-443v-180h480v-250h-836zM596 416h217v360z" />
    <glyph glyph-name="ccedilla.sc" unicode="&#xf7e7;" horiz-adv-x="1216" 
d="M774 -10l-22 -49q82 -20 126 -64.5t44 -107.5q0 -86 -80.5 -142.5t-249.5 -56.5h-197v137q43 0 74.5 3t62 10.5t46.5 24.5t16 42q0 31 -26 48t-70 15l104 142q-247 27 -389.5 180.5t-142.5 370.5q0 116 43 216.5t125 178t212.5 122t294.5 44.5q216 0 369 -86v-326
q-32 26 -56.5 43t-72 41.5t-110.5 37.5t-138 13q-137 0 -217 -81t-80 -201q0 -130 85 -206.5t202 -76.5q68 0 143.5 22t124 45.5t131.5 67.5v-293q-61 -36 -98.5 -54t-103 -35.5t-150.5 -24.5z" />
    <glyph glyph-name="egrave.sc" unicode="&#xf7e8;" horiz-adv-x="1050" 
d="M956 1090v-250h-481v-164h459v-236h-459v-190h494v-250h-850v1090h837zM745 1239h-192l-369 317h389z" />
    <glyph glyph-name="eacute.sc" unicode="&#xf7e9;" horiz-adv-x="1050" 
d="M956 1090v-250h-481v-164h459v-236h-459v-190h494v-250h-850v1090h837zM350 1239l172 317h389l-368 -317h-193z" />
    <glyph glyph-name="ecircumflex.sc" unicode="&#xf7ea;" horiz-adv-x="1050" 
d="M956 1090v-250h-481v-164h459v-236h-459v-190h494v-250h-850v1090h837zM922 1239h-215l-181 184l-182 -184h-215l182 346h428z" />
    <glyph glyph-name="edieresis.sc" unicode="&#xf7eb;" horiz-adv-x="1050" 
d="M956 1090v-250h-481v-164h459v-236h-459v-190h494v-250h-850v1090h837zM133 1376q0 56 39.5 96.5t97.5 40.5t98 -40.5t40 -96.5q0 -57 -40 -97t-98 -40t-97.5 40.5t-39.5 96.5zM643 1376q0 57 39 97t98 40q58 0 98 -40.5t40 -96.5q0 -57 -40 -97t-98 -40q-59 0 -98 40
t-39 97z" />
    <glyph glyph-name="igrave.sc" unicode="&#xf7ec;" horiz-adv-x="593" 
d="M475 1090v-1090h-356v1090h356zM518 1239h-192l-369 317h389z" />
    <glyph glyph-name="iacute.sc" unicode="&#xf7ed;" horiz-adv-x="593" 
d="M475 1090v-1090h-356v1090h356zM90 1239l172 317h389l-368 -317h-193z" />
    <glyph glyph-name="icircumflex.sc" unicode="&#xf7ee;" horiz-adv-x="593" 
d="M475 1090v-1090h-356v1090h356zM694 1239h-215l-180 184l-182 -184h-215l182 346h428z" />
    <glyph glyph-name="idieresis.sc" unicode="&#xf7ef;" horiz-adv-x="593" 
d="M475 1090v-1090h-356v1090h356zM-94 1376q0 56 39.5 96.5t97.5 40.5t97.5 -40.5t39.5 -96.5q0 -57 -39.5 -97t-97.5 -40t-97.5 40.5t-39.5 96.5zM416 1376q0 57 39 97t98 40q58 0 97.5 -40.5t39.5 -96.5q0 -57 -39.5 -97t-97.5 -40q-59 0 -98 40t-39 97z" />
    <glyph glyph-name="eth.sc" unicode="&#xf7f0;" horiz-adv-x="1271" 
d="M119 471h-109v150h109v469h463q109 0 200.5 -22t154 -57t111 -83.5t77 -98.5t46.5 -104.5t24.5 -98t6.5 -83.5q0 -43 -6.5 -88t-25.5 -99.5t-48 -103.5t-77.5 -96t-111.5 -81t-154 -54.5t-199 -20.5h-461v471zM473 471v-195h117q54 0 96.5 17t69 44t44 63t24.5 71.5
t7 71.5q0 39 -7 75t-24.5 72t-44 63t-69 43.5t-96.5 16.5h-117v-192h174v-150h-174z" />
    <glyph glyph-name="ntilde.sc" unicode="&#xf7f1;" horiz-adv-x="1333" 
d="M119 1090h315l424 -500v500h356v-1090h-292l-447 535v-535h-356v1090zM901 1559h162q0 -152 -64 -236t-172 -84q-55 0 -171 43t-144 43q-40 0 -59 -25.5t-23 -60.5h-160q0 82 22.5 146.5t58.5 101t75.5 54.5t77.5 18q43 0 174 -43q118 -46 145 -46q38 0 58 28t20 61z" />
    <glyph glyph-name="ograve.sc" unicode="&#xf7f2;" horiz-adv-x="1366" 
d="M70 543q0 106 45.5 207.5t124 180t194 126t246.5 47.5q115 0 225.5 -40t197.5 -111t140 -177t53 -229q0 -113 -46.5 -216t-126.5 -179t-195 -121t-246 -45q-165 0 -305 70t-223.5 198.5t-83.5 288.5zM682 786q-100 0 -171 -70.5t-71 -170.5t71 -171t171 -71t172 71
t72 171q0 99 -72 170t-172 71zM903 1239h-192l-369 317h389z" />
    <glyph glyph-name="oacute.sc" unicode="&#xf7f3;" horiz-adv-x="1366" 
d="M70 543q0 106 45.5 207.5t124 180t194 126t246.5 47.5q115 0 225.5 -40t197.5 -111t140 -177t53 -229q0 -113 -46.5 -216t-126.5 -179t-195 -121t-246 -45q-165 0 -305 70t-223.5 198.5t-83.5 288.5zM682 786q-100 0 -171 -70.5t-71 -170.5t71 -171t171 -71t172 71
t72 171q0 99 -72 170t-172 71zM508 1239l172 317h389l-369 -317h-192z" />
    <glyph glyph-name="ocircumflex.sc" unicode="&#xf7f4;" horiz-adv-x="1366" 
d="M70 543q0 106 45.5 207.5t124 180t194 126t246.5 47.5q115 0 225.5 -40t197.5 -111t140 -177t53 -229q0 -113 -46.5 -216t-126.5 -179t-195 -121t-246 -45q-165 0 -305 70t-223.5 198.5t-83.5 288.5zM682 786q-100 0 -171 -70.5t-71 -170.5t71 -171t171 -71t172 71
t72 171q0 99 -72 170t-172 71zM1079 1239h-215l-180 184l-182 -184h-215l182 346h428z" />
    <glyph glyph-name="otilde.sc" unicode="&#xf7f5;" horiz-adv-x="1366" 
d="M70 543q0 106 45.5 207.5t124 180t194 126t246.5 47.5q115 0 225.5 -40t197.5 -111t140 -177t53 -229q0 -113 -46.5 -216t-126.5 -179t-195 -121t-246 -45q-165 0 -305 70t-223.5 198.5t-83.5 288.5zM682 786q-100 0 -171 -70.5t-71 -170.5t71 -171t171 -71t172 71
t72 171q0 99 -72 170t-172 71zM918 1559h161q0 -153 -63.5 -236.5t-171.5 -83.5q-56 0 -172 43t-144 43q-40 0 -59 -25.5t-23 -60.5h-159q0 82 22.5 146.5t58.5 101t75 54.5t77 18q43 0 174 -43q118 -46 146 -46q38 0 58 28t20 61z" />
    <glyph glyph-name="odieresis.sc" unicode="&#xf7f6;" horiz-adv-x="1366" 
d="M70 543q0 106 45.5 207.5t124 180t194 126t246.5 47.5q115 0 225.5 -40t197.5 -111t140 -177t53 -229q0 -113 -46.5 -216t-126.5 -179t-195 -121t-246 -45q-165 0 -305 70t-223.5 198.5t-83.5 288.5zM682 786q-100 0 -171 -70.5t-71 -170.5t71 -171t171 -71t172 71
t72 171q0 99 -72 170t-172 71zM291 1376q0 56 39.5 96.5t97.5 40.5t97.5 -40.5t39.5 -96.5q0 -57 -39.5 -97t-97.5 -40t-97.5 40.5t-39.5 96.5zM801 1376q0 57 39 97t98 40q58 0 97.5 -40.5t39.5 -96.5q0 -57 -39.5 -97t-97.5 -40q-59 0 -98 40t-39 97z" />
    <glyph glyph-name="oslash.sc" unicode="&#xf7f8;" horiz-adv-x="1366" 
d="M469 430l328 328q-50 28 -115 28q-59 0 -107.5 -24t-77.5 -63t-44 -86t-10.5 -95.5t26.5 -87.5zM213 176q-143 164 -143 367q0 76 24.5 153.5t75.5 151t121.5 130.5t171.5 91.5t217 34.5q201 0 360 -105l117 117l92 -92l-106 -106q153 -135 153 -371q0 -117 -46.5 -220.5
t-127.5 -178.5t-195.5 -118.5t-244.5 -43.5q-113 0 -199.5 27t-171.5 81l-123 -123l-90 90zM555 340q54 -37 133 -37q72 0 139.5 51t91.5 133t-30 185z" />
    <glyph glyph-name="ugrave.sc" unicode="&#xf7f9;" horiz-adv-x="1323" 
d="M106 1090h359v-547q0 -110 54 -175t151 -65q188 0 188 229v558h359v-601q0 -503 -562 -503q-124 0 -223 29t-172.5 88t-113.5 154.5t-40 221.5v611zM883 1239h-193l-368 317h389z" />
    <glyph glyph-name="uacute.sc" unicode="&#xf7fa;" horiz-adv-x="1323" 
d="M106 1090h359v-547q0 -110 54 -175t151 -65q188 0 188 229v558h359v-601q0 -503 -562 -503q-124 0 -223 29t-172.5 88t-113.5 154.5t-40 221.5v611zM487 1239l172 317h390l-369 -317h-193z" />
    <glyph glyph-name="ucircumflex.sc" unicode="&#xf7fb;" horiz-adv-x="1323" 
d="M106 1090h359v-547q0 -110 54 -175t151 -65q188 0 188 229v558h359v-601q0 -503 -562 -503q-124 0 -223 29t-172.5 88t-113.5 154.5t-40 221.5v611zM1059 1239h-215l-180 184l-183 -184h-215l183 346h428z" />
    <glyph glyph-name="udieresis.sc" unicode="&#xf7fc;" horiz-adv-x="1323" 
d="M106 1090h359v-547q0 -110 54 -175t151 -65q188 0 188 229v558h359v-601q0 -503 -562 -503q-124 0 -223 29t-172.5 88t-113.5 154.5t-40 221.5v611zM270 1376q0 56 40 96.5t98 40.5t97.5 -40.5t39.5 -96.5q0 -57 -39.5 -97t-97.5 -40t-98 40.5t-40 96.5zM780 1376
q0 56 39.5 96.5t98.5 40.5q58 0 97.5 -40.5t39.5 -96.5q0 -57 -39.5 -97t-97.5 -40q-59 0 -98.5 40.5t-39.5 96.5z" />
    <glyph glyph-name="yacute.sc" unicode="&#xf7fd;" horiz-adv-x="1206" 
d="M0 1090h385l217 -394l219 394h385l-424 -662v-428h-356v428zM428 1239l172 317h389l-368 -317h-193z" />
    <glyph glyph-name="thorn.sc" unicode="&#xf7fe;" horiz-adv-x="1140" 
d="M119 0v1090h356v-187h236q89 0 163 -33t119 -85.5t69.5 -112.5t24.5 -119q0 -68 -23.5 -131.5t-68.5 -116.5t-118.5 -85t-165.5 -32h-236v-188h-356zM475 657v-223h115q21 0 33.5 1t35.5 7t36.5 17t24.5 35t11 57q0 30 -11 51.5t-24.5 32t-36.5 16t-35.5 6t-33.5 0.5
h-115z" />
    <glyph glyph-name="ydieresis.sc" unicode="&#xf7ff;" horiz-adv-x="1206" 
d="M0 1090h385l217 -394l219 394h385l-424 -662v-428h-356v428zM211 1376q0 56 39.5 96.5t97.5 40.5t97.5 -40.5t39.5 -96.5q0 -57 -39.5 -97t-97.5 -40t-97.5 40.5t-39.5 96.5zM721 1376q0 57 39 97t98 40q58 0 97.5 -40.5t39.5 -96.5q0 -57 -39.5 -97t-97.5 -40
q-59 0 -98 40t-39 97z" />
    </font>
</defs>
</svg>
