<?xml version="1.0" standalone="no"?>
<!DOCTYPE svg PUBLIC "-//W3C//DTD SVG 1.1//EN" "http://www.w3.org/Graphics/SVG/1.1/DTD/svg11.dtd" >
<svg xmlns="http://www.w3.org/2000/svg" xmlns:xlink="http://www.w3.org/1999/xlink" version="1.1">
<metadata>
Created by FontForge 20170731 at Thu May  6 13:46:54 2021
 By Aleksey,,,
Font software Copyright 1990, 1991, 1998 Adobe Systems Incorporated. Typeface designs Copyright The Monotype Corporation. All rights reserved.
</metadata>
<defs>
<font id="GillSans-Italic" horiz-adv-x="661" >
  <font-face 
    font-family="Gill Sans"
    font-weight="400"
    font-style="italic"
    font-stretch="normal"
    units-per-em="2048"
    panose-1="2 11 5 2 2 1 4 9 2 3"
    ascent="1397"
    descent="-651"
    x-height="920"
    cap-height="1397"
    bbox="-426 -471 2159 1866"
    underline-thickness="102"
    underline-position="-307"
    slope="-12"
    unicode-range="U+0020-FB04"
  />
<missing-glyph horiz-adv-x="1024" 
d="M25 0v1362h972v-1362h-972zM180 1266l332 -498l330 498h-662zM123 1178v-992q0 -1 82.5 123t164.5 249l83 124zM901 1178l-332 -496l332 -498v994zM842 98l-330 496l-332 -496h662z" />
    <glyph glyph-name="fi" unicode="fi" horiz-adv-x="940" 
d="M610 920l-16 -111h-227l-179 -1202h-131l179 1202h-166l16 111h164l29 147q19 97 54.5 165.5t86 108t109 57t130.5 17.5q106 0 175 -58t69 -155h-127q-3 50 -42.5 77.5t-86.5 27.5q-28 0 -51.5 -4.5t-55 -20.5t-56 -44t-47.5 -80.5t-36 -123.5l-20 -114h229zM879 920
l-134 -920h-133l133 920h134z" />
    <glyph glyph-name="fl" unicode="fl" horiz-adv-x="940" 
d="M946 1397l-203 -1397h-131l201 1397h133zM586 920l-17 -111h-202l-174 -1202h-132l175 1202h-168l18 111h166l14 92q3 20 5 32.5t9.5 46t16 57.5t24 60t34.5 62.5t47.5 55.5t61 47t77.5 30t96 12t98 -14l-16 -115q-58 10 -86 10q-94 0 -157 -72.5t-81 -209.5l-12 -94h203
z" />
    <glyph glyph-name="f_f" unicode="ff" horiz-adv-x="940" 
d="M659 1415q141 0 254 -88q120 88 265 88q62 0 137 -24l-21 -109q-68 18 -127 18q-46 0 -86.5 -13.5t-79 -44.5t-67 -89.5t-41.5 -140.5l-14 -92h192l-12 -111h-197l-178 -1206h-131l178 1206h-362q-30 -201 -90.5 -602.5t-90.5 -603.5h-131l179 1206h-168l20 111h162
q20 118 49.5 203.5t76 154t117.5 103t166 34.5zM383 920h362q21 127 37.5 189.5t51.5 133.5q-81 62 -177 62q-52 0 -94 -18.5t-69.5 -52.5t-47.5 -70.5t-33 -85.5t-19 -82.5t-11 -75.5z" />
    <glyph glyph-name="f_f_i" unicode="ffi" horiz-adv-x="1435" 
d="M1106 920l-16 -111h-228l-178 -1202h-131l178 1202h-362q-30 -201 -90.5 -602.5t-90.5 -603.5h-131l179 1206h-168l20 111h162q20 118 49.5 203.5t76 154t117.5 103t166 34.5q133 0 246 -84q94 84 250 84q106 0 175 -58t69 -155h-127q-3 50 -42.5 77.5t-86.5 27.5
q-28 0 -51.5 -4.5t-55 -20.5t-56 -44t-47.5 -80.5t-36 -123.5l-20 -114h229zM383 920h362l29 147q15 90 60 174q-76 64 -177 64q-52 0 -94 -18.5t-69.5 -52.5t-47.5 -70.5t-33 -85.5t-19 -82.5t-11 -75.5zM1374 920l-133 -920h-133l133 920h133z" />
    <glyph glyph-name="f_f_l" unicode="ffl" horiz-adv-x="1435" 
d="M1079 920l-16 -111h-203l-174 -1202h-131l174 1202h-360q-30 -201 -90.5 -602.5t-90.5 -603.5h-131l179 1206h-168l20 111h162q20 118 49.5 203.5t76 154t117.5 103t166 34.5q133 0 244 -82q92 82 227 82q52 0 99 -14l-17 -115q-57 10 -86 10q-94 0 -156.5 -72.5
t-80.5 -209.5l-12 -94h202zM1440 1397l-203 -1397h-131l201 1397h133zM383 920h362l15 92q15 132 71 231q-78 62 -174 62q-52 0 -94 -18.5t-69.5 -52.5t-47.5 -70.5t-33 -85.5t-19 -82.5t-11 -75.5z" />
    <glyph glyph-name=".notdef" horiz-adv-x="1024" 
d="M25 0v1362h972v-1362h-972zM180 1266l332 -498l330 498h-662zM123 1178v-992q0 -1 82.5 123t164.5 249l83 124zM901 1178l-332 -496l332 -498v994zM842 98l-330 496l-332 -496h662z" />
    <glyph glyph-name=".null" horiz-adv-x="0" 
 />
    <glyph glyph-name="nonmarkingreturn" horiz-adv-x="682" 
 />
    <glyph glyph-name="space" unicode=" " horiz-adv-x="534" 
 />
    <glyph glyph-name="exclam" unicode="!" horiz-adv-x="491" 
d="M268 424h-69q8 68 15 144t10.5 124t13.5 201t16 244q0 1 1.5 22t3 33.5t4.5 38t7 43t10.5 41t16 39.5t21 31t27 22.5t34.5 7.5q35 0 54.5 -30.5t19.5 -75.5q0 -62 -18.5 -148.5t-76.5 -314.5q-26 -99 -71 -328q-13 -70 -19 -94zM203 203q46 0 78 -32.5t32 -78.5t-32 -78
t-78 -32t-78.5 32t-32.5 78t32.5 78.5t78.5 32.5z" />
    <glyph glyph-name="quotedbl" unicode="&#x22;" horiz-adv-x="700" 
d="M539 885v270l32 242h152l-33 -242l-76 -270h-75zM217 885v270l33 242h151l-32 -242l-76 -270h-76z" />
    <glyph glyph-name="numbersign" unicode="#" horiz-adv-x="1366" 
d="M123 1010h326l88 405h122l-88 -405h422l84 405h123l-86 -405h199v-123h-223l-76 -371h299v-123h-324l-86 -401h-123l86 401h-422l-84 -401h-122l84 401h-199v123h223l78 371h-301v123zM967 887h-420l-78 -371h422z" />
    <glyph glyph-name="dollar" unicode="$" horiz-adv-x="1067" 
d="M729 1438l-16 -105q161 -21 256 -84l-19 -139q-101 65 -256 90l-71 -491q151 -79 227 -169.5t76 -203.5q0 -139 -114 -241.5t-294 -112.5l-31 -211h-122l30 211q-174 17 -295 102l23 149q74 -47 139 -74.5t152 -39.5l73 497q-80 45 -131 81t-92 79.5t-59.5 93
t-18.5 111.5q0 143 114 244t290 108l18 105h121zM508 776l63 428q-28 -2 -56.5 -8.5t-62.5 -22.5t-59.5 -39t-43 -60.5t-17.5 -84.5q0 -32 10 -59.5t23 -45.5t41 -40t46 -33.5t56 -34.5zM600 551l-63 -438q42 4 82.5 17.5t78.5 37t61 64t23 92.5q0 135 -182 227z" />
    <glyph glyph-name="percent" unicode="%" horiz-adv-x="1429" 
d="M1087 621q132 0 226 -94t94 -226t-94 -225.5t-226 -93.5t-225.5 93.5t-93.5 225.5t93.5 226t225.5 94zM1087 100q83 0 142 59t59 142t-59 142t-142 59t-141.5 -59t-58.5 -142t58.5 -142t141.5 -59zM412 1415q132 0 225.5 -93.5t93.5 -225.5t-93.5 -226t-225.5 -94
t-226 94t-94 226t94 225.5t226 93.5zM412 895q83 0 141.5 59t58.5 142t-58.5 141.5t-141.5 58.5t-142 -58.5t-59 -141.5t59 -142t142 -59zM1325 1397l-1022 -1397h-129l1022 1397h129z" />
    <glyph glyph-name="ampersand" unicode="&#x26;" horiz-adv-x="1359" 
d="M1313 104l-60 -116q-24 -6 -39 -6q-173 0 -321 151q-47 -34 -73.5 -50.5t-81.5 -45t-117 -42t-132 -13.5q-83 0 -152.5 24t-115 62.5t-77.5 88t-46 99.5t-14 98q0 58 14 108.5t49 106t103 110t168 103.5q-90 176 -90 293q0 74 21.5 134.5t55.5 98t77.5 62.5t84 35
t78.5 10q117 0 198 -77.5t81 -202.5q0 -106 -73.5 -204.5t-256.5 -197.5q119 -219 299 -424q159 164 256 381h141q-97 -245 -303 -469q59 -59 142.5 -90t144.5 -31q19 0 39 4zM537 840q69 39 117.5 77t73.5 66t38 59.5t15.5 49t2.5 43.5q0 63 -40 108t-109 45
q-67 0 -117.5 -50t-50.5 -157q0 -47 14 -95t56 -146zM479 670q-91 -48 -137 -88q-110 -98 -111 -224q0 -96 75.5 -172.5t199.5 -76.5q63 0 126.5 22t94 40.5t72.5 49.5q-161 169 -320 449z" />
    <glyph glyph-name="quotesingle" unicode="'" horiz-adv-x="405" 
d="M227 885v270l33 242h152l-33 -242l-76 -270h-76z" />
    <glyph glyph-name="parenleft" unicode="(" horiz-adv-x="618" 
d="M410 -471h-93q-91 166 -147.5 382.5t-56.5 401.5q0 146 37 295t88.5 262t125 227t128 182t116.5 136h105q-96 -107 -178 -236t-148 -280t-103.5 -325.5t-37.5 -350.5q0 -149 36.5 -332t127.5 -362z" />
    <glyph glyph-name="parenright" unicode=")" horiz-adv-x="618" 
d="M166 1415h92q91 -167 148 -383t57 -401q0 -558 -496 -1102h-104q96 107 178 236t148 280t103.5 325.5t37.5 350.5q0 149 -36.5 332t-127.5 362z" />
    <glyph glyph-name="asterisk" unicode="*" horiz-adv-x="768" 
d="M510 1071l147 139q43 43 80 43q20 0 37 -17.5t17 -43.5q0 -29 -18 -45.5t-66 -34.5l-187 -68q8 -23 0 -38l176 -64q97 -31 97 -86q0 -18 -16.5 -39.5t-41.5 -21.5q-39 0 -98 59l-127 127q-16 -16 -35 -18l35 -187q8 -50 8 -84q0 -22 -14.5 -41.5t-42.5 -19.5
q-33 0 -47.5 19t-14.5 44q0 6 15 86l35 183q-22 4 -33 18l-137 -127q-63 -57 -95 -57q-29 0 -43 20.5t-14 42.5q0 25 20 41.5t84 40.5l172 64q-4 8 -4 18q0 8 4 20l-196 74q-76 28 -76 74q0 26 17 44.5t40 18.5q13 0 32 -10.5t29.5 -19.5t16.5 -15l150 -139q12 16 33 16
l-33 177q-13 63 -13 77q0 33 15.5 53.5t44.5 20.5q57 0 57 -67q0 -26 -10 -84l-35 -177q17 2 35 -16z" />
    <glyph glyph-name="plus" unicode="+" horiz-adv-x="1366" 
d="M174 764h477v477h133v-477h478v-133h-478v-477h-133v477h-477v133z" />
    <glyph glyph-name="comma" unicode="," horiz-adv-x="491" 
d="M14 -248l11 82q59 12 98.5 55t26.5 107q-74 32 -74 98q0 40 27.5 74.5t84.5 34.5q56 0 90.5 -42t34.5 -106q0 -104 -78.5 -194t-220.5 -109z" />
    <glyph glyph-name="hyphen" unicode="-" horiz-adv-x="532" 
d="M518 508l-16 -94h-484l13 94h487z" />
    <glyph glyph-name="period" unicode="." horiz-adv-x="491" 
d="M190 203q46 0 78.5 -32.5t32.5 -78.5t-32.5 -78t-78.5 -32t-78 32t-32 78t32 78.5t78 32.5z" />
    <glyph glyph-name="slash" unicode="/" horiz-adv-x="888" 
d="M868 1415h138l-717 -1433h-137z" />
    <glyph glyph-name="zero" unicode="0" horiz-adv-x="1067" 
d="M1022 934q0 -118 -19 -244t-62.5 -254t-106.5 -228t-158.5 -163t-210.5 -63q-173 0 -261.5 132t-88.5 357q0 134 22 267t68 255.5t110.5 216t156.5 149.5t200 56q159 0 254.5 -122.5t95.5 -358.5zM471 109q74 0 141.5 54t115.5 140.5t84 194t53.5 216.5t17.5 206
q0 66 -9.5 124.5t-31.5 116.5t-66.5 92.5t-107.5 34.5q-81 0 -151.5 -62t-117 -155.5t-80.5 -205t-49.5 -208.5t-15.5 -168q0 -24 0.5 -44t5 -61.5t12 -74t24 -72t38.5 -66t57.5 -44.5t79.5 -18z" />
    <glyph glyph-name="one" unicode="1" horiz-adv-x="1067" 
d="M752 1405l-217 -1405h-138l217 1405h138z" />
    <glyph glyph-name="two" unicode="2" horiz-adv-x="1067" 
d="M901 127l-18 -127h-824q10 12 59.5 70.5t60 70.5t53 62t55 66t49 59.5t52.5 64t47 59.5t52.5 67t48 63.5t52.5 70.5q108 148 159.5 245t51.5 185q0 98 -64 148.5t-149 50.5q-70 0 -146.5 -27t-181.5 -98l23 152q182 106 323 106q154 0 244 -91t90 -222q0 -118 -59.5 -237
t-216.5 -326q-223 -292 -328 -412h567z" />
    <glyph glyph-name="three" unicode="3" horiz-adv-x="1067" 
d="M72 72l18 131q166 -94 326 -94q71 0 129 19.5t95 50t62 71.5t35.5 82t10.5 82q0 108 -73.5 178.5t-215.5 73.5l16 114q94 4 165 30t111.5 66t60 85.5t19.5 95.5q0 41 -15 80t-45 74t-84.5 56t-125.5 21q-89 0 -163 -27.5t-109 -56.5l20 142q135 69 287 69
q156 0 265.5 -98t109.5 -256q0 -245 -281 -344q97 -37 147 -117.5t50 -187.5q0 -58 -16 -115.5t-52.5 -115t-89.5 -101.5t-134.5 -71t-180.5 -27q-173 0 -342 90z" />
    <glyph glyph-name="four" unicode="4" horiz-adv-x="1067" 
d="M907 1415l-127 -852h217l-16 -110h-219l-70 -453h-135l72 453h-543v59l750 903h71zM645 563l82 545l-459 -545h377z" />
    <glyph glyph-name="five" unicode="5" horiz-adv-x="1067" 
d="M977 1397l-19 -127h-450l-62 -398q25 5 64 5q66 0 132.5 -26t123 -75t92 -129t35.5 -178q0 -94 -35 -181.5t-98.5 -155.5t-161 -109t-213.5 -41q-199 0 -342 110l51 119q151 -102 289 -102q111 0 197.5 53t130 133.5t43.5 171.5q0 132 -84 211.5t-219 79.5
q-26 0 -53.5 -3t-40.5 -6t-40 -9.5t-28 -6.5l110 664h578z" />
    <glyph glyph-name="six" unicode="6" horiz-adv-x="1067" 
d="M827 1397l-428 -623q26 24 97 53t157 29q43 0 85 -10.5t83 -35.5t72.5 -62.5t50.5 -95t19 -128.5q0 -100 -37.5 -198.5t-100 -174t-153 -122.5t-189.5 -47q-88 0 -158.5 35t-112.5 91.5t-64.5 123t-22.5 135.5q0 145 58 271.5t188 317.5l301 441h155zM823 500
q0 104 -53 166.5t-158 62.5q-98 0 -179 -52.5t-125 -135.5t-44 -174q0 -45 13 -88t38.5 -80.5t70 -60.5t101.5 -23q75 0 140 35t107 91t65.5 123.5t23.5 135.5z" />
    <glyph glyph-name="seven" unicode="7" horiz-adv-x="1067" 
d="M246 1397h813v-19l-686 -1378h-144l623 1270h-623z" />
    <glyph glyph-name="eight" unicode="8" horiz-adv-x="1067" 
d="M762 731q61 -22 103 -58t61.5 -79.5t27 -80t7.5 -75.5q0 -194 -138 -325t-334 -131q-179 0 -287 112t-108 271q0 40 7.5 80t29 88t55 88t91.5 76t133 57q-33 17 -58 35t-53 49t-43.5 77.5t-15.5 104.5q0 75 28.5 145t80 126t132 90t176.5 34q158 0 257.5 -100.5
t99.5 -243.5q0 -28 -4.5 -58.5t-21 -73t-42 -79t-73.5 -72t-111 -57.5zM612 801q64 0 115.5 25t82.5 64.5t47.5 85t16.5 91.5q0 35 -12 71.5t-36.5 71t-70 56.5t-104.5 22q-56 0 -103.5 -18.5t-78 -47.5t-51.5 -66t-30 -72.5t-9 -67.5q0 -87 63 -151t170 -64zM494 109
q132 0 229.5 88.5t97.5 230.5q0 62 -23.5 111t-62 77.5t-83.5 43t-93 14.5q-130 0 -228 -85.5t-98 -228.5q0 -118 74.5 -184.5t186.5 -66.5z" />
    <glyph glyph-name="nine" unicode="9" horiz-adv-x="1067" 
d="M303 0l428 623q-32 -32 -97.5 -57t-156.5 -25q-38 0 -76.5 8.5t-81.5 32t-75.5 59.5t-54 95.5t-21.5 135.5q0 135 62 259.5t174 204t243 79.5q88 0 158.5 -35t113 -91.5t65 -123t22.5 -135.5q0 -77 -16 -148t-53 -147t-75 -138t-102 -157l-301 -440h-156zM307 897
q0 -99 52 -164t159 -65q98 0 179 52.5t125 135.5t44 174q0 45 -13 88t-38.5 80.5t-70 60.5t-101.5 23q-75 0 -140 -35t-107 -91t-65.5 -123.5t-23.5 -135.5z" />
    <glyph glyph-name="colon" unicode=":" horiz-adv-x="491" 
d="M289 942q46 0 78 -32.5t32 -78.5t-32 -78t-78 -32t-78.5 32t-32.5 78t32.5 78.5t78.5 32.5zM190 203q46 0 78.5 -32.5t32.5 -78.5t-32.5 -78t-78.5 -32t-78 32t-32 78t32 78.5t78 32.5z" />
    <glyph glyph-name="semicolon" unicode=";" horiz-adv-x="491" 
d="M14 -248l11 82q59 12 98.5 55t26.5 107q-74 32 -74 98q0 40 27.5 74.5t84.5 34.5q56 0 90.5 -42t34.5 -106q0 -104 -78.5 -194t-220.5 -109zM289 942q46 0 78 -32.5t32 -78.5t-32 -78t-78 -32t-78.5 32t-32.5 78t32.5 78.5t78.5 32.5z" />
    <glyph glyph-name="semicolon" unicode="&#x37e;" horiz-adv-x="491" 
d="M14 -248l11 82q59 12 98.5 55t26.5 107q-74 32 -74 98q0 40 27.5 74.5t84.5 34.5q56 0 90.5 -42t34.5 -106q0 -104 -78.5 -194t-220.5 -109zM289 942q46 0 78 -32.5t32 -78.5t-32 -78t-78 -32t-78.5 32t-32.5 78t32.5 78.5t78.5 32.5z" />
    <glyph glyph-name="less" unicode="&#x3c;" horiz-adv-x="1366" 
d="M174 758l1088 456v-141l-910 -375l910 -374v-142l-1088 457v119z" />
    <glyph glyph-name="equal" unicode="=" horiz-adv-x="1366" 
d="M174 993h1088v-133h-1088v133zM174 535h1088v-134h-1088v134z" />
    <glyph glyph-name="greater" unicode="&#x3e;" horiz-adv-x="1366" 
d="M1262 639l-1088 -457v142l909 374l-909 375v141l1088 -456v-119z" />
    <glyph glyph-name="question" unicode="?" 
d="M250 350h-82q10 144 61 245t156 216q109 119 146.5 176t37.5 125q0 79 -50.5 131.5t-127.5 52.5q-41 0 -79 -11t-73.5 -34.5t-52.5 -37t-47 -39.5l21 153q127 88 246 88q129 0 212.5 -85.5t83.5 -209.5q0 -72 -31 -140.5t-79 -119.5q-180 -191 -217 -237
q-75 -91 -103 -182q-12 -38 -22 -91zM168 203q46 0 78.5 -32.5t32.5 -78.5t-32.5 -78t-78.5 -32t-78.5 32t-32.5 78t32.5 78.5t78.5 32.5z" />
    <glyph glyph-name="at" unicode="@" horiz-adv-x="1855" 
d="M1245 1006h154l-158 -738q-20 -83 -20 -118q0 -23 17.5 -37.5t39.5 -14.5q38 0 88 24t103 74t97.5 115.5t73.5 159t29 195.5q0 86 -23.5 172t-76 170t-127.5 148.5t-187.5 104t-246.5 39.5q-129 0 -251 -34.5t-228.5 -104.5t-186.5 -167.5t-126 -232.5t-46 -290
q0 -188 65 -337.5t178.5 -244t262.5 -143.5t323 -49q149 0 294.5 41t250.5 123q20 16 38 32t34.5 33.5t25 27t24 28.5t17.5 22h142q-110 -195 -326 -308.5t-498 -113.5q-284 0 -498 107t-331 307.5t-117 468.5q0 173 49 325t136 265t203.5 195t253.5 123.5t284 41.5
q138 0 254.5 -32.5t197 -84.5t144.5 -122t101.5 -141.5t62.5 -147t34 -133t9 -105.5q0 -133 -50.5 -260t-130 -218t-180.5 -146.5t-200 -55.5q-91 0 -128 45.5t-22 130.5q-74 -86 -160.5 -131t-167.5 -45q-65 0 -122 25.5t-98.5 68t-71.5 97.5t-45 116t-15 121q0 110 39 223
t105 204.5t163.5 149.5t204.5 58q111 0 193.5 -59t113.5 -129zM1159 625q0 127 -66.5 207.5t-174.5 80.5q-80 0 -151 -48t-118 -124.5t-74.5 -170t-27.5 -185.5q0 -125 69.5 -210t167.5 -85q100 0 188.5 85t137.5 208t49 242z" />
    <glyph glyph-name="A" unicode="A" horiz-adv-x="1087" 
d="M713 1415l297 -1415h-136l-100 467h-479l-209 -467h-143l639 1415h131zM750 594l-129 618l-271 -618h400z" />
    <glyph glyph-name="B" unicode="B" horiz-adv-x="1067" 
d="M289 1397h207q94 0 169 -23.5t120 -59t75 -83t41.5 -91.5t11.5 -87q0 -99 -55 -172.5t-137 -110.5q45 -16 82 -34.5t78.5 -50t70 -69t47.5 -93.5t19 -122q0 -56 -17.5 -110.5t-57.5 -107.5t-98 -93.5t-146.5 -65t-196.5 -24.5h-416zM506 1276h-92l-66 -457h107
q162 0 234.5 65t72.5 165q0 39 -14.5 77t-43.5 72.5t-80.5 56t-117.5 21.5zM479 698h-147l-86 -577h133q264 0 375.5 69t111.5 209q0 57 -22 108.5t-66 95t-121.5 69.5t-177.5 26z" />
    <glyph glyph-name="C" unicode="C" horiz-adv-x="1148" 
d="M1200 1407l-16 -129q-39 4 -109 4q-158 0 -292 -42.5t-226 -113t-157 -163.5t-95.5 -192t-30.5 -200q0 -107 33.5 -195t90 -144t129 -86.5t151.5 -30.5q55 0 108.5 11t89 22.5t88 40.5t73 42t77.5 50l-24 -175q-91 -55 -199 -89.5t-211 -34.5q-156 0 -283 73t-200.5 206
t-73.5 300q0 185 69.5 344t193 271t300 175.5t383.5 63.5q77 0 131 -8z" />
    <glyph glyph-name="D" unicode="D" horiz-adv-x="1341" 
d="M291 1397h213q149 0 275 -39.5t214.5 -107t151 -158t92 -193t29.5 -211.5q0 -149 -49 -275t-140 -218t-229.5 -143.5t-310.5 -51.5h-451zM489 1270h-75l-168 -1143h211q123 0 224.5 22.5t172 63t122 92.5t81 116.5t43.5 130t14 136.5q0 73 -16.5 147t-61 154.5
t-112.5 141t-180.5 100t-254.5 39.5z" />
    <glyph glyph-name="E" unicode="E" horiz-adv-x="1067" 
d="M1018 1397l-19 -127h-587l-72 -496h541l-19 -127h-540l-78 -520h762l-19 -127h-901l205 1397h727z" />
    <glyph glyph-name="F" unicode="F" horiz-adv-x="856" 
d="M946 1397l-18 -127h-512l-74 -496h479l-18 -127h-477l-99 -647h-141l207 1397h653z" />
    <glyph glyph-name="G" unicode="G" horiz-adv-x="1294" 
d="M1337 1391l-18 -131q-118 22 -229 22q-152 0 -284 -37.5t-228.5 -102.5t-165.5 -151.5t-103.5 -187t-34.5 -207.5q0 -222 128 -354.5t319 -132.5q143 0 307 84l39 280h-256l16 121h402l-70 -481q-219 -131 -452 -131q-161 0 -294 76.5t-211.5 216t-78.5 313.5
q0 128 39 248.5t119.5 225.5t193.5 184t270.5 124t341.5 45q121 0 250 -24z" />
    <glyph glyph-name="H" unicode="H" horiz-adv-x="1429" 
d="M1409 1397l-201 -1397h-145l94 641h-835l-93 -641h-143l201 1397h145l-92 -629h836l88 629h145z" />
    <glyph glyph-name="I" unicode="I" horiz-adv-x="452" 
d="M432 1397l-201 -1397h-145l203 1397h143z" />
    <glyph glyph-name="J" unicode="J" horiz-adv-x="456" 
d="M436 1397l-209 -1444q-23 -155 -55 -229q-85 -195 -317 -195q-65 0 -115 12l-35 140q86 -19 133 -19q121 0 171.5 67t72.5 218l209 1450h145z" />
    <glyph glyph-name="K" unicode="K" horiz-adv-x="1130" 
d="M1204 1397l-704 -641l663 -756h-174l-649 745l-111 -745h-143l205 1397h145l-92 -609l668 609h192z" />
    <glyph glyph-name="L" unicode="L" horiz-adv-x="860" 
d="M436 1397l-188 -1270h598l-17 -127h-743l205 1397h145z" />
    <glyph glyph-name="M" unicode="M" horiz-adv-x="1665" 
d="M1503 1397l25 -1397h-139l-13 1118l-596 -1118h-16l-250 1128l-371 -1128h-141l463 1397h121l233 -1061l563 1061h121z" />
    <glyph glyph-name="N" unicode="N" horiz-adv-x="1404" 
d="M1386 1397l-202 -1403h-72l-727 1112l-162 -1106h-137l203 1397h73l725 -1112l162 1112h137z" />
    <glyph glyph-name="O" unicode="O" horiz-adv-x="1341" 
d="M1288 838q0 -128 -30 -253t-88.5 -233.5t-138 -191.5t-186.5 -130.5t-227 -47.5q-99 0 -186 35t-157 104t-111 184t-41 262q0 92 18.5 188.5t54.5 192t93.5 179.5t130 148.5t170 102t207.5 37.5q98 0 185 -35t156 -103.5t109.5 -181.5t40.5 -257zM1137 864
q0 111 -27.5 195t-76.5 133t-109 72.5t-131 23.5q-122 0 -223.5 -71t-164 -182t-97 -238.5t-34.5 -249.5q0 -97 21 -173.5t55.5 -125t81.5 -81t95 -45.5t100 -13q149 0 267 105t180.5 276.5t62.5 373.5z" />
    <glyph glyph-name="P" unicode="P" horiz-adv-x="940" 
d="M287 1397h237q109 0 192 -26.5t129 -65t75 -92.5t38 -99.5t9 -93.5q0 -84 -30 -157.5t-88 -131t-151 -90.5t-211 -33h-170l-86 -608h-145zM514 1270h-100l-76 -535h147q167 0 248.5 76t81.5 201q0 37 -7 70.5t-27.5 69t-53 60.5t-87.5 41.5t-126 16.5z" />
    <glyph glyph-name="Q" unicode="Q" horiz-adv-x="1341" 
d="M1305 0h16q2 -56 -8 -110t-35 -107t-62.5 -93t-96.5 -64.5t-132 -24.5q-77 0 -147 27.5t-119 69.5t-89.5 96.5t-64.5 102t-39 93.5q-93 17 -165.5 61.5t-116.5 102.5t-72.5 131t-39.5 141.5t-11 140.5q0 78 13 160t41 165.5t67.5 159.5t95.5 142.5t123 115.5t153 77
t181 28q99 0 180.5 -31t138.5 -85t96 -128t57.5 -157.5t18.5 -175.5q0 -90 -16 -182t-47 -183t-81.5 -172t-115 -146.5t-151.5 -109.5t-187 -57q54 -123 140.5 -186.5t185.5 -63.5q106 0 182 68.5t107 193.5zM1137 864q0 111 -27.5 195t-76.5 133t-109 72.5t-131 23.5
q-122 0 -223.5 -71t-164 -182t-97 -238.5t-34.5 -249.5q0 -97 21 -173.5t55.5 -125t81.5 -81t95 -45.5t100 -13q149 0 267 105t180.5 276.5t62.5 373.5z" />
    <glyph glyph-name="R" unicode="R" horiz-adv-x="1087" 
d="M86 0l201 1397h288q187 0 301.5 -92.5t114.5 -270.5q0 -155 -78.5 -238.5t-224.5 -125.5q48 -29 90 -107l293 -563h-156l-227 428q-28 53 -47 85.5t-41 57.5t-37.5 36.5t-44 18.5t-52 8t-69.5 1h-75l-91 -635h-145zM557 1270h-143l-74 -508h135q96 0 166.5 20t107.5 48
t59 67.5t27 69t5 63.5q0 240 -283 240z" />
    <glyph glyph-name="S" unicode="S" horiz-adv-x="897" 
d="M862 1350l-20 -144q-128 76 -236 76q-54 0 -99 -14t-74 -37t-49 -53.5t-29 -62.5t-9 -64q0 -75 46.5 -139t152.5 -146q50 -38 82 -65t71 -68t60.5 -79t37 -90t15.5 -110q0 -110 -57.5 -197t-145.5 -131t-186 -44q-68 0 -157.5 21t-170.5 75l21 151q103 -66 167.5 -90
t129.5 -24q115 0 181 68t66 159q0 86 -46 148.5t-152 144.5q-65 51 -107 90.5t-81.5 89.5t-58.5 105.5t-19 119.5q0 45 15 94.5t48 100t79 90.5t115 65t150 25q58 0 131 -16.5t129 -48.5z" />
    <glyph glyph-name="T" unicode="T" horiz-adv-x="1003" 
d="M1110 1397l-18 -133h-404l-184 -1264h-144l185 1264h-400l19 133h946z" />
    <glyph glyph-name="U" unicode="U" horiz-adv-x="1300" 
d="M1303 1397l-129 -893q-17 -114 -57.5 -204t-95.5 -149t-125 -97.5t-142 -55t-150 -16.5q-166 0 -280 74t-159.5 194.5t-23.5 265.5l129 881h142l-127 -875q-18 -120 9 -211t108.5 -146.5t213.5 -55.5q358 0 418 421l125 867h144z" />
    <glyph glyph-name="V" unicode="V" horiz-adv-x="1015" 
d="M1141 1397l-656 -1411h-57l-283 1411h140l211 -1075l499 1075h146z" />
    <glyph glyph-name="W" unicode="W" horiz-adv-x="1878" 
d="M2003 1397l-678 -1411h-55l-244 1077l-504 -1077h-61l-316 1411h138l239 -1086l508 1086h55l246 -1094l524 1094h148z" />
    <glyph glyph-name="X" unicode="X" horiz-adv-x="1308" 
d="M795 721l452 -721h-166l-385 612l-544 -612h-191l657 735l-413 662h164l348 -553l493 553h185z" />
    <glyph glyph-name="Y" unicode="Y" horiz-adv-x="1007" 
d="M1133 1397l-502 -688l-101 -709h-143l98 709l-340 688h150l272 -545l402 545h164z" />
    <glyph glyph-name="Z" unicode="Z" horiz-adv-x="1236" 
d="M207 1397h1130v-17l-1095 -1247h913l-18 -133h-1174v16l1092 1248h-867z" />
    <glyph glyph-name="bracketleft" unicode="[" 
d="M754 1397l-17 -109h-301l-237 -1632h305l-17 -109h-436l268 1850h435z" />
    <glyph glyph-name="backslash" unicode="\" horiz-adv-x="888" 
d="M287 1415l516 -1433h-135l-516 1433h135z" />
    <glyph glyph-name="bracketright" unicode="]" 
d="M-104 -453l16 109h301l238 1632h-306l17 109h436l-268 -1850h-434z" />
    <glyph glyph-name="asciicircum" unicode="^" horiz-adv-x="1153" 
d="M303 700l-125 27l402 670h71l402 -670l-123 -27l-316 531z" />
    <glyph glyph-name="underscore" unicode="_" horiz-adv-x="1024" 
d="M-12 -154h1048v-102h-1048v102z" />
    <glyph glyph-name="grave" unicode="`" horiz-adv-x="681" 
d="M236 1405h186l186 -322h-90z" />
    <glyph glyph-name="a" unicode="a" horiz-adv-x="968" 
d="M911 920l-135 -920h-131l17 109q-140 -121 -281 -121q-130 0 -220.5 102t-90.5 252q0 137 48.5 250.5t133 189.5t200 118t248.5 42q87 0 211 -22zM680 242l84 581q-27 8 -84 8q-130 0 -237.5 -60t-170.5 -171t-63 -250q0 -62 22.5 -119t72 -97t116.5 -40q74 0 147 46
t113 102z" />
    <glyph glyph-name="b" unicode="b" horiz-adv-x="972" 
d="M256 1397h137l-84 -582q118 127 262 127q72 0 130.5 -28t94.5 -70.5t60 -98t33.5 -106t9.5 -98.5q0 -79 -18 -154t-63 -151t-112.5 -132.5t-176.5 -91.5t-246 -35q-95 0 -228 15zM293 702l-88 -610q50 -8 90 -8q215 0 340 128.5t125 326.5q0 140 -63 216t-165 76
q-64 0 -129.5 -38t-109.5 -91z" />
    <glyph glyph-name="c" unicode="c" horiz-adv-x="815" 
d="M815 926l-18 -127q-87 20 -162 20q-124 0 -222 -64t-148 -159.5t-50 -200.5q0 -43 8.5 -83.5t30 -80t53 -69t81 -48t110.5 -18.5q68 0 125 20t131 64l-21 -139q-125 -64 -254 -64q-191 0 -297 115.5t-106 298.5q0 77 21.5 154t68.5 149t113.5 127t163.5 88t212 33
q72 0 160 -16z" />
    <glyph glyph-name="d" unicode="d" horiz-adv-x="983" 
d="M993 1397l-200 -1391q-113 -29 -236 -29q-223 0 -352 113t-129 299q0 77 22 153t71 148.5t119 128t173.5 89.5t226.5 34q51 0 105 -4l67 459h133zM672 98l104 729q-36 4 -80 4q-114 0 -203 -33t-139.5 -81t-83.5 -110t-44 -113t-11 -97q0 -142 93 -227.5t243 -85.5
q58 0 121 14z" />
    <glyph glyph-name="e" unicode="e" horiz-adv-x="905" 
d="M836 483h-615q-4 -46 -4 -80q0 -142 79.5 -228.5t186.5 -86.5q39 0 77 8.5t65 18.5t59 28.5t46 28.5t39.5 29.5t27.5 21.5l-21 -147q-133 -99 -297 -99q-80 0 -147.5 26t-113.5 69.5t-78 101t-47 120t-15 126.5q0 121 40.5 223t104.5 165.5t139 98.5t148 35
q146 0 238 -109.5t92 -281.5q0 -36 -4 -68zM242 578h469q0 123 -57 188t-144 65q-81 0 -158 -64t-110 -189z" />
    <glyph glyph-name="f" unicode="f" horiz-adv-x="532" 
d="M586 920l-17 -111h-202l-174 -1202h-132l172 1202h-165l16 111h168l24 137q15 82 48 147t73.5 103.5t90 63.5t92 34.5t84.5 9.5q106 0 235 -49l-18 -127q-111 57 -211 57q-110 0 -180.5 -75t-92.5 -203l-16 -98h205z" />
    <glyph glyph-name="g" unicode="g" horiz-adv-x="897" 
d="M936 920l-14 -101h-220q99 -94 99 -223q0 -68 -19.5 -125.5t-62.5 -108t-120 -84.5t-183 -47q-49 -6 -84 -15t-52.5 -17.5t-27 -20.5t-11 -19t-1.5 -16q0 -28 40 -48t136 -40q111 -23 184.5 -52t111 -63.5t52 -69t14.5 -79.5q0 -116 -109 -189t-280 -73
q-188 0 -288.5 66.5t-100.5 164.5q0 45 27 81.5t75 61t90.5 39t98.5 27.5q-95 25 -136.5 69.5t-41.5 82.5q0 17 8.5 37t28 44t58.5 45.5t93 33.5q-18 5 -38.5 16t-46.5 33.5t-46.5 52t-34.5 75.5t-14 99q0 155 100.5 259t274.5 104h440zM442 346q97 0 164.5 74t67.5 182
q0 91 -58 149t-141 58q-87 0 -157 -68t-70 -182q0 -85 52 -149t142 -64zM403 -68q-117 -20 -196.5 -67.5t-79.5 -110.5q0 -54 64 -90.5t190 -36.5q123 0 196.5 41.5t73.5 110.5q0 100 -248 153z" />
    <glyph glyph-name="h" unicode="h" horiz-adv-x="937" 
d="M254 1397h133l-92 -647q95 95 170.5 143.5t167.5 48.5q115 0 171 -69t56 -171q0 -43 -8 -100l-88 -602h-131l86 598q6 38 6 88q0 79 -37.5 112t-93.5 33q-28 0 -50.5 -6t-60 -26t-90 -67.5t-121.5 -123.5l-88 -608h-133z" />
    <glyph glyph-name="i" unicode="i" horiz-adv-x="395" 
d="M328 920l-133 -920h-132l132 920h133zM303 1133q-38 0 -65 27t-27 65t27 65t65 27t65 -27t27 -65t-27 -65t-65 -27z" />
    <glyph glyph-name="j" unicode="j" horiz-adv-x="395" 
d="M322 920l-134 -977q-22 -164 -54 -239q-73 -175 -257 -175q-63 0 -119 18l17 115q54 -14 88 -14q27 0 50 6.5t40.5 20.5t30.5 28.5t23.5 39t17 42.5t12.5 49t8.5 48.5t7.5 49.5l135 988h134zM303 1133q-38 0 -65 27t-27 65t27 65t65 27t65 -27t27 -65t-27 -65t-65 -27z
" />
    <glyph glyph-name="k" unicode="k" horiz-adv-x="921" 
d="M389 1397l-131 -891l469 414h184l-485 -431l508 -489h-178l-498 479l-70 -479h-133l203 1397h131z" />
    <glyph glyph-name="l" unicode="l" horiz-adv-x="395" 
d="M397 1397l-202 -1397h-132l203 1397h131z" />
    <glyph glyph-name="m" unicode="m" horiz-adv-x="1495" 
d="M184 920h131l-22 -162l21 21l24.5 24.5t25 23.5t29.5 25.5t30.5 22.5t34.5 22t36 17.5t41 15t42.5 8.5t47.5 4q173 0 217 -205q80 95 171 150t177 55q105 0 166 -64t61 -169q0 -39 -10 -115l-84 -594h-133l86 606q6 43 6 86q0 25 -5 46.5t-17 44t-37.5 35.5t-61.5 13
q-49 0 -101 -24t-96.5 -62.5t-71.5 -66.5t-50 -57l-88 -621h-133l79 559q3 10 8 54.5t5 76.5q0 16 -4.5 36t-16.5 45.5t-39.5 42.5t-66.5 17q-42 0 -85.5 -16.5t-72.5 -35.5t-64 -54.5t-47.5 -50.5t-36.5 -46q-6 -7 -8 -10l-92 -618h-129z" />
    <glyph glyph-name="n" unicode="n" horiz-adv-x="937" 
d="M186 920h133l-24 -170q96 96 171 144t167 48q115 0 171 -69t56 -171q0 -43 -8 -100l-88 -602h-131l86 598q6 38 6 88q0 79 -37.5 112t-93.5 33q-28 0 -50.5 -6t-60 -26t-90 -67.5t-121.5 -123.5l-88 -608h-133z" />
    <glyph glyph-name="o" unicode="o" horiz-adv-x="917" 
d="M844 553q0 -113 -26 -209t-69 -162.5t-100.5 -113.5t-119.5 -69t-126 -22q-19 0 -39.5 2.5t-54 12t-64 25.5t-62.5 46.5t-55.5 71t-38.5 103t-15 139.5q0 136 38.5 246.5t101.5 178.5t140 104t158 36q138 0 235 -100.5t97 -288.5zM213 373q0 -73 15.5 -128t37 -84
t49.5 -46.5t48 -22t38 -4.5q70 0 130 44.5t96.5 114.5t57 150t20.5 156q0 125 -52.5 201.5t-146.5 76.5q-83 0 -150.5 -62.5t-105 -167.5t-37.5 -228z" />
    <glyph glyph-name="p" unicode="p" horiz-adv-x="1001" 
d="M260 1130h131l-35 -235q92 47 201 47q62 0 124 -26t117 -75.5t89.5 -134.5t34.5 -190t-32 -194.5t-86 -152t-125.5 -106.5t-150 -65t-159.5 -21q-85 0 -144 3l-65 -433h-129l170 1166q-60 -50 -109 -113q-11 -14 -25 -34.5t-21 -30t-11 -9.5q-10 0 -10 19q0 32 49 111.5
t139 158.5zM342 795l-100 -703q30 -6 88 -6q100 0 179.5 27t129.5 70.5t83 101.5t46.5 115.5t13.5 117.5q0 72 -19.5 129.5t-48.5 91.5t-67 57t-70.5 31.5t-62.5 8.5q-90 0 -172 -41z" />
    <glyph glyph-name="q" unicode="q" horiz-adv-x="962" 
d="M903 942l-198 -1395h-134l70 490q-130 -60 -229 -60q-148 0 -243 114t-95 286q0 78 19.5 153.5t68.5 151.5t121.5 132.5t188.5 92t261 35.5h170zM657 141l99 695h-54q-123 0 -219 -38t-153.5 -103t-87 -145.5t-29.5 -172.5q0 -52 12.5 -100t40 -93.5t80.5 -72.5t125 -27
q75 0 186 57z" />
    <glyph glyph-name="r" unicode="r" horiz-adv-x="587" 
d="M190 920h132l-31 -226q70 125 136.5 186.5t147.5 61.5q36 0 84 -16l-14 -135q-50 20 -84 20q-28 0 -57 -11t-53 -28t-48 -41.5t-41.5 -47t-36 -50t-28 -44.5t-20 -36.5t-11.5 -20.5l-76 -532h-135z" />
    <glyph glyph-name="s" unicode="s" horiz-adv-x="724" 
d="M672 842l-21 -127q-158 108 -278 108q-76 0 -111 -35.5t-35 -78.5t41 -80t213 -158q72 -50 111 -113.5t39 -126.5q0 -112 -86.5 -183t-212.5 -71q-146 0 -305 117l20 139q153 -137 293 -137q72 0 114 34t42 85q0 28 -8 49t-50.5 63t-124.5 97q-115 78 -165 136.5
t-50 137.5q0 100 76 172t209 72q136 0 289 -100z" />
    <glyph glyph-name="t" unicode="t" horiz-adv-x="595" 
d="M606 920l-16 -111h-215l-68 -381q-31 -190 -31 -217q0 -65 38.5 -94t80.5 -29q87 0 178 70l-4 -129q-99 -52 -194 -52q-94 0 -163 59t-69 161q0 38 11.5 116.5t17.5 104.5l72 391h-170l16 111h172l35 198h131l-33 -198h211z" />
    <glyph glyph-name="u" unicode="u" horiz-adv-x="944" 
d="M758 0h-133l24 170q-97 -97 -171.5 -145t-166.5 -48q-115 0 -171 69t-56 171q0 43 8 100l88 603h131l-86 -598q-6 -37 -6 -89q0 -79 37.5 -112t93.5 -33q28 0 50.5 6t60 26t90 67.5t121.5 123.5l88 609h133z" />
    <glyph glyph-name="v" unicode="v" horiz-adv-x="770" 
d="M829 920l-487 -934h-57l-211 934h131l143 -658l348 658h133z" />
    <glyph glyph-name="w" unicode="w" horiz-adv-x="1271" 
d="M1331 920l-481 -934h-59l-119 659l-340 -659h-58l-200 934h129l141 -668l334 668h61l121 -668l340 668h131z" />
    <glyph glyph-name="x" unicode="x" horiz-adv-x="917" 
d="M920 920l-390 -449l256 -471h-145l-203 371l-321 -371h-164l426 485l-236 435h144l180 -330l291 330h162z" />
    <glyph glyph-name="y" unicode="y" horiz-adv-x="796" 
d="M856 920l-694 -1391h-144l254 506l-174 885h133l134 -699l350 699h141z" />
    <glyph glyph-name="z" unicode="z" horiz-adv-x="917" 
d="M139 920h772v-19l-694 -790h594l-18 -111h-820v18l693 791h-541z" />
    <glyph glyph-name="braceleft" unicode="{" horiz-adv-x="681" 
d="M113 399v146q49 0 84 11.5t57 42.5t34.5 58t17.5 88t6 100t1 124v26q0 89 7.5 153.5t26.5 109t43 72t64.5 42.5t83.5 20t107 5v-131q-46 0 -73.5 -2.5t-51 -14t-34.5 -27.5t-19 -50.5t-10 -75.5t-2 -109q0 -72 -1 -116.5t-5.5 -97t-13 -85t-23 -68.5t-36.5 -60t-53 -46.5
t-73 -40.5q42 -18 73 -40.5t53 -46.5t36.5 -60.5t23 -69t13 -85.5t5.5 -97.5t1 -116.5q0 -68 2 -109t10 -75.5t19 -50.5t34.5 -27.5t51 -14t73.5 -2.5v-131q-64 0 -107 5t-83.5 20t-64.5 42.5t-43 72t-26.5 109t-7.5 153.5v26q0 84 -1 124t-6 100t-17.5 87.5t-34.5 58.5
t-57 42.5t-84 11.5z" />
    <glyph glyph-name="bar" unicode="|" horiz-adv-x="456" 
d="M197 1415h133v-1886h-133v1886z" />
    <glyph glyph-name="braceright" unicode="}" horiz-adv-x="681" 
d="M639 399q-43 0 -74.5 -11.5t-53 -26t-36 -49.5t-22 -60.5t-11 -81.5t-4 -90.5t-0.5 -107.5v-23q0 -89 -7.5 -153.5t-26.5 -109t-43 -72t-64.5 -42.5t-83.5 -20t-107 -5v131q46 0 73.5 2.5t51.5 14t35 27.5t19 50.5t10 75.5t2 109q0 72 1 116.5t5.5 97.5t13 85.5t23 69
t36.5 60.5t53 46.5t73 40.5q-42 18 -73 40.5t-53 46.5t-36.5 60t-23 68.5t-13 85t-5.5 97t-1 116.5q0 68 -2 109t-10 75.5t-19 50.5t-35 27.5t-51.5 14t-73.5 2.5v131q64 0 107 -5t83.5 -20t64.5 -42.5t43 -72t26.5 -109t7.5 -153.5q0 -208 11 -275q19 -123 96 -158
q39 -17 94 -17v-146z" />
    <glyph glyph-name="asciitilde" unicode="~" horiz-adv-x="1366" 
d="M174 575v144q167 125 295 125q56 0 117.5 -19.5t177.5 -74.5q49 -23 71 -32.5t63 -21.5t73 -12q76 0 143.5 36t147.5 101v-143q-161 -125 -287 -125q-64 0 -125.5 20t-194.5 82q-125 58 -186 58q-39 0 -77.5 -9.5t-73.5 -29.5t-56.5 -33.5t-52.5 -38t-35 -27.5z" />
    <glyph glyph-name="uni00A0" unicode="&#xa0;" horiz-adv-x="534" 
 />
    <glyph glyph-name="exclamdown" unicode="&#xa1;" horiz-adv-x="491" 
d="M229 520h70q-8 -68 -15 -144t-10.5 -124t-13.5 -201t-16 -244q0 -1 -1.5 -22t-3 -33.5t-4.5 -38t-7 -43t-10.5 -41t-16 -39.5t-21 -31t-27 -22.5t-34.5 -7.5q-35 0 -54.5 30.5t-19.5 75.5q0 63 18.5 151.5t75.5 311.5q30 114 72 328q15 83 18 94zM295 741
q-46 0 -78.5 32.5t-32.5 78.5t32.5 78.5t78.5 32.5t78.5 -32.5t32.5 -78.5t-32.5 -78.5t-78.5 -32.5z" />
    <glyph glyph-name="cent" unicode="&#xa2;" horiz-adv-x="815" 
d="M815 926l-18 -127q-69 16 -121 20l-227 -719q20 -4 49 -4q115 0 256 84l-21 -139q-40 -19 -60.5 -27.5t-79 -22.5t-116.5 -14q-32 0 -67 5l-117 -371h-88l125 389q-62 24 -109.5 61t-74 76.5t-43 87.5t-22 86.5t-5.5 79.5q0 102 35.5 196.5t102 172.5t173.5 127t240 55
l114 363h88l-116 -365q44 -4 102 -14zM369 123l219 694q-78 -9 -142.5 -41.5t-106 -77t-70.5 -98t-41.5 -105.5t-12.5 -100q0 -24 3.5 -49.5t16.5 -71t47.5 -86.5t86.5 -65z" />
    <glyph glyph-name="sterling" unicode="&#xa3;" horiz-adv-x="1067" 
d="M743 741l-34 -123h-238l-166 -477q70 11 127 11q64 0 166 -19q97 -18 154 -18q16 0 31.5 1.5t31 4.5t26.5 5.5t28 8.5t24.5 9t26 10.5t24.5 9.5l-18 -144q-91 -38 -219 -38q-49 0 -152 16q-136 20 -209 20q-99 0 -221 -36h-25l226 636h-181l35 123h187l36 93
q30 75 46.5 115t50 111.5t60.5 112t69 93t83.5 81t97 48.5t116.5 20q69 0 139 -26l-21 -136q-65 29 -118 29q-47 0 -91.5 -21t-81.5 -61t-68 -84t-59.5 -104t-47.5 -105.5t-41 -103.5l-23 -62h229z" />
    <glyph glyph-name="currency" unicode="&#xa4;" horiz-adv-x="1130" 
d="M987 1180q16 -16 45.5 -47t44.5 -46q-90 -90 -135 -133q86 -120 86 -256q0 -124 -86 -258q90 -86 135 -131q-16 -16 -45.5 -46.5t-44.5 -45.5q-22 22 -67 66.5t-68 66.5q-115 -84 -258 -84t-256 84l-133 -133q-15 15 -45 45.5t-45 46.5q19 20 41 42t49 48.5t41 40.5
q-84 131 -84 258t84 256q-88 88 -131 133q15 15 44.5 46t45.5 47q22 -23 66 -68.5t67 -67.5q126 86 258 86q130 0 256 -86q22 23 67 68.5t68 67.5zM594 1001q-125 0 -214 -88.5t-89 -214.5t89 -214.5t214 -88.5q126 0 214.5 88.5t88.5 214.5t-89 214.5t-214 88.5z" />
    <glyph glyph-name="yen" unicode="&#xa5;" horiz-adv-x="1130" 
d="M629 442h409l-20 -116h-410l-59 -326h-152l58 326h-404l21 116h403l29 154h-406l21 117h379l-267 684h170l213 -647l449 647h172l-524 -684h376l-20 -117h-412z" />
    <glyph glyph-name="brokenbar" unicode="&#xa6;" horiz-adv-x="456" 
d="M197 313h133v-784h-133v784zM197 1415h133v-784h-133v784z" />
    <glyph glyph-name="section" unicode="&#xa7;" horiz-adv-x="1003" 
d="M944 1120l-125 -49q19 47 19 84q0 71 -50.5 112.5t-121.5 41.5q-85 0 -163.5 -61t-78.5 -148q0 -40 12.5 -72.5t46 -67.5t64 -60t94.5 -73q158 -119 217.5 -208t59.5 -185q0 -107 -71.5 -197t-215.5 -151q56 -67 78 -121.5t22 -111.5q0 -99 -53 -174t-137.5 -112.5
t-184.5 -37.5q-88 0 -153.5 27t-99 70t-46.5 92t-6 98l121 57q-6 -24 -6 -59q0 -79 50 -129t138 -50q102 0 173 62t71 145q0 24 -5 44.5t-11.5 37.5t-27.5 41t-36 40.5t-55.5 50.5t-68.5 56t-91 72q-119 95 -164 173t-45 153q0 43 13 86t44.5 92.5t96 93t155.5 70.5
q-51 53 -81.5 106.5t-30.5 122.5q0 81 35 147t92 105.5t122.5 60.5t131.5 21q34 0 69 -6t73.5 -23t68 -42.5t48.5 -69t19 -98.5q0 -32 -6 -56zM496 770q-269 -73 -269 -248q0 -31 11 -61t36.5 -62t48.5 -56.5t68.5 -60.5t72.5 -56t83 -60q102 37 169.5 101t67.5 153
q0 22 -4 40t-20 53t-58 81t-108 100q-56 40 -98 76z" />
    <glyph glyph-name="dieresis" unicode="&#xa8;" horiz-adv-x="681" 
d="M270 1335q38 0 65 -27t27 -65t-27 -65t-65 -27t-65 27t-27 65t27 65t65 27zM616 1335q38 0 65.5 -27t27.5 -65t-27.5 -65t-65.5 -27t-65 27t-27 65t27 65t65 27z" />
    <glyph glyph-name="dieresis" unicode="&#x308;" horiz-adv-x="681" 
d="M270 1335q38 0 65 -27t27 -65t-27 -65t-65 -27t-65 27t-27 65t27 65t65 27zM616 1335q38 0 65.5 -27t27.5 -65t-27.5 -65t-65.5 -27t-65 27t-27 65t27 65t65 27z" />
    <glyph glyph-name="copyright" unicode="&#xa9;" horiz-adv-x="1574" 
d="M1575 655q0 -153 -59.5 -292.5t-160 -241.5t-241.5 -162.5t-297 -60.5q-155 0 -295.5 60t-242.5 161.5t-162 241.5t-60 294q0 155 60 295.5t162 242.5t242.5 162t295.5 60q156 0 297 -61t241.5 -163.5t160 -242.5t59.5 -293zM1466 655q0 131 -51 251.5t-137.5 208.5
t-207 140t-253.5 52q-132 0 -252.5 -51.5t-207.5 -139t-139 -208t-52 -253.5q0 -176 87 -325.5t237 -236.5t327 -87q178 0 327.5 88t235.5 237t86 324zM1157 848l-108 -29q-64 160 -226 160q-122 0 -197 -87.5t-75 -225.5q0 -148 68 -244t192 -96q187 0 252 198l106 -35
q-9 -27 -16 -45t-23 -48.5t-41.5 -58t-60.5 -50.5q-100 -66 -211 -66q-176 0 -281.5 124.5t-105.5 309.5q0 179 104 299.5t291 120.5q234 0 332 -227z" />
    <glyph glyph-name="ordfeminine" unicode="&#xaa;" horiz-adv-x="641" 
d="M717 1399l-88 -553h-107l6 47q-3 -2 -15.5 -9.5t-19 -10.5t-19.5 -9.5t-23.5 -10t-25 -7.5t-30.5 -6t-33 -2q-92 0 -149 65t-57 150q0 69 24.5 131.5t73.5 115t133.5 84t192.5 31.5q75 0 137 -16zM545 997l53 340q-88 3 -154 -21.5t-98.5 -59t-52 -79.5t-23.5 -70.5
t-4 -43.5q0 -57 32 -102.5t89 -45.5q76 0 158 82z" />
    <glyph glyph-name="guillemotleft" unicode="&#xab;" horiz-adv-x="960" 
d="M629 0l-172 438l368 482h131l-378 -500l163 -420h-112zM215 0l-180 461l336 459h129l-346 -474l174 -446h-113z" />
    <glyph glyph-name="logicalnot" unicode="&#xac;" horiz-adv-x="1366" 
d="M174 993h1088v-590h-132v459h-956v131z" />
    <glyph glyph-name="uni00AD" unicode="&#xad;" horiz-adv-x="532" 
d="M518 508l-16 -94h-484l13 94h487z" />
    <glyph glyph-name="registered" unicode="&#xae;" horiz-adv-x="1574" 
d="M1575 655q0 -153 -59.5 -292.5t-160 -241.5t-241.5 -162.5t-297 -60.5q-155 0 -295.5 60t-242.5 161.5t-162 241.5t-60 294q0 155 60 295.5t162 242.5t242.5 162t295.5 60q156 0 297 -61t241.5 -163.5t160 -242.5t59.5 -293zM1466 655q0 131 -51 251.5t-137.5 208.5
t-207 140t-253.5 52q-132 0 -252.5 -51.5t-207.5 -139t-139 -208t-52 -253.5q0 -176 87 -325.5t237 -236.5t327 -87q178 0 327.5 88t235.5 237t86 324zM496 1051h325q76 0 134 -19.5t91 -52t49.5 -69.5t16.5 -76q0 -197 -235 -230q20 -6 38 -15.5t34 -24t26.5 -24.5
t24 -30.5t19 -28.5t19 -32t15.5 -27l102 -180h-139q-5 10 -31 57t-48.5 88.5t-29.5 54.5q-47 82 -94 114t-139 32h-62v-346h-116v809zM612 954v-268h146q122 0 173.5 32t51.5 105q0 66 -48 98.5t-175 32.5h-148z" />
    <glyph glyph-name="macron" unicode="&#xaf;" horiz-adv-x="681" 
d="M766 1309l-18 -129h-605l21 129h602z" />
    <glyph glyph-name="degree" unicode="&#xb0;" horiz-adv-x="811" 
d="M221 1133q0 117 83 199.5t200 82.5t199.5 -82t82.5 -200q0 -116 -82 -199.5t-200 -83.5q-117 0 -200 82.5t-83 200.5zM317 1133q0 -77 55.5 -132t131.5 -55q78 0 132 55t54 132q0 78 -54.5 132t-131.5 54t-132 -54t-55 -132z" />
    <glyph glyph-name="plusminus" unicode="&#xb1;" horiz-adv-x="1366" 
d="M174 133h1088v-133h-1088v133zM174 934h477v477h133v-477h478v-133h-478v-477h-133v477h-477v133z" />
    <glyph glyph-name="two.superior" unicode="&#xb2;" 
d="M608 756l-12 -78h-518q83 75 189 189.5t169 195.5q49 64 67.5 103.5t18.5 74.5q0 40 -26 68t-86 28q-41 0 -87.5 -16t-121.5 -64l18 101q107 57 209 57q93 0 147 -49.5t54 -116.5q0 -44 -16 -85.5t-66 -106.5q-86 -114 -266 -301h327z" />
    <glyph glyph-name="three.superior" unicode="&#xb3;" 
d="M102 719l15 80q1 -1 19 -9.5t31.5 -14t37.5 -12.5t53.5 -11t63.5 -4q88 0 135 50t47 99q0 65 -52 94t-122 29l12 70q62 0 106.5 15.5t64.5 39t28 43t8 37.5q0 47 -35.5 79.5t-105.5 32.5q-19 0 -36.5 -2t-33.5 -6t-28 -7.5t-26 -10t-21 -10t-19.5 -10t-14.5 -7.5l15 92
q99 39 180 39q107 0 169 -56t62 -132q0 -70 -46.5 -114.5t-104.5 -61.5q106 -56 106 -158q0 -89 -75.5 -156t-217.5 -67q-109 0 -215 49z" />
    <glyph glyph-name="acute" unicode="&#xb4;" horiz-adv-x="681" 
d="M688 1405l-282 -322h-91l189 322h184z" />
    <glyph glyph-name="mu" unicode="&#xb5;" horiz-adv-x="1130" 
d="M1010 920l-136 -920h-129l17 106q-23 -26 -39 -41.5t-50 -39.5t-79 -36t-100 -12q-50 0 -88.5 11t-65.5 33.5t-39.5 36.5t-30.5 40l-71 -491h-136l191 1313h137l-57 -388q-23 -179 -23 -225q0 -13 1.5 -27.5t7 -41.5t19 -49.5t34 -44.5t56 -35t81.5 -13q55 0 101.5 18
t75 46.5t44.5 51.5t25 44q26 61 61 276l55 388h138z" />
    <glyph glyph-name="paragraph" unicode="&#xb6;" horiz-adv-x="1193" 
d="M698 1319v-1786h-102v903q-250 0 -404.5 124t-154.5 353q0 127 39.5 220.5t114 151t175.5 85t230 27.5h567v-78h-172v-1786h-102v1786h-191z" />
    <glyph glyph-name="periodcentered" unicode="&#xb7;" horiz-adv-x="491" 
d="M279 811q46 0 78 -32.5t32 -78.5t-32 -78t-78 -32t-78.5 32t-32.5 78t32.5 78.5t78.5 32.5z" />
    <glyph glyph-name="periodcentered" unicode="&#x22c5;" horiz-adv-x="491" 
d="M279 811q46 0 78 -32.5t32 -78.5t-32 -78t-78 -32t-78.5 32t-32.5 78t32.5 78.5t78.5 32.5z" />
    <glyph glyph-name="periodcentered" unicode="&#x387;" horiz-adv-x="491" 
d="M279 811q46 0 78 -32.5t32 -78.5t-32 -78t-78 -32t-78.5 32t-32.5 78t32.5 78.5t78.5 32.5z" />
    <glyph glyph-name="cedilla" unicode="&#xb8;" horiz-adv-x="681" 
d="M96 -342l23 80q28 -8 71 -8q54 0 84.5 27.5t30.5 64.5q0 47 -69 67l57 125h65l-26 -65q84 -34 84 -123q0 -88 -64 -133t-166 -45q-45 0 -90 10z" />
    <glyph glyph-name="one.superior" unicode="&#xb9;" 
d="M545 1407l-131 -729h-105l129 729h107z" />
    <glyph glyph-name="ordmasculine" unicode="&#xba;" horiz-adv-x="618" 
d="M666 1178q0 -163 -84.5 -255t-212.5 -92q-41 0 -77 11.5t-69.5 37.5t-53 76.5t-19.5 120.5q0 72 19.5 131.5t50.5 97t70.5 63t77 36t72.5 10.5q104 0 165 -60.5t61 -176.5zM555 1182q0 71 -32.5 113t-84.5 42q-69 0 -123.5 -68.5t-54.5 -199.5q0 -75 34 -117.5t79 -42.5
q79 0 130.5 73.5t51.5 199.5z" />
    <glyph glyph-name="guillemotright" unicode="&#xbb;" horiz-adv-x="960" 
d="M299 920l170 -439l-367 -481h-131l379 500l-166 420h115zM711 920l182 -461l-336 -459h-129l346 473l-176 447h113z" />
    <glyph glyph-name="onequarter" unicode="&#xbc;" horiz-adv-x="1685" 
d="M1520 737l-74 -436h127l-12 -68h-129l-41 -233h-103l41 233h-319v37l448 467h62zM1341 301l41 240l-233 -240h192zM545 1407l-131 -729h-105l129 729h107zM1450 1415l-1104 -1470h-110l1105 1470h109z" />
    <glyph glyph-name="onehalf" unicode="&#xbd;" horiz-adv-x="1685" 
d="M545 1407l-131 -729h-105l129 729h107zM1450 1415l-1104 -1470h-110l1105 1470h109zM1520 78l-13 -78h-518q83 75 189.5 190t169.5 195q49 64 67.5 103.5t18.5 74.5q0 40 -26.5 68t-86.5 28q-42 0 -88 -15.5t-121 -63.5l18 100q107 57 209 57q93 0 147 -49.5t54 -116.5
q0 -44 -16 -85.5t-66 -106.5q-86 -114 -266 -301h328z" />
    <glyph glyph-name="threequarters" unicode="&#xbe;" horiz-adv-x="1685" 
d="M102 719l15 80q1 -1 19 -9.5t31.5 -14t37.5 -12.5t53.5 -11t63.5 -4q88 0 135 50t47 99q0 65 -52 94t-122 29l12 70q62 0 106.5 15.5t64.5 39t28 43t8 37.5q0 47 -35.5 79.5t-105.5 32.5q-19 0 -36.5 -2t-33.5 -6t-28 -7.5t-26 -10t-21 -10t-19.5 -10t-14.5 -7.5l15 92
q99 39 180 39q107 0 169 -56t62 -132q0 -70 -46.5 -114.5t-104.5 -61.5q106 -56 106 -158q0 -89 -75.5 -156t-217.5 -67q-109 0 -215 49zM1450 1415l-1104 -1470h-110l1105 1470h109zM1520 737l-74 -436h127l-12 -68h-129l-41 -233h-103l41 233h-319v37l448 467h62z
M1341 301l41 240l-233 -240h192z" />
    <glyph glyph-name="questiondown" unicode="&#xbf;" 
d="M414 594h82q-10 -144 -61 -245t-156 -216q-59 -64 -84.5 -94t-54 -70t-37.5 -70.5t-9 -66.5q0 -79 50.5 -131.5t127.5 -52.5q41 0 79 11t74 35t52 37t47 40l-20 -154q-127 -88 -246 -88q-129 0 -213 86t-84 209q0 72 31.5 140t79.5 120q180 191 217 237q75 91 103 182
q12 38 22 91zM496 741q-46 0 -78.5 32.5t-32.5 78.5t32.5 78.5t78.5 32.5t78 -32.5t32 -78.5t-32 -78.5t-78 -32.5z" />
    <glyph glyph-name="Agrave" unicode="&#xc0;" horiz-adv-x="1087" 
d="M713 1415l297 -1415h-136l-100 467h-479l-209 -467h-143l639 1415h131zM750 594l-129 618l-271 -618h400zM438 1812h187l186 -321h-90z" />
    <glyph glyph-name="Aacute" unicode="&#xc1;" horiz-adv-x="1087" 
d="M713 1415l297 -1415h-136l-100 467h-479l-209 -467h-143l639 1415h131zM750 594l-129 618l-271 -618h400zM891 1812l-283 -321h-90l189 321h184z" />
    <glyph glyph-name="Acircumflex" unicode="&#xc2;" horiz-adv-x="1087" 
d="M713 1415l297 -1415h-136l-100 467h-479l-209 -467h-143l639 1415h131zM750 594l-129 618l-271 -618h400zM817 1812l76 -321h-80l-94 201l-254 -201h-98l292 321h158z" />
    <glyph glyph-name="Atilde" unicode="&#xc3;" horiz-adv-x="1087" 
d="M713 1415l297 -1415h-136l-100 467h-479l-209 -467h-143l639 1415h131zM750 594l-129 618l-271 -618h400zM410 1542h-74q11 87 33 131q41 84 133 84q66 0 182 -49q93 -39 135 -39q23 0 39 8.5t24 26t11 27.5t6 30h74q0 -106 -51 -162.5t-117 -56.5q-56 0 -148 37
q-133 51 -168 51q-65 0 -79 -88z" />
    <glyph glyph-name="Adieresis" unicode="&#xc4;" horiz-adv-x="1087" 
d="M713 1415l297 -1415h-136l-100 467h-479l-209 -467h-143l639 1415h131zM750 594l-129 618l-271 -618h400zM473 1743q38 0 65 -27t27 -65t-27 -65t-65 -27t-65 27t-27 65t27 65t65 27zM819 1743q38 0 65 -27t27 -65t-27 -65t-65 -27t-65 27t-27 65t27 65t65 27z" />
    <glyph glyph-name="Aring" unicode="&#xc5;" horiz-adv-x="1087" 
d="M713 1415l297 -1415h-136l-100 467h-479l-209 -467h-143l639 1415h131zM750 594l-129 618l-271 -618h400zM653 1483q-79 0 -134.5 55.5t-55.5 134.5q0 80 55.5 136.5t134.5 56.5t136 -57t57 -136t-56.5 -134.5t-136.5 -55.5zM653 1571q43 0 74 30t31 72q0 43 -31 74
t-74 31q-42 0 -72 -31t-30 -74t29.5 -72.5t72.5 -29.5z" />
    <glyph glyph-name="AE" unicode="&#xc6;" horiz-adv-x="1687" 
d="M1624 1397l-18 -127h-562l-73 -496h528l-18 -127h-531l-73 -520h747l-16 -127h-891l94 647h-330l-385 -647h-153l837 1397h844zM829 774l72 496h-53l-293 -496h274z" />
    <glyph glyph-name="Ccedilla" unicode="&#xc7;" horiz-adv-x="1150" 
d="M678 -20l-12 -31q84 -36 84 -123q0 -83 -62 -130.5t-168 -47.5q-40 0 -90 10l23 80q28 -8 71 -8q47 0 81 27t34 65q0 21 -13 36t-25.5 20t-31.5 11l43 95q-101 15 -188.5 59.5t-155.5 115.5t-106.5 174.5t-38.5 227.5q0 185 69.5 344t193 271t300 175.5t383.5 63.5
q77 0 131 -8l-16 -129q-39 4 -109 4q-158 0 -292 -42.5t-226 -113t-157 -163.5t-95.5 -192t-30.5 -200q0 -107 33.5 -195t90 -144t129 -86.5t151.5 -30.5q116 0 210 39t226 127l-24 -175q-90 -54 -200.5 -89.5t-211.5 -36.5z" />
    <glyph glyph-name="Egrave" unicode="&#xc8;" horiz-adv-x="1067" 
d="M1018 1397l-19 -127h-587l-72 -496h541l-19 -127h-540l-78 -520h762l-19 -127h-901l205 1397h727zM449 1812h186l186 -321h-90z" />
    <glyph glyph-name="Eacute" unicode="&#xc9;" horiz-adv-x="1067" 
d="M1018 1397l-19 -127h-587l-72 -496h541l-19 -127h-540l-78 -520h762l-19 -127h-901l205 1397h727zM901 1812l-283 -321h-90l189 321h184z" />
    <glyph glyph-name="Ecircumflex" unicode="&#xca;" horiz-adv-x="1067" 
d="M1018 1397l-19 -127h-587l-72 -496h541l-19 -127h-540l-78 -520h762l-19 -127h-901l205 1397h727zM838 1812l75 -321h-79l-95 201l-254 -201h-98l293 321h158z" />
    <glyph glyph-name="Edieresis" unicode="&#xcb;" horiz-adv-x="1067" 
d="M1018 1397l-19 -127h-587l-72 -496h541l-19 -127h-540l-78 -520h762l-19 -127h-901l205 1397h727zM483 1743q38 0 65 -27t27 -65t-27 -65t-65 -27t-65 27t-27 65t27 65t65 27zM829 1743q38 0 65.5 -27t27.5 -65t-27.5 -65t-65.5 -27t-65 27t-27 65t27 65t65 27z" />
    <glyph glyph-name="Igrave" unicode="&#xcc;" horiz-adv-x="452" 
d="M432 1397l-201 -1397h-145l203 1397h143zM141 1812h187l186 -321h-90z" />
    <glyph glyph-name="Iacute" unicode="&#xcd;" horiz-adv-x="452" 
d="M432 1397l-201 -1397h-145l203 1397h143zM573 1812l-282 -321h-90l188 321h184z" />
    <glyph glyph-name="Icircumflex" unicode="&#xce;" horiz-adv-x="452" 
d="M432 1397l-201 -1397h-145l203 1397h143zM541 1812l75 -321h-79l-95 201l-254 -201h-98l293 321h158z" />
    <glyph glyph-name="Idieresis" unicode="&#xcf;" horiz-adv-x="452" 
d="M432 1397l-201 -1397h-145l203 1397h143zM197 1743q38 0 65 -27t27 -65t-27 -65t-65 -27t-65.5 27t-27.5 65t27.5 65t65.5 27zM543 1743q38 0 65 -27t27 -65t-27 -65t-65 -27t-65 27t-27 65t27 65t65 27z" />
    <glyph glyph-name="Eth" unicode="&#xd0;" horiz-adv-x="1341" 
d="M291 1397h213q149 0 275 -39.5t214.5 -107t151 -158t92 -193t29.5 -211.5q0 -149 -49 -275t-140 -218t-229.5 -143.5t-310.5 -51.5h-451l94 643h-166l17 111h166zM489 1270h-75l-76 -516h348l-16 -111h-348l-76 -516h211q123 0 224.5 22.5t172 63t122 92.5t81 116.5
t43.5 130t14 136.5q0 73 -16.5 147t-61 154.5t-112.5 141t-180.5 100t-254.5 39.5z" />
    <glyph glyph-name="Ntilde" unicode="&#xd1;" horiz-adv-x="1404" 
d="M1386 1397l-202 -1403h-72l-727 1112l-162 -1106h-137l203 1397h73l725 -1112l162 1112h137zM594 1542h-74q11 87 33 131q41 84 133 84q66 0 182 -49q93 -39 136 -39q19 0 33 7t21.5 14.5t13.5 24t7 23t4 23.5h74q0 -106 -51 -162.5t-117 -56.5q-55 0 -147 37
q-133 51 -168 51q-66 0 -80 -88z" />
    <glyph glyph-name="Ograve" unicode="&#xd2;" horiz-adv-x="1341" 
d="M1288 838q0 -128 -30 -253t-88.5 -233.5t-138 -191.5t-186.5 -130.5t-227 -47.5q-99 0 -186 35t-157 104t-111 184t-41 262q0 92 18.5 188.5t54.5 192t93.5 179.5t130 148.5t170 102t207.5 37.5q98 0 185 -35t156 -103.5t109.5 -181.5t40.5 -257zM1137 864
q0 111 -27.5 195t-76.5 133t-109 72.5t-131 23.5q-122 0 -223.5 -71t-164 -182t-97 -238.5t-34.5 -249.5q0 -97 21 -173.5t55.5 -125t81.5 -81t95 -45.5t100 -13q149 0 267 105t180.5 276.5t62.5 373.5zM590 1812h186l187 -321h-91z" />
    <glyph glyph-name="Oacute" unicode="&#xd3;" horiz-adv-x="1341" 
d="M1288 838q0 -128 -30 -253t-88.5 -233.5t-138 -191.5t-186.5 -130.5t-227 -47.5q-99 0 -186 35t-157 104t-111 184t-41 262q0 92 18.5 188.5t54.5 192t93.5 179.5t130 148.5t170 102t207.5 37.5q98 0 185 -35t156 -103.5t109.5 -181.5t40.5 -257zM1137 864
q0 111 -27.5 195t-76.5 133t-109 72.5t-131 23.5q-122 0 -223.5 -71t-164 -182t-97 -238.5t-34.5 -249.5q0 -97 21 -173.5t55.5 -125t81.5 -81t95 -45.5t100 -13q149 0 267 105t180.5 276.5t62.5 373.5zM1018 1812l-283 -321h-90l189 321h184z" />
    <glyph glyph-name="Ocircumflex" unicode="&#xd4;" horiz-adv-x="1341" 
d="M1288 838q0 -128 -30 -253t-88.5 -233.5t-138 -191.5t-186.5 -130.5t-227 -47.5q-99 0 -186 35t-157 104t-111 184t-41 262q0 92 18.5 188.5t54.5 192t93.5 179.5t130 148.5t170 102t207.5 37.5q98 0 185 -35t156 -103.5t109.5 -181.5t40.5 -257zM1137 864
q0 111 -27.5 195t-76.5 133t-109 72.5t-131 23.5q-122 0 -223.5 -71t-164 -182t-97 -238.5t-34.5 -249.5q0 -97 21 -173.5t55.5 -125t81.5 -81t95 -45.5t100 -13q149 0 267 105t180.5 276.5t62.5 373.5zM995 1812l76 -321h-80l-94 201l-254 -201h-98l293 321h157z" />
    <glyph glyph-name="Otilde" unicode="&#xd5;" horiz-adv-x="1341" 
d="M1288 838q0 -128 -30 -253t-88.5 -233.5t-138 -191.5t-186.5 -130.5t-227 -47.5q-99 0 -186 35t-157 104t-111 184t-41 262q0 92 18.5 188.5t54.5 192t93.5 179.5t130 148.5t170 102t207.5 37.5q98 0 185 -35t156 -103.5t109.5 -181.5t40.5 -257zM1137 864
q0 111 -27.5 195t-76.5 133t-109 72.5t-131 23.5q-122 0 -223.5 -71t-164 -182t-97 -238.5t-34.5 -249.5q0 -97 21 -173.5t55.5 -125t81.5 -81t95 -45.5t100 -13q149 0 267 105t180.5 276.5t62.5 373.5zM561 1542h-74q11 87 33 131q41 84 133 84q67 0 183 -49
q93 -39 135 -39q23 0 39 8.5t24 26t11 27.5t6 30h73q0 -106 -51 -162.5t-117 -56.5q-55 0 -147 37q-133 51 -168 51q-66 0 -80 -88z" />
    <glyph glyph-name="Odieresis" unicode="&#xd6;" horiz-adv-x="1341" 
d="M1288 838q0 -128 -30 -253t-88.5 -233.5t-138 -191.5t-186.5 -130.5t-227 -47.5q-99 0 -186 35t-157 104t-111 184t-41 262q0 92 18.5 188.5t54.5 192t93.5 179.5t130 148.5t170 102t207.5 37.5q98 0 185 -35t156 -103.5t109.5 -181.5t40.5 -257zM1137 864
q0 111 -27.5 195t-76.5 133t-109 72.5t-131 23.5q-122 0 -223.5 -71t-164 -182t-97 -238.5t-34.5 -249.5q0 -97 21 -173.5t55.5 -125t81.5 -81t95 -45.5t100 -13q149 0 267 105t180.5 276.5t62.5 373.5zM625 1743q38 0 65 -27t27 -65t-27 -65t-65 -27t-65.5 27t-27.5 65
t27.5 65t65.5 27zM971 1743q38 0 65 -27t27 -65t-27 -65t-65 -27t-65 27t-27 65t27 65t65 27z" />
    <glyph glyph-name="multiply" unicode="&#xd7;" horiz-adv-x="1366" 
d="M219 293l406 405l-406 406l92 94l406 -407l407 407l93 -94l-406 -406l406 -405l-93 -94l-407 407l-406 -407z" />
    <glyph glyph-name="Oslash" unicode="&#xd8;" horiz-adv-x="1341" 
d="M326 78l-115 -154l-74 53l121 164q-135 158 -135 428q0 93 19 189.5t55 191.5t94 179t130 148t168.5 101t205.5 37q194 0 321 -115l92 125l74 -55l-104 -141q110 -163 110 -391q0 -236 -87 -432.5t-240.5 -310t-339.5 -113.5q-170 0 -295 96zM1087 1108l-681 -922
q86 -77 221 -77q114 0 211 63t161.5 167t101 238.5t36.5 278.5q0 155 -50 252zM344 258l690 932q-98 98 -241 98q-86 0 -162 -34t-131.5 -92.5t-99.5 -133.5t-71 -160t-41 -168.5t-14 -162.5q0 -163 70 -279z" />
    <glyph glyph-name="Ugrave" unicode="&#xd9;" horiz-adv-x="1300" 
d="M1303 1397l-129 -893q-17 -114 -57.5 -204t-95.5 -149t-125 -97.5t-142 -55t-150 -16.5q-166 0 -280 74t-159.5 194.5t-23.5 265.5l129 881h142l-127 -875q-18 -120 9 -211t108.5 -146.5t213.5 -55.5q358 0 418 421l125 867h144zM565 1812h187l186 -321h-90z" />
    <glyph glyph-name="Uacute" unicode="&#xda;" horiz-adv-x="1300" 
d="M1303 1397l-129 -893q-17 -114 -57.5 -204t-95.5 -149t-125 -97.5t-142 -55t-150 -16.5q-166 0 -280 74t-159.5 194.5t-23.5 265.5l129 881h142l-127 -875q-18 -120 9 -211t108.5 -146.5t213.5 -55.5q358 0 418 421l125 867h144zM1018 1812l-283 -321h-90l189 321h184z
" />
    <glyph glyph-name="Ucircumflex" unicode="&#xdb;" horiz-adv-x="1300" 
d="M1303 1397l-129 -893q-17 -114 -57.5 -204t-95.5 -149t-125 -97.5t-142 -55t-150 -16.5q-166 0 -280 74t-159.5 194.5t-23.5 265.5l129 881h142l-127 -875q-18 -120 9 -211t108.5 -146.5t213.5 -55.5q358 0 418 421l125 867h144zM971 1812l76 -321h-80l-95 201l-254 -201
h-98l293 321h158z" />
    <glyph glyph-name="Udieresis" unicode="&#xdc;" horiz-adv-x="1300" 
d="M1303 1397l-129 -893q-17 -114 -57.5 -204t-95.5 -149t-125 -97.5t-142 -55t-150 -16.5q-166 0 -280 74t-159.5 194.5t-23.5 265.5l129 881h142l-127 -875q-18 -120 9 -211t108.5 -146.5t213.5 -55.5q358 0 418 421l125 867h144zM610 1743q38 0 65 -27t27 -65t-27 -65
t-65 -27t-65 27t-27 65t27 65t65 27zM956 1743q38 0 65.5 -27t27.5 -65t-27.5 -65t-65.5 -27t-65 27t-27 65t27 65t65 27z" />
    <glyph glyph-name="Yacute" unicode="&#xdd;" horiz-adv-x="1007" 
d="M1133 1397l-502 -688l-101 -709h-143l98 709l-340 688h150l272 -545l402 545h164zM852 1812l-283 -321h-90l189 321h184z" />
    <glyph glyph-name="Thorn" unicode="&#xde;" horiz-adv-x="940" 
d="M287 1397h145l-43 -303h92q99 0 177 -23t127 -59.5t81 -87t45 -101.5t13 -106t-9.5 -104.5t-41.5 -108.5t-85 -101.5t-148.5 -71t-223.5 -28.5h-142l-43 -303h-145zM471 967h-100l-76 -535h147q74 0 132.5 16t95 42.5t60 63t33 74.5t9.5 81q0 51 -15 95t-48 82t-94 59.5
t-144 21.5z" />
    <glyph glyph-name="germandbls" unicode="&#xdf;" horiz-adv-x="974" 
d="M57 0l140 967q10 68 27 128t48.5 120.5t73.5 103t106 69.5t142 27q147 0 239.5 -92t92.5 -227q0 -107 -64 -193t-174 -115q98 -45 149.5 -131.5t51.5 -201.5q0 -108 -37 -200t-96.5 -151.5t-132.5 -93t-148 -33.5q-60 0 -106 23l16 106q40 -10 76 -10q130 0 209.5 103.5
t79.5 265.5q0 121 -68 199.5t-193 85.5l15 100q77 -5 137 16t92.5 59.5t49 81.5t16.5 87q0 84 -56.5 149.5t-154.5 65.5q-47 0 -85 -14.5t-64 -43t-44.5 -59.5t-31.5 -77t-20 -80.5t-15 -84.5l-140 -950h-131z" />
    <glyph glyph-name="agrave" unicode="&#xe0;" horiz-adv-x="968" 
d="M911 920l-135 -920h-131l17 109q-140 -121 -281 -121q-130 0 -220.5 102t-90.5 252q0 137 48.5 250.5t133 189.5t200 118t248.5 42q87 0 211 -22zM680 242l84 581q-27 8 -84 8q-130 0 -237.5 -60t-170.5 -171t-63 -250q0 -62 22.5 -119t72 -97t116.5 -40q74 0 147 46
t113 102zM379 1405h186l187 -322h-90z" />
    <glyph glyph-name="aacute" unicode="&#xe1;" horiz-adv-x="968" 
d="M911 920l-135 -920h-131l17 109q-140 -121 -281 -121q-130 0 -220.5 102t-90.5 252q0 137 48.5 250.5t133 189.5t200 118t248.5 42q87 0 211 -22zM680 242l84 581q-27 8 -84 8q-130 0 -237.5 -60t-170.5 -171t-63 -250q0 -62 22.5 -119t72 -97t116.5 -40q74 0 147 46
t113 102zM831 1405l-282 -322h-90l188 322h184z" />
    <glyph glyph-name="acircumflex" unicode="&#xe2;" horiz-adv-x="968" 
d="M911 920l-135 -920h-131l17 109q-140 -121 -281 -121q-130 0 -220.5 102t-90.5 252q0 137 48.5 250.5t133 189.5t200 118t248.5 42q87 0 211 -22zM680 242l84 581q-27 8 -84 8q-130 0 -237.5 -60t-170.5 -171t-63 -250q0 -62 22.5 -119t72 -97t116.5 -40q74 0 147 46
t113 102zM768 1405l76 -322h-80l-94 201l-254 -201h-99l293 322h158z" />
    <glyph glyph-name="atilde" unicode="&#xe3;" horiz-adv-x="968" 
d="M911 920l-135 -920h-131l17 109q-140 -121 -281 -121q-130 0 -220.5 102t-90.5 252q0 137 48.5 250.5t133 189.5t200 118t248.5 42q87 0 211 -22zM680 242l84 581q-27 8 -84 8q-130 0 -237.5 -60t-170.5 -171t-63 -250q0 -62 22.5 -119t72 -97t116.5 -40q74 0 147 46
t113 102zM350 1135h-74q11 87 33 131q41 84 133 84q65 0 183 -50q90 -38 135 -38q23 0 39 8.5t24 26t11 27.5t6 30h73q0 -106 -51 -162.5t-117 -56.5q-57 0 -147 36q-3 1 -30 11.5t-39 15t-34 12t-37.5 10.5t-27.5 3q-66 0 -80 -88z" />
    <glyph glyph-name="adieresis" unicode="&#xe4;" horiz-adv-x="968" 
d="M911 920l-135 -920h-131l17 109q-140 -121 -281 -121q-130 0 -220.5 102t-90.5 252q0 137 48.5 250.5t133 189.5t200 118t248.5 42q87 0 211 -22zM680 242l84 581q-27 8 -84 8q-130 0 -237.5 -60t-170.5 -171t-63 -250q0 -62 22.5 -119t72 -97t116.5 -40q74 0 147 46
t113 102zM414 1335q38 0 65 -27t27 -65t-27 -65t-65 -27t-65 27t-27 65t27 65t65 27zM760 1335q38 0 65 -27t27 -65t-27 -65t-65 -27t-65 27t-27 65t27 65t65 27z" />
    <glyph glyph-name="aring" unicode="&#xe5;" horiz-adv-x="968" 
d="M911 920l-135 -920h-131l17 109q-140 -121 -281 -121q-130 0 -220.5 102t-90.5 252q0 137 48.5 250.5t133 189.5t200 118t248.5 42q87 0 211 -22zM680 242l84 581q-27 8 -84 8q-130 0 -237.5 -60t-170.5 -171t-63 -250q0 -62 22.5 -119t72 -97t116.5 -40q74 0 147 46
t113 102zM594 1075q-80 0 -135.5 55.5t-55.5 135.5t56 136t135 56q80 0 136 -56t56 -136q0 -79 -56 -135t-136 -56zM594 1163q43 0 73.5 30t30.5 73t-30.5 73.5t-73.5 30.5t-72.5 -30.5t-29.5 -73.5t29.5 -73t72.5 -30z" />
    <glyph glyph-name="ae" unicode="&#xe6;" horiz-adv-x="1345" 
d="M1225 219l-21 -143q-77 -52 -162 -75.5t-151 -23.5q-95 0 -177.5 45.5t-119.5 129.5q-164 -175 -338 -175q-82 0 -147.5 54t-65.5 147q0 126 133.5 221.5t407.5 130.5l6 37q10 50 10 113q0 77 -43 114t-104 37q-46 0 -91 -14.5t-86 -41.5t-66.5 -47.5t-58.5 -50.5
q-8 -8 -12 -11l4 139q49 39 84.5 62.5t103.5 49t136 25.5q85 0 142.5 -40t82.5 -95q116 135 271 135q136 0 226.5 -104.5t90.5 -298.5q0 -32 -4 -72h-567l-4 -29q-11 -70 -11 -155q0 -89 57.5 -142t151.5 -53q155 0 322 131zM721 561h430q7 123 -48.5 196.5t-150.5 73.5
q-96 0 -156.5 -72t-74.5 -198zM541 217l30 213q-107 -15 -186 -43t-121.5 -62.5t-62 -69t-19.5 -69.5q0 -50 31 -74t72 -24q113 0 256 129z" />
    <glyph glyph-name="ccedilla" unicode="&#xe7;" horiz-adv-x="815" 
d="M479 -23l-12 -28q84 -34 84 -123q0 -74 -55 -126t-174 -52q-46 0 -91 10l23 80q28 -8 72 -8q51 0 82.5 26t31.5 66q0 47 -69 67l41 93q-65 9 -118.5 33.5t-87.5 54.5t-59.5 70t-38.5 74.5t-21 73t-9.5 60.5t-1.5 43q0 104 37 201t107 176t183 126.5t252 47.5
q72 0 160 -16l-18 -127q-87 20 -162 20q-84 0 -155 -28.5t-119 -73.5t-81.5 -102t-49 -113t-15.5 -107q0 -38 7.5 -76t27.5 -79.5t50.5 -72.5t81.5 -51t116 -20q63 0 121.5 20t134.5 64l-21 -139q-130 -64 -254 -64z" />
    <glyph glyph-name="egrave" unicode="&#xe8;" horiz-adv-x="905" 
d="M836 483h-615q-4 -46 -4 -80q0 -142 79.5 -228.5t186.5 -86.5q39 0 77 8.5t65 18.5t59 28.5t46 28.5t39.5 29.5t27.5 21.5l-21 -147q-133 -99 -297 -99q-80 0 -147.5 26t-113.5 69.5t-78 101t-47 120t-15 126.5q0 121 40.5 223t104.5 165.5t139 98.5t148 35
q146 0 238 -109.5t92 -281.5q0 -36 -4 -68zM242 578h469q0 123 -57 188t-144 65q-81 0 -158 -64t-110 -189zM317 1405h187l186 -322h-90z" />
    <glyph glyph-name="eacute" unicode="&#xe9;" horiz-adv-x="905" 
d="M836 483h-615q-4 -46 -4 -80q0 -142 79.5 -228.5t186.5 -86.5q39 0 77 8.5t65 18.5t59 28.5t46 28.5t39.5 29.5t27.5 21.5l-21 -147q-133 -99 -297 -99q-80 0 -147.5 26t-113.5 69.5t-78 101t-47 120t-15 126.5q0 121 40.5 223t104.5 165.5t139 98.5t148 35
q146 0 238 -109.5t92 -281.5q0 -36 -4 -68zM242 578h469q0 123 -57 188t-144 65q-81 0 -158 -64t-110 -189zM780 1405l-282 -322h-90l188 322h184z" />
    <glyph glyph-name="ecircumflex" unicode="&#xea;" horiz-adv-x="905" 
d="M836 483h-615q-4 -46 -4 -80q0 -142 79.5 -228.5t186.5 -86.5q39 0 77 8.5t65 18.5t59 28.5t46 28.5t39.5 29.5t27.5 21.5l-21 -147q-133 -99 -297 -99q-80 0 -147.5 26t-113.5 69.5t-78 101t-47 120t-15 126.5q0 121 40.5 223t104.5 165.5t139 98.5t148 35
q146 0 238 -109.5t92 -281.5q0 -36 -4 -68zM242 578h469q0 123 -57 188t-144 65q-81 0 -158 -64t-110 -189zM717 1405l76 -322h-80l-95 201l-253 -201h-99l293 322h158z" />
    <glyph glyph-name="edieresis" unicode="&#xeb;" horiz-adv-x="905" 
d="M836 483h-615q-4 -46 -4 -80q0 -142 79.5 -228.5t186.5 -86.5q39 0 77 8.5t65 18.5t59 28.5t46 28.5t39.5 29.5t27.5 21.5l-21 -147q-133 -99 -297 -99q-80 0 -147.5 26t-113.5 69.5t-78 101t-47 120t-15 126.5q0 121 40.5 223t104.5 165.5t139 98.5t148 35
q146 0 238 -109.5t92 -281.5q0 -36 -4 -68zM242 578h469q0 123 -57 188t-144 65q-81 0 -158 -64t-110 -189zM362 1335q38 0 65.5 -27t27.5 -65t-27.5 -65t-65.5 -27t-65 27t-27 65t27 65t65 27zM709 1335q38 0 65 -27t27 -65t-27 -65t-65 -27t-65.5 27t-27.5 65t27.5 65
t65.5 27z" />
    <glyph glyph-name="igrave" unicode="&#xec;" horiz-adv-x="395" 
d="M328 920l-133 -920h-132l132 920h133zM92 1405h187l186 -322h-90z" />
    <glyph glyph-name="iacute" unicode="&#xed;" horiz-adv-x="395" 
d="M328 920l-133 -920h-132l132 920h133zM545 1405l-283 -322h-90l188 322h185z" />
    <glyph glyph-name="icircumflex" unicode="&#xee;" horiz-adv-x="395" 
d="M328 920l-133 -920h-132l132 920h133zM481 1405l76 -322h-80l-94 201l-254 -201h-98l293 322h157z" />
    <glyph glyph-name="idieresis" unicode="&#xef;" horiz-adv-x="395" 
d="M328 920l-133 -920h-132l132 920h133zM127 1335q38 0 65 -27t27 -65t-27 -65t-65 -27t-65 27t-27 65t27 65t65 27zM473 1335q38 0 65 -27t27 -65t-27 -65t-65 -27t-65 27t-27 65t27 65t65 27z" />
    <glyph glyph-name="eth" unicode="&#xf0;" horiz-adv-x="921" 
d="M645 1292l178 97l37 -72l-160 -86q164 -225 164 -561q0 -147 -27 -266.5t-71.5 -197.5t-105 -131t-124.5 -75.5t-133 -22.5q-144 0 -236.5 99.5t-92.5 298.5q0 138 40 249.5t105.5 179t143.5 103t159 35.5q107 0 193 -78q-48 215 -127 307l-205 -108l-37 72l191 100
q-40 40 -111 84l53 96q76 -33 166 -123zM213 373q0 -73 15.5 -128t37 -84t49.5 -46.5t48 -22t38 -4.5q71 0 131.5 44.5t99 114t60 150t21.5 156.5q0 44 -10 88t-31.5 89t-64.5 73t-101 28q-49 0 -99.5 -28.5t-94.5 -83t-71.5 -145t-27.5 -201.5z" />
    <glyph glyph-name="ntilde" unicode="&#xf1;" horiz-adv-x="937" 
d="M186 920h133l-24 -170q96 96 171 144t167 48q115 0 171 -69t56 -171q0 -43 -8 -100l-88 -602h-131l86 598q6 38 6 88q0 79 -37.5 112t-93.5 33q-28 0 -50.5 -6t-60 -26t-90 -67.5t-121.5 -123.5l-88 -608h-133zM326 1135h-74q11 87 33 131q41 84 133 84q64 0 182 -50
q90 -38 135 -38q23 0 39 8.5t24 26t11 27.5t6 30h74q0 -106 -51 -162.5t-117 -56.5q-58 0 -148 36l-30 12t-38.5 14.5t-34.5 12t-36.5 10.5t-27.5 3q-66 0 -80 -88z" />
    <glyph glyph-name="ograve" unicode="&#xf2;" horiz-adv-x="917" 
d="M844 553q0 -113 -26 -209t-69 -162.5t-100.5 -113.5t-119.5 -69t-126 -22q-19 0 -39.5 2.5t-54 12t-64 25.5t-62.5 46.5t-55.5 71t-38.5 103t-15 139.5q0 136 38.5 246.5t101.5 178.5t140 104t158 36q138 0 235 -100.5t97 -288.5zM213 373q0 -73 15.5 -128t37 -84
t49.5 -46.5t48 -22t38 -4.5q70 0 130 44.5t96.5 114.5t57 150t20.5 156q0 125 -52.5 201.5t-146.5 76.5q-83 0 -150.5 -62.5t-105 -167.5t-37.5 -228zM354 1405h187l186 -322h-90z" />
    <glyph glyph-name="oacute" unicode="&#xf3;" horiz-adv-x="917" 
d="M844 553q0 -113 -26 -209t-69 -162.5t-100.5 -113.5t-119.5 -69t-126 -22q-19 0 -39.5 2.5t-54 12t-64 25.5t-62.5 46.5t-55.5 71t-38.5 103t-15 139.5q0 136 38.5 246.5t101.5 178.5t140 104t158 36q138 0 235 -100.5t97 -288.5zM213 373q0 -73 15.5 -128t37 -84
t49.5 -46.5t48 -22t38 -4.5q70 0 130 44.5t96.5 114.5t57 150t20.5 156q0 125 -52.5 201.5t-146.5 76.5q-83 0 -150.5 -62.5t-105 -167.5t-37.5 -228zM786 1405l-282 -322h-90l188 322h184z" />
    <glyph glyph-name="ocircumflex" unicode="&#xf4;" horiz-adv-x="917" 
d="M844 553q0 -113 -26 -209t-69 -162.5t-100.5 -113.5t-119.5 -69t-126 -22q-19 0 -39.5 2.5t-54 12t-64 25.5t-62.5 46.5t-55.5 71t-38.5 103t-15 139.5q0 136 38.5 246.5t101.5 178.5t140 104t158 36q138 0 235 -100.5t97 -288.5zM213 373q0 -73 15.5 -128t37 -84
t49.5 -46.5t48 -22t38 -4.5q70 0 130 44.5t96.5 114.5t57 150t20.5 156q0 125 -52.5 201.5t-146.5 76.5q-83 0 -150.5 -62.5t-105 -167.5t-37.5 -228zM727 1405l76 -322h-80l-94 201l-254 -201h-99l293 322h158z" />
    <glyph glyph-name="otilde" unicode="&#xf5;" horiz-adv-x="917" 
d="M844 553q0 -113 -26 -209t-69 -162.5t-100.5 -113.5t-119.5 -69t-126 -22q-19 0 -39.5 2.5t-54 12t-64 25.5t-62.5 46.5t-55.5 71t-38.5 103t-15 139.5q0 136 38.5 246.5t101.5 178.5t140 104t158 36q138 0 235 -100.5t97 -288.5zM213 373q0 -73 15.5 -128t37 -84
t49.5 -46.5t48 -22t38 -4.5q70 0 130 44.5t96.5 114.5t57 150t20.5 156q0 125 -52.5 201.5t-146.5 76.5q-83 0 -150.5 -62.5t-105 -167.5t-37.5 -228zM326 1135h-74q11 87 33 131q41 84 133 84q64 0 182 -50q90 -38 135 -38q23 0 39 8.5t24 26t11 27.5t6 30h74
q0 -106 -51 -162.5t-117 -56.5q-58 0 -148 36l-30 12t-38.5 14.5t-34.5 12t-36.5 10.5t-27.5 3q-66 0 -80 -88z" />
    <glyph glyph-name="odieresis" unicode="&#xf6;" horiz-adv-x="917" 
d="M844 553q0 -113 -26 -209t-69 -162.5t-100.5 -113.5t-119.5 -69t-126 -22q-19 0 -39.5 2.5t-54 12t-64 25.5t-62.5 46.5t-55.5 71t-38.5 103t-15 139.5q0 136 38.5 246.5t101.5 178.5t140 104t158 36q138 0 235 -100.5t97 -288.5zM213 373q0 -73 15.5 -128t37 -84
t49.5 -46.5t48 -22t38 -4.5q70 0 130 44.5t96.5 114.5t57 150t20.5 156q0 125 -52.5 201.5t-146.5 76.5q-83 0 -150.5 -62.5t-105 -167.5t-37.5 -228zM389 1335q38 0 65 -27t27 -65t-27 -65t-65 -27t-65 27t-27 65t27 65t65 27zM735 1335q38 0 65 -27t27 -65t-27 -65
t-65 -27t-65 27t-27 65t27 65t65 27z" />
    <glyph glyph-name="divide" unicode="&#xf7;" horiz-adv-x="1366" 
d="M717 1071q-35 0 -59.5 24.5t-24.5 59.5t24.5 60.5t59.5 25.5t60.5 -25.5t25.5 -60.5t-25.5 -59.5t-60.5 -24.5zM174 764h1088v-133h-1088v133zM717 324q35 0 60.5 -24.5t25.5 -59.5t-25.5 -60.5t-60.5 -25.5t-59.5 25.5t-24.5 60.5t24.5 59.5t59.5 24.5z" />
    <glyph glyph-name="oslash" unicode="&#xf8;" horiz-adv-x="917" 
d="M197 51l-86 -117l-66 48l96 131q-67 98 -67 266q0 135 38 244.5t100.5 177.5t140 104.5t159.5 36.5q115 0 197 -65l79 108l68 -49l-90 -119q78 -101 78 -270q0 -137 -40.5 -249t-105 -180t-141 -104.5t-154.5 -36.5q-113 0 -206 74zM680 702l-408 -550q28 -32 64.5 -48
t64.5 -16q84 0 154.5 68t110 177t39.5 230q0 79 -25 139zM229 231l406 545q-55 55 -129 55q-87 0 -155.5 -67.5t-103 -170.5t-34.5 -218q0 -91 16 -144z" />
    <glyph glyph-name="ugrave" unicode="&#xf9;" horiz-adv-x="944" 
d="M758 0h-133l24 170q-97 -97 -171.5 -145t-166.5 -48q-115 0 -171 69t-56 171q0 43 8 100l88 603h131l-86 -598q-6 -37 -6 -89q0 -79 37.5 -112t93.5 -33q28 0 50.5 6t60 26t90 67.5t121.5 123.5l88 609h133zM367 1405h186l186 -322h-90z" />
    <glyph glyph-name="uacute" unicode="&#xfa;" horiz-adv-x="944" 
d="M758 0h-133l24 170q-97 -97 -171.5 -145t-166.5 -48q-115 0 -171 69t-56 171q0 43 8 100l88 603h131l-86 -598q-6 -37 -6 -89q0 -79 37.5 -112t93.5 -33q28 0 50.5 6t60 26t90 67.5t121.5 123.5l88 609h133zM809 1405l-283 -322h-90l189 322h184z" />
    <glyph glyph-name="ucircumflex" unicode="&#xfb;" horiz-adv-x="944" 
d="M758 0h-133l24 170q-97 -97 -171.5 -145t-166.5 -48q-115 0 -171 69t-56 171q0 43 8 100l88 603h131l-86 -598q-6 -37 -6 -89q0 -79 37.5 -112t93.5 -33q28 0 50.5 6t60 26t90 67.5t121.5 123.5l88 609h133zM756 1405l75 -322h-79l-95 201l-254 -201h-98l293 322h158z
" />
    <glyph glyph-name="udieresis" unicode="&#xfc;" horiz-adv-x="944" 
d="M758 0h-133l24 170q-97 -97 -171.5 -145t-166.5 -48q-115 0 -171 69t-56 171q0 43 8 100l88 603h131l-86 -598q-6 -37 -6 -89q0 -79 37.5 -112t93.5 -33q28 0 50.5 6t60 26t90 67.5t121.5 123.5l88 609h133zM401 1335q38 0 65.5 -27t27.5 -65t-27.5 -65t-65.5 -27t-65 27
t-27 65t27 65t65 27zM748 1335q38 0 65 -27t27 -65t-27 -65t-65 -27t-65.5 27t-27.5 65t27.5 65t65.5 27z" />
    <glyph glyph-name="yacute" unicode="&#xfd;" horiz-adv-x="796" 
d="M856 920l-694 -1391h-144l254 506l-174 885h133l134 -699l350 699h141zM745 1405l-282 -322h-90l188 322h184z" />
    <glyph glyph-name="thorn" unicode="&#xfe;" horiz-adv-x="958" 
d="M254 1397h131l-74 -502q1 1 16 7t24.5 10t30 10t38.5 10t42.5 7t49.5 3q65 0 129 -28.5t117 -80.5t86 -135t33 -182q0 -38 -6.5 -80.5t-24 -96t-44.5 -103t-73 -97.5t-104.5 -83.5t-143.5 -57t-186 -21.5q-77 0 -115 7l-65 -437h-129zM297 795l-100 -705q30 -6 88 -6
q100 0 179.5 27t129.5 70.5t83 101.5t46.5 115.5t13.5 117.5q0 83 -24 147.5t-64 100.5t-85.5 54t-94.5 18q-23 0 -43.5 -2t-34 -4.5t-30 -8t-23.5 -8.5t-22.5 -10t-18.5 -8z" />
    <glyph glyph-name="ydieresis" unicode="&#xff;" horiz-adv-x="796" 
d="M856 920l-694 -1391h-144l254 506l-174 885h133l134 -699l350 699h141zM328 1335q38 0 65 -27t27 -65t-27 -65t-65 -27t-65 27t-27 65t27 65t65 27zM674 1335q38 0 65 -27t27 -65t-27 -65t-65 -27t-65 27t-27 65t27 65t65 27z" />
    <glyph glyph-name="Amacron" unicode="&#x100;" horiz-adv-x="1087" 
d="M713 1415l297 -1415h-136l-100 467h-479l-209 -467h-143l639 1415h131zM750 594l-129 618l-271 -618h400zM975 1716l-19 -129h-604l21 129h602z" />
    <glyph glyph-name="amacron" unicode="&#x101;" horiz-adv-x="968" 
d="M911 920l-135 -920h-131l17 109q-140 -121 -281 -121q-130 0 -220.5 102t-90.5 252q0 137 48.5 250.5t133 189.5t200 118t248.5 42q87 0 211 -22zM680 242l84 581q-27 8 -84 8q-130 0 -237.5 -60t-170.5 -171t-63 -250q0 -62 22.5 -119t72 -97t116.5 -40q74 0 147 46
t113 102zM918 1309l-19 -129h-604l20 129h603z" />
    <glyph glyph-name="Abreve" unicode="&#x102;" horiz-adv-x="1087" 
d="M713 1415l297 -1415h-136l-100 467h-479l-209 -467h-143l639 1415h131zM750 594l-129 618l-271 -618h400zM414 1753h88q3 -72 42.5 -111.5t96.5 -39.5q52 0 105 39.5t92 111.5h86q-18 -60 -45.5 -106.5t-57 -75t-63.5 -47.5t-63.5 -26t-57.5 -7q-100 0 -163 75.5
t-60 186.5z" />
    <glyph glyph-name="abreve" unicode="&#x103;" horiz-adv-x="968" 
d="M911 920l-135 -920h-131l17 109q-140 -121 -281 -121q-130 0 -220.5 102t-90.5 252q0 137 48.5 250.5t133 189.5t200 118t248.5 42q87 0 211 -22zM680 242l84 581q-27 8 -84 8q-130 0 -237.5 -60t-170.5 -171t-63 -250q0 -62 22.5 -119t72 -97t116.5 -40q74 0 147 46
t113 102zM395 1346h88q3 -72 43 -112t97 -40q52 0 104.5 40t91.5 112h86q-22 -74 -58 -128t-77 -82t-78.5 -40.5t-73.5 -12.5q-100 0 -163 75.5t-60 187.5z" />
    <glyph glyph-name="Aogonek" unicode="&#x104;" horiz-adv-x="1087" 
d="M713 1415l297 -1415q-66 -104 -66 -166q0 -48 40 -78t93 -30q34 0 88 12l-8 -125q-83 -16 -125 -16q-57 0 -103.5 18.5t-74.5 47t-42.5 61.5t-14.5 65q0 90 77 211l-100 467h-479l-209 -467h-143l639 1415h131zM750 594l-129 618l-271 -618h400z" />
    <glyph glyph-name="aogonek" unicode="&#x105;" horiz-adv-x="968" 
d="M915 -236l-14 -112q-63 -14 -110 -14q-100 0 -158 53.5t-58 120.5q0 89 70 188l17 109q-140 -121 -281 -121q-130 0 -220.5 102t-90.5 252q0 137 48.5 250.5t133 189.5t200 118t248.5 42q87 0 211 -22l-135 -920q-61 -93 -61 -145q0 -50 38.5 -76.5t80.5 -26.5
q31 0 81 12zM680 242l84 581q-27 8 -84 8q-130 0 -237.5 -60t-170.5 -171t-63 -250q0 -62 22.5 -119t72 -97t116.5 -40q74 0 147 46t113 102z" />
    <glyph glyph-name="Cacute" unicode="&#x106;" horiz-adv-x="1148" 
d="M1200 1407l-16 -129q-39 4 -109 4q-158 0 -292 -42.5t-226 -113t-157 -163.5t-95.5 -192t-30.5 -200q0 -107 33.5 -195t90 -144t129 -86.5t151.5 -30.5q55 0 108.5 11t89 22.5t88 40.5t73 42t77.5 50l-24 -175q-91 -55 -199 -89.5t-211 -34.5q-156 0 -283 73t-200.5 206
t-73.5 300q0 185 69.5 344t193 271t300 175.5t383.5 63.5q77 0 131 -8zM1169 1812l-282 -321h-90l188 321h184z" />
    <glyph glyph-name="cacute" unicode="&#x107;" horiz-adv-x="815" 
d="M815 926l-18 -127q-87 20 -162 20q-124 0 -222 -64t-148 -159.5t-50 -200.5q0 -43 8.5 -83.5t30 -80t53 -69t81 -48t110.5 -18.5q68 0 125 20t131 64l-21 -139q-125 -64 -254 -64q-191 0 -297 115.5t-106 298.5q0 77 21.5 154t68.5 149t113.5 127t163.5 88t212 33
q72 0 160 -16zM840 1405l-283 -322h-90l188 322h185z" />
    <glyph glyph-name="Ccircumflex" unicode="&#x108;" horiz-adv-x="1148" 
d="M1200 1407l-16 -129q-39 4 -109 4q-158 0 -292 -42.5t-226 -113t-157 -163.5t-95.5 -192t-30.5 -200q0 -107 33.5 -195t90 -144t129 -86.5t151.5 -30.5q55 0 108.5 11t89 22.5t88 40.5t73 42t77.5 50l-24 -175q-91 -55 -199 -89.5t-211 -34.5q-156 0 -283 73t-200.5 206
t-73.5 300q0 185 69.5 344t193 271t300 175.5t383.5 63.5q77 0 131 -8zM987 1812l76 -321h-80l-94 201l-254 -201h-98l292 321h158z" />
    <glyph glyph-name="ccircumflex" unicode="&#x109;" horiz-adv-x="815" 
d="M815 926l-18 -127q-87 20 -162 20q-124 0 -222 -64t-148 -159.5t-50 -200.5q0 -43 8.5 -83.5t30 -80t53 -69t81 -48t110.5 -18.5q68 0 125 20t131 64l-21 -139q-125 -64 -254 -64q-191 0 -297 115.5t-106 298.5q0 77 21.5 154t68.5 149t113.5 127t163.5 88t212 33
q72 0 160 -16zM739 1405l76 -322h-80l-94 201l-254 -201h-98l293 322h157z" />
    <glyph glyph-name="Cdotaccent" unicode="&#x10a;" horiz-adv-x="1148" 
d="M1200 1407l-16 -129q-39 4 -109 4q-158 0 -292 -42.5t-226 -113t-157 -163.5t-95.5 -192t-30.5 -200q0 -107 33.5 -195t90 -144t129 -86.5t151.5 -30.5q55 0 108.5 11t89 22.5t88 40.5t73 42t77.5 50l-24 -175q-91 -55 -199 -89.5t-211 -34.5q-156 0 -283 73t-200.5 206
t-73.5 300q0 185 69.5 344t193 271t300 175.5t383.5 63.5q77 0 131 -8zM967 1649q0 -39 -27.5 -70t-71.5 -31q-41 0 -70.5 30t-29.5 71t29 69.5t69 28.5q42 0 71.5 -29t29.5 -69z" />
    <glyph glyph-name="cdotaccent" unicode="&#x10b;" horiz-adv-x="815" 
d="M815 926l-18 -127q-87 20 -162 20q-124 0 -222 -64t-148 -159.5t-50 -200.5q0 -43 8.5 -83.5t30 -80t53 -69t81 -48t110.5 -18.5q68 0 125 20t131 64l-21 -139q-125 -64 -254 -64q-191 0 -297 115.5t-106 298.5q0 77 21.5 154t68.5 149t113.5 127t163.5 88t212 33
q72 0 160 -16zM582 1335q38 0 65 -27t27 -65t-27 -65t-65 -27t-65.5 27t-27.5 65t27.5 65t65.5 27z" />
    <glyph glyph-name="Ccaron" unicode="&#x10c;" horiz-adv-x="1148" 
d="M1200 1407l-16 -129q-39 4 -109 4q-158 0 -292 -42.5t-226 -113t-157 -163.5t-95.5 -192t-30.5 -200q0 -107 33.5 -195t90 -144t129 -86.5t151.5 -30.5q55 0 108.5 11t89 22.5t88 40.5t73 42t77.5 50l-24 -175q-91 -55 -199 -89.5t-211 -34.5q-156 0 -283 73t-200.5 206
t-73.5 300q0 185 69.5 344t193 271t300 175.5t383.5 63.5q77 0 131 -8zM735 1491l-76 321h80l95 -200l253 200h99l-293 -321h-158z" />
    <glyph glyph-name="ccaron" unicode="&#x10d;" horiz-adv-x="815" 
d="M815 926l-18 -127q-87 20 -162 20q-124 0 -222 -64t-148 -159.5t-50 -200.5q0 -43 8.5 -83.5t30 -80t53 -69t81 -48t110.5 -18.5q68 0 125 20t131 64l-21 -139q-125 -64 -254 -64q-191 0 -297 115.5t-106 298.5q0 77 21.5 154t68.5 149t113.5 127t163.5 88t212 33
q72 0 160 -16zM479 1083l-76 322h80l95 -201l253 201h99l-293 -322h-158z" />
    <glyph glyph-name="Dcaron" unicode="&#x10e;" horiz-adv-x="1341" 
d="M291 1397h213q149 0 275 -39.5t214.5 -107t151 -158t92 -193t29.5 -211.5q0 -149 -49 -275t-140 -218t-229.5 -143.5t-310.5 -51.5h-451zM489 1270h-75l-168 -1143h211q123 0 224.5 22.5t172 63t122 92.5t81 116.5t43.5 130t14 136.5q0 73 -16.5 147t-61 154.5
t-112.5 141t-180.5 100t-254.5 39.5zM545 1491l-76 321h80l94 -200l254 200h98l-293 -321h-157z" />
    <glyph glyph-name="dcaron" unicode="&#x10f;" horiz-adv-x="1128" 
d="M993 1397l-200 -1391q-113 -29 -236 -29q-223 0 -352 113t-129 299q0 77 22 153t71 148.5t119 128t173.5 89.5t226.5 34q51 0 105 -4l67 459h133zM672 98l104 729q-36 4 -80 4q-114 0 -203 -33t-139.5 -81t-83.5 -110t-44 -113t-11 -97q0 -142 93 -227.5t243 -85.5
q58 0 121 14zM1014 965l10 82q59 12 98.5 54.5t26.5 106.5q-74 32 -74 99q0 40 28 74t85 34q56 0 90.5 -41.5t34.5 -105.5q0 -104 -78.5 -194t-220.5 -109z" />
    <glyph glyph-name="Dcroat" unicode="&#x110;" horiz-adv-x="1341" 
d="M291 1397h213q149 0 275 -39.5t214.5 -107t151 -158t92 -193t29.5 -211.5q0 -149 -49 -275t-140 -218t-229.5 -143.5t-310.5 -51.5h-451l94 643h-166l17 111h166zM489 1270h-75l-76 -516h348l-16 -111h-348l-76 -516h211q123 0 224.5 22.5t172 63t122 92.5t81 116.5
t43.5 130t14 136.5q0 73 -16.5 147t-61 154.5t-112.5 141t-180.5 100t-254.5 39.5z" />
    <glyph glyph-name="dcroat" unicode="&#x111;" horiz-adv-x="983" 
d="M993 1397l-28 -195h161l-16 -94h-160l-157 -1102q-113 -29 -236 -29q-223 0 -352 113t-129 299q0 77 22 153t71 148.5t119 128t173.5 89.5t226.5 34q51 0 105 -4l24 170h-264l16 94h262l29 195h133zM672 98l104 729q-36 4 -80 4q-114 0 -203 -33t-139.5 -81t-83.5 -110
t-44 -113t-11 -97q0 -142 93 -227.5t243 -85.5q58 0 121 14z" />
    <glyph glyph-name="Emacron" unicode="&#x112;" horiz-adv-x="1067" 
d="M1018 1397l-19 -127h-587l-72 -496h541l-19 -127h-540l-78 -520h762l-19 -127h-901l205 1397h727zM987 1716l-18 -129h-604l20 129h602z" />
    <glyph glyph-name="emacron" unicode="&#x113;" horiz-adv-x="905" 
d="M836 483h-615q-4 -46 -4 -80q0 -142 79.5 -228.5t186.5 -86.5q39 0 77 8.5t65 18.5t59 28.5t46 28.5t39.5 29.5t27.5 21.5l-21 -147q-133 -99 -297 -99q-80 0 -147.5 26t-113.5 69.5t-78 101t-47 120t-15 126.5q0 121 40.5 223t104.5 165.5t139 98.5t148 35
q146 0 238 -109.5t92 -281.5q0 -36 -4 -68zM242 578h469q0 123 -57 188t-144 65q-81 0 -158 -64t-110 -189zM846 1309l-19 -129h-604l21 129h602z" />
    <glyph glyph-name="Ebreve" unicode="&#x114;" horiz-adv-x="1067" 
d="M1018 1397l-19 -127h-587l-72 -496h541l-19 -127h-540l-78 -520h762l-19 -127h-901l205 1397h727zM465 1753h88q3 -72 42.5 -111.5t96.5 -39.5q52 0 105 39.5t92 111.5h86q-18 -60 -45.5 -106.5t-57 -75t-63.5 -47.5t-63.5 -26t-57.5 -7q-100 0 -163 75.5t-60 186.5z" />
    <glyph glyph-name="ebreve" unicode="&#x115;" horiz-adv-x="905" 
d="M836 483h-615q-4 -46 -4 -80q0 -142 79.5 -228.5t186.5 -86.5q39 0 77 8.5t65 18.5t59 28.5t46 28.5t39.5 29.5t27.5 21.5l-21 -147q-133 -99 -297 -99q-80 0 -147.5 26t-113.5 69.5t-78 101t-47 120t-15 126.5q0 121 40.5 223t104.5 165.5t139 98.5t148 35
q146 0 238 -109.5t92 -281.5q0 -36 -4 -68zM242 578h469q0 123 -57 188t-144 65q-81 0 -158 -64t-110 -189zM317 1346h89q3 -72 42.5 -112t96.5 -40q52 0 104.5 40t91.5 112h86q-22 -74 -58 -128t-76.5 -82t-78 -40.5t-73.5 -12.5q-100 0 -163.5 76t-60.5 187z" />
    <glyph glyph-name="Edotaccent" unicode="&#x116;" horiz-adv-x="1067" 
d="M1018 1397l-19 -127h-587l-72 -496h541l-19 -127h-540l-78 -520h762l-19 -127h-901l205 1397h727zM803 1649q0 -39 -27 -70t-71 -31q-41 0 -71 30t-30 71t29 69.5t69 28.5q42 0 71.5 -29t29.5 -69z" />
    <glyph glyph-name="edotaccent" unicode="&#x117;" horiz-adv-x="905" 
d="M836 483h-615q-4 -46 -4 -80q0 -142 79.5 -228.5t186.5 -86.5q39 0 77 8.5t65 18.5t59 28.5t46 28.5t39.5 29.5t27.5 21.5l-21 -147q-133 -99 -297 -99q-80 0 -147.5 26t-113.5 69.5t-78 101t-47 120t-15 126.5q0 121 40.5 223t104.5 165.5t139 98.5t148 35
q146 0 238 -109.5t92 -281.5q0 -36 -4 -68zM242 578h469q0 123 -57 188t-144 65q-81 0 -158 -64t-110 -189zM547 1335q38 0 65 -27t27 -65t-27 -65t-65 -27t-65 27t-27 65t27 65t65 27z" />
    <glyph glyph-name="Eogonek" unicode="&#x118;" horiz-adv-x="1067" 
d="M719 0h-633l205 1397h727l-19 -127h-587l-72 -496h541l-19 -127h-540l-78 -520h762l-19 -127h-131q-22 -34 -33 -53.5t-23 -52.5t-12 -60q0 -48 40 -78t94 -30q34 0 88 12l-9 -125q-83 -16 -124 -16q-57 0 -104 18.5t-74.5 47t-42.5 61.5t-15 65q0 88 78 211z" />
    <glyph glyph-name="eogonek" unicode="&#x119;" horiz-adv-x="905" 
d="M705 -236l-15 -112q-63 -14 -110 -14q-100 0 -157.5 53.5t-57.5 120.5q0 81 57 170q-86 10 -153.5 52.5t-108 104.5t-61.5 134t-21 147q0 121 40.5 223t104.5 165.5t139 98.5t148 35q146 0 238 -109.5t92 -281.5q0 -36 -4 -68h-615q-4 -46 -4 -80q0 -142 79.5 -228.5
t186.5 -86.5q39 0 77 8.5t65 18.5t59 28.5t46 28.5t39.5 29.5t27.5 21.5l-21 -147q-95 -74 -223 -92q-49 -80 -49 -129q0 -50 38.5 -76.5t80.5 -26.5q32 0 82 12zM242 578h469q0 123 -57 188t-144 65q-81 0 -158 -64t-110 -189z" />
    <glyph glyph-name="Ecaron" unicode="&#x11a;" horiz-adv-x="1067" 
d="M1018 1397l-19 -127h-587l-72 -496h541l-19 -127h-540l-78 -520h762l-19 -127h-901l205 1397h727zM530 1491l-75 321h80l94 -200l254 200h98l-293 -321h-158z" />
    <glyph glyph-name="ecaron" unicode="&#x11b;" horiz-adv-x="905" 
d="M836 483h-615q-4 -46 -4 -80q0 -142 79.5 -228.5t186.5 -86.5q39 0 77 8.5t65 18.5t59 28.5t46 28.5t39.5 29.5t27.5 21.5l-21 -147q-133 -99 -297 -99q-80 0 -147.5 26t-113.5 69.5t-78 101t-47 120t-15 126.5q0 121 40.5 223t104.5 165.5t139 98.5t148 35
q146 0 238 -109.5t92 -281.5q0 -36 -4 -68zM242 578h469q0 123 -57 188t-144 65q-81 0 -158 -64t-110 -189zM440 1083l-75 322h79l95 -201l254 201h98l-293 -322h-158z" />
    <glyph glyph-name="Gcircumflex" unicode="&#x11c;" horiz-adv-x="1294" 
d="M1337 1391l-18 -131q-118 22 -229 22q-152 0 -284 -37.5t-228.5 -102.5t-165.5 -151.5t-103.5 -187t-34.5 -207.5q0 -222 128 -354.5t319 -132.5q143 0 307 84l39 280h-256l16 121h402l-70 -481q-219 -131 -452 -131q-161 0 -294 76.5t-211.5 216t-78.5 313.5
q0 128 39 248.5t119.5 225.5t193.5 184t270.5 124t341.5 45q121 0 250 -24zM1079 1812l76 -321h-80l-94 201l-254 -201h-98l293 321h157z" />
    <glyph glyph-name="gcircumflex" unicode="&#x11d;" horiz-adv-x="897" 
d="M936 920l-14 -101h-220q99 -94 99 -223q0 -68 -19.5 -125.5t-62.5 -108t-120 -84.5t-183 -47q-49 -6 -84 -15t-52.5 -17.5t-27 -20.5t-11 -19t-1.5 -16q0 -28 40 -48t136 -40q111 -23 184.5 -52t111 -63.5t52 -69t14.5 -79.5q0 -116 -109 -189t-280 -73
q-188 0 -288.5 66.5t-100.5 164.5q0 45 27 81.5t75 61t90.5 39t98.5 27.5q-95 25 -136.5 69.5t-41.5 82.5q0 17 8.5 37t28 44t58.5 45.5t93 33.5q-18 5 -38.5 16t-46.5 33.5t-46.5 52t-34.5 75.5t-14 99q0 155 100.5 259t274.5 104h440zM442 346q97 0 164.5 74t67.5 182
q0 91 -58 149t-141 58q-87 0 -157 -68t-70 -182q0 -85 52 -149t142 -64zM403 -68q-117 -20 -196.5 -67.5t-79.5 -110.5q0 -54 64 -90.5t190 -36.5q123 0 196.5 41.5t73.5 110.5q0 100 -248 153zM698 1405l76 -322h-80l-94 201l-254 -201h-98l293 322h157z" />
    <glyph glyph-name="Gbreve" unicode="&#x11e;" horiz-adv-x="1294" 
d="M1337 1391l-18 -131q-118 22 -229 22q-152 0 -284 -37.5t-228.5 -102.5t-165.5 -151.5t-103.5 -187t-34.5 -207.5q0 -222 128 -354.5t319 -132.5q143 0 307 84l39 280h-256l16 121h402l-70 -481q-219 -131 -452 -131q-161 0 -294 76.5t-211.5 216t-78.5 313.5
q0 128 39 248.5t119.5 225.5t193.5 184t270.5 124t341.5 45q121 0 250 -24zM721 1753h88q3 -72 42.5 -111.5t96.5 -39.5q52 0 105 39.5t92 111.5h86q-18 -60 -45.5 -106.5t-57 -75t-63.5 -47.5t-63.5 -26t-57.5 -7q-100 0 -163 75.5t-60 186.5z" />
    <glyph glyph-name="gbreve" unicode="&#x11f;" horiz-adv-x="897" 
d="M936 920l-14 -101h-220q99 -94 99 -223q0 -68 -19.5 -125.5t-62.5 -108t-120 -84.5t-183 -47q-49 -6 -84 -15t-52.5 -17.5t-27 -20.5t-11 -19t-1.5 -16q0 -28 40 -48t136 -40q111 -23 184.5 -52t111 -63.5t52 -69t14.5 -79.5q0 -116 -109 -189t-280 -73
q-188 0 -288.5 66.5t-100.5 164.5q0 45 27 81.5t75 61t90.5 39t98.5 27.5q-95 25 -136.5 69.5t-41.5 82.5q0 17 8.5 37t28 44t58.5 45.5t93 33.5q-18 5 -38.5 16t-46.5 33.5t-46.5 52t-34.5 75.5t-14 99q0 155 100.5 259t274.5 104h440zM442 346q97 0 164.5 74t67.5 182
q0 91 -58 149t-141 58q-87 0 -157 -68t-70 -182q0 -85 52 -149t142 -64zM403 -68q-117 -20 -196.5 -67.5t-79.5 -110.5q0 -54 64 -90.5t190 -36.5q123 0 196.5 41.5t73.5 110.5q0 100 -248 153zM319 1346h89q3 -72 42.5 -112t96.5 -40q52 0 104.5 40t91.5 112h86
q-22 -74 -58 -128t-76.5 -82t-78 -40.5t-73.5 -12.5q-100 0 -163.5 76t-60.5 187z" />
    <glyph glyph-name="Gdotaccent" unicode="&#x120;" horiz-adv-x="1294" 
d="M1337 1391l-18 -131q-118 22 -229 22q-152 0 -284 -37.5t-228.5 -102.5t-165.5 -151.5t-103.5 -187t-34.5 -207.5q0 -222 128 -354.5t319 -132.5q143 0 307 84l39 280h-256l16 121h402l-70 -481q-219 -131 -452 -131q-161 0 -294 76.5t-211.5 216t-78.5 313.5
q0 128 39 248.5t119.5 225.5t193.5 184t270.5 124t341.5 45q121 0 250 -24zM1069 1649q0 -39 -27 -70t-71 -31q-41 0 -71 30t-30 71t29.5 69.5t69.5 28.5q42 0 71 -29t29 -69z" />
    <glyph glyph-name="gdotaccent" unicode="&#x121;" horiz-adv-x="897" 
d="M936 920l-14 -101h-220q99 -94 99 -223q0 -68 -19.5 -125.5t-62.5 -108t-120 -84.5t-183 -47q-49 -6 -84 -15t-52.5 -17.5t-27 -20.5t-11 -19t-1.5 -16q0 -28 40 -48t136 -40q111 -23 184.5 -52t111 -63.5t52 -69t14.5 -79.5q0 -116 -109 -189t-280 -73
q-188 0 -288.5 66.5t-100.5 164.5q0 45 27 81.5t75 61t90.5 39t98.5 27.5q-95 25 -136.5 69.5t-41.5 82.5q0 17 8.5 37t28 44t58.5 45.5t93 33.5q-18 5 -38.5 16t-46.5 33.5t-46.5 52t-34.5 75.5t-14 99q0 155 100.5 259t274.5 104h440zM442 346q97 0 164.5 74t67.5 182
q0 91 -58 149t-141 58q-87 0 -157 -68t-70 -182q0 -85 52 -149t142 -64zM403 -68q-117 -20 -196.5 -67.5t-79.5 -110.5q0 -54 64 -90.5t190 -36.5q123 0 196.5 41.5t73.5 110.5q0 100 -248 153zM547 1335q38 0 65 -27t27 -65t-27 -65t-65 -27t-65 27t-27 65t27 65t65 27z
" />
    <glyph glyph-name="Gcommaaccent" unicode="&#x122;" horiz-adv-x="1294" 
d="M1337 1391l-18 -131q-118 22 -229 22q-152 0 -284 -37.5t-228.5 -102.5t-165.5 -151.5t-103.5 -187t-34.5 -207.5q0 -222 128 -354.5t319 -132.5q143 0 307 84l39 280h-256l16 121h402l-70 -481q-219 -131 -452 -131q-161 0 -294 76.5t-211.5 216t-78.5 313.5
q0 128 39 248.5t119.5 225.5t193.5 184t270.5 124t341.5 45q121 0 250 -24zM430 -410l31 88q39 -8 86 -8q71 0 117.5 23.5t46.5 70.5q0 27 -15 44t-45 25t-64 10.5t-81 0.5l29 88q27 2 63 2q50 0 92.5 -7t83 -23t63.5 -48.5t23 -78.5q0 -98 -86.5 -148.5t-216.5 -50.5
q-65 0 -127 12z" />
    <glyph glyph-name="gcommaaccent" unicode="&#x123;" horiz-adv-x="897" 
d="M698 1466l-8 -49q-48 -10 -81.5 -56t-22.5 -104q21 -9 41 -33t20 -63q0 -36 -23 -66t-71 -30q-47 0 -77 37t-30 94q0 92 66 172t186 98zM936 920l-14 -101h-220q99 -94 99 -223q0 -68 -19.5 -125.5t-62.5 -108t-120 -84.5t-183 -47q-49 -6 -84 -15t-52.5 -17.5t-27 -20.5
t-11 -19t-1.5 -16q0 -28 40 -48t136 -40q111 -23 184.5 -52t111 -63.5t52 -69t14.5 -79.5q0 -116 -109 -189t-280 -73q-188 0 -288.5 66.5t-100.5 164.5q0 45 27 81.5t75 61t90.5 39t98.5 27.5q-95 25 -136.5 69.5t-41.5 82.5q0 17 8.5 37t28 44t58.5 45.5t93 33.5
q-18 5 -38.5 16t-46.5 33.5t-46.5 52t-34.5 75.5t-14 99q0 155 100.5 259t274.5 104h440zM442 346q97 0 164.5 74t67.5 182q0 91 -58 149t-141 58q-87 0 -157 -68t-70 -182q0 -85 52 -149t142 -64zM403 -68q-117 -20 -196.5 -67.5t-79.5 -110.5q0 -54 64 -90.5t190 -36.5
q123 0 196.5 41.5t73.5 110.5q0 100 -248 153z" />
    <glyph glyph-name="Hcircumflex" unicode="&#x124;" horiz-adv-x="1429" 
d="M1409 1397l-201 -1397h-145l94 641h-835l-93 -641h-143l201 1397h145l-92 -629h836l88 629h145zM1018 1812l76 -321h-80l-94 201l-254 -201h-99l293 321h158z" />
    <glyph glyph-name="hcircumflex" unicode="&#x125;" horiz-adv-x="937" 
d="M254 1397h133l-92 -647q95 95 170.5 143.5t167.5 48.5q115 0 171 -69t56 -171q0 -43 -8 -100l-88 -602h-131l86 598q6 38 6 88q0 79 -37.5 112t-93.5 33q-28 0 -50.5 -6t-60 -26t-90 -67.5t-121.5 -123.5l-88 -608h-133zM750 1812l75 -321h-80l-94 201l-254 -201h-98
l293 321h158z" />
    <glyph glyph-name="Hbar" unicode="&#x126;" horiz-adv-x="1429" 
d="M1409 1397l-41 -281h180l-16 -110h-180l-144 -1006h-145l94 641h-835l-93 -641h-143l143 1006h-168l15 110h170l41 281h145l-41 -281h832l41 281h145zM340 768h836l32 238h-833z" />
    <glyph glyph-name="hbar" unicode="&#x127;" horiz-adv-x="937" 
d="M254 1397h133l-31 -205h314l-15 -94h-311l-49 -348q95 95 170.5 143.5t167.5 48.5q115 0 171 -69t56 -171q0 -43 -8 -100l-88 -602h-131l86 598q6 38 6 88q0 79 -37.5 112t-93.5 33q-28 0 -50.5 -6t-60 -26t-90 -67.5t-121.5 -123.5l-88 -608h-133l160 1098h-170l14 94
h168z" />
    <glyph glyph-name="Itilde" unicode="&#x128;" horiz-adv-x="452" 
d="M432 1397l-201 -1397h-145l203 1397h143zM145 1542h-73q11 90 32 131q41 84 134 84q66 0 182 -49q93 -39 135 -39q23 0 39 8.5t24 26t11 27.5t6 30h74q0 -106 -51 -162.5t-117 -56.5q-56 0 -148 37q-133 51 -168 51q-66 0 -80 -88z" />
    <glyph glyph-name="itilde" unicode="&#x129;" horiz-adv-x="395" 
d="M328 920l-133 -920h-132l132 920h133zM41 1135h-74q11 87 33 131q41 84 133 84q64 0 182 -50q90 -38 136 -38q19 0 33 7t21.5 14.5t13.5 24t7 23t4 23.5h74q0 -106 -51 -162.5t-117 -56.5q-57 0 -147 36q-3 1 -30 11.5t-39 15t-34 12t-37.5 10.5t-27.5 3q-66 0 -80 -88z
" />
    <glyph glyph-name="Imacron" unicode="&#x12a;" horiz-adv-x="452" 
d="M432 1397l-201 -1397h-145l203 1397h143zM692 1716l-18 -129h-604l20 129h602z" />
    <glyph glyph-name="imacron" unicode="&#x12b;" horiz-adv-x="395" 
d="M328 920l-133 -920h-132l132 920h133zM600 1309l-18 -129h-605l21 129h602z" />
    <glyph glyph-name="Ibreve" unicode="&#x12c;" horiz-adv-x="452" 
d="M432 1397l-201 -1397h-145l203 1397h143zM137 1753h88q3 -72 43 -111.5t97 -39.5q52 0 104.5 39.5t91.5 111.5h86q-18 -60 -45.5 -106.5t-57 -75t-63.5 -47.5t-63.5 -26t-57.5 -7q-100 0 -163 75.5t-60 186.5z" />
    <glyph glyph-name="ibreve" unicode="&#x12d;" horiz-adv-x="395" 
d="M328 920l-133 -920h-132l132 920h133zM63 1346h89q3 -72 42.5 -112t96.5 -40q52 0 104.5 40t91.5 112h86q-22 -74 -58 -128t-76.5 -82t-78 -40.5t-73.5 -12.5q-100 0 -163.5 76t-60.5 187z" />
    <glyph glyph-name="Iogonek" unicode="&#x12e;" horiz-adv-x="452" 
d="M88 0h-2l203 1397h143l-201 -1397h-6q-67 -106 -67 -166q0 -48 40 -78t93 -30q34 0 88 12l-8 -125q-83 -16 -125 -16q-57 0 -104 18.5t-74.5 47t-42.5 61.5t-15 65q0 88 78 211z" />
    <glyph glyph-name="iogonek" unicode="&#x12f;" horiz-adv-x="395" 
d="M334 -236l-15 -112q-63 -14 -110 -14q-100 0 -157.5 53.5t-57.5 120.5q0 88 69 188l132 920h133l-133 -920q-62 -94 -62 -145q0 -50 38.5 -76.5t80.5 -26.5q32 0 82 12zM303 1133q-38 0 -65 27t-27 65t27 65t65 27t65 -27t27 -65t-27 -65t-65 -27z" />
    <glyph glyph-name="Idotaccent" unicode="&#x130;" horiz-adv-x="452" 
d="M432 1397l-201 -1397h-145l203 1397h143zM477 1649q0 -39 -27 -70t-71 -31q-41 0 -70.5 30t-29.5 71t29 69.5t69 28.5q42 0 71 -29t29 -69z" />
    <glyph glyph-name="dotlessi" unicode="&#x131;" horiz-adv-x="395" 
d="M328 920l-133 -920h-132l132 920h133z" />
    <glyph glyph-name="IJ" unicode="&#x132;" horiz-adv-x="909" 
d="M432 1397l-201 -1397h-145l203 1397h143zM889 1397l-209 -1444q-23 -156 -57 -231q-85 -193 -316 -193q-64 0 -114 12l-35 140q85 -19 133 -19q121 0 171.5 67t72.5 218l208 1450h146z" />
    <glyph glyph-name="ij" unicode="&#x133;" horiz-adv-x="790" 
d="M328 920l-133 -920h-132l132 920h133zM303 1133q-38 0 -65 27t-27 65t27 65t65 27t65 -27t27 -65t-27 -65t-65 -27zM717 920l-133 -977q-5 -39 -8 -59t-11 -60t-15.5 -63.5t-21 -58.5t-28.5 -56t-38 -46t-50 -38.5t-62.5 -23t-77.5 -9.5q-62 0 -118 18l16 115
q54 -14 88 -14q36 0 64.5 11t48 35t32.5 46.5t22 61.5t13.5 63t10.5 67l135 988h133zM698 1133q-38 0 -65 27t-27 65t27 65t65 27t65.5 -27t27.5 -65t-27.5 -65t-65.5 -27z" />
    <glyph glyph-name="Jcircumflex" unicode="&#x134;" horiz-adv-x="456" 
d="M436 1397l-209 -1444q-23 -155 -55 -229q-85 -195 -317 -195q-65 0 -115 12l-35 140q86 -19 133 -19q121 0 171.5 67t72.5 218l209 1450h145zM539 1812l75 -321h-79l-95 201l-254 -201h-98l293 321h158z" />
    <glyph glyph-name="jcircumflex" unicode="&#x135;" horiz-adv-x="395" 
d="M322 920l-134 -977q-22 -164 -54 -239q-73 -175 -257 -175q-63 0 -119 18l17 115q54 -14 88 -14q27 0 50 6.5t40.5 20.5t30.5 28.5t23.5 39t17 42.5t12.5 49t8.5 48.5t7.5 49.5l135 988h134zM412 1405l75 -322h-79l-95 201l-254 -201h-98l293 322h158z" />
    <glyph glyph-name="Kcommaaccent" unicode="&#x136;" horiz-adv-x="1130" 
d="M1204 1397l-704 -641l663 -756h-174l-649 745l-111 -745h-143l205 1397h145l-92 -609l668 609h192zM307 -410l31 88q39 -8 86 -8q71 0 117.5 23.5t46.5 70.5q0 27 -15 44t-45 25t-64 10.5t-81 0.5l29 88q27 2 63 2q50 0 92.5 -7t83 -23t63.5 -48.5t23 -78.5
q0 -98 -86.5 -148.5t-216.5 -50.5q-66 0 -127 12z" />
    <glyph glyph-name="kcommaaccent" unicode="&#x137;" horiz-adv-x="921" 
d="M389 1397l-131 -891l469 414h184l-485 -431l508 -489h-178l-498 479l-70 -479h-133l203 1397h131zM209 -377l24 86q18 -4 54 -4q56 0 91.5 21t35.5 61q0 56 -84 59l10 86q197 0 197 -137q0 -73 -54.5 -127.5t-158.5 -54.5q-66 0 -115 10z" />
    <glyph glyph-name="kgreenlandic" unicode="&#x138;" horiz-adv-x="921" 
d="M319 920l-61 -414l469 414h184l-485 -431l508 -489h-178l-498 479l-70 -479h-133l133 920h131z" />
    <glyph glyph-name="Lacute" unicode="&#x139;" horiz-adv-x="860" 
d="M436 1397l-188 -1270h598l-17 -127h-743l205 1397h145zM698 1812l-282 -321h-90l188 321h184z" />
    <glyph glyph-name="lacute" unicode="&#x13a;" horiz-adv-x="395" 
d="M397 1397l-202 -1397h-132l203 1397h131zM610 1812l-282 -321h-90l188 321h184z" />
    <glyph glyph-name="Lcommaaccent" unicode="&#x13b;" horiz-adv-x="860" 
d="M436 1397l-188 -1270h598l-17 -127h-743l205 1397h145zM195 -410l30 88q39 -8 86 -8q71 0 117.5 23.5t46.5 70.5q0 27 -15 44t-45 25t-64 10.5t-81 0.5l29 88q27 2 63 2q50 0 93 -7t83.5 -23t63.5 -48.5t23 -78.5q0 -98 -86.5 -148.5t-216.5 -50.5q-66 0 -127 12z" />
    <glyph glyph-name="lcommaaccent" unicode="&#x13c;" horiz-adv-x="395" 
d="M397 1397l-202 -1397h-132l203 1397h131zM-76 -377l25 86q18 -4 53 -4q56 0 91.5 21t35.5 61q0 56 -84 59l10 86q197 0 197 -137q0 -73 -54.5 -127.5t-158.5 -54.5q-66 0 -115 10z" />
    <glyph glyph-name="Lcaron" unicode="&#x13d;" horiz-adv-x="860" 
d="M436 1397l-188 -1270h598l-17 -127h-743l205 1397h145zM586 965l10 82q59 12 98.5 54.5t26.5 106.5q-74 32 -74 99q0 40 28 74t85 34q56 0 90.5 -41.5t34.5 -105.5q0 -104 -78.5 -194t-220.5 -109z" />
    <glyph glyph-name="lcaron" unicode="&#x13e;" horiz-adv-x="526" 
d="M397 1397l-202 -1397h-132l203 1397h131zM412 965l10 82q59 12 98.5 54.5t26.5 106.5q-74 32 -74 99q0 40 28 74t85 34q56 0 90.5 -41.5t34.5 -105.5q0 -104 -78.5 -194t-220.5 -109z" />
    <glyph glyph-name="Ldot" unicode="&#x13f;" horiz-adv-x="860" 
d="M436 1397l-188 -1270h598l-17 -127h-743l205 1397h145zM692 676q0 -39 -27 -70t-71 -31q-41 0 -70.5 30t-29.5 71t29 69.5t69 28.5q42 0 71 -29t29 -69z" />
    <glyph glyph-name="ldot" unicode="&#x140;" horiz-adv-x="456" 
d="M397 1397l-202 -1397h-132l203 1397h131zM463 780q38 0 65 -27t27 -65t-27 -65t-65 -27t-65 27t-27 65t27 65t65 27z" />
    <glyph glyph-name="Lslash" unicode="&#x141;" horiz-adv-x="860" 
d="M319 606l-71 -479h598l-17 -127h-743l70 473l-168 -137l20 145l168 137l115 779h145l-94 -643l305 252l-20 -148z" />
    <glyph glyph-name="lslash" unicode="&#x142;" horiz-adv-x="395" 
d="M297 709l-102 -709h-132l78 541l-153 -164l20 151l156 166l102 703h131l-78 -537l150 160l-20 -152z" />
    <glyph glyph-name="Nacute" unicode="&#x143;" horiz-adv-x="1404" 
d="M1386 1397l-202 -1403h-72l-727 1112l-162 -1106h-137l203 1397h73l725 -1112l162 1112h137zM1135 1812l-283 -321h-90l188 321h185z" />
    <glyph glyph-name="nacute" unicode="&#x144;" horiz-adv-x="937" 
d="M186 920h133l-24 -170q96 96 171 144t167 48q115 0 171 -69t56 -171q0 -43 -8 -100l-88 -602h-131l86 598q6 38 6 88q0 79 -37.5 112t-93.5 33q-28 0 -50.5 -6t-60 -26t-90 -67.5t-121.5 -123.5l-88 -608h-133zM881 1405l-283 -322h-90l188 322h185z" />
    <glyph glyph-name="Ncommaaccent" unicode="&#x145;" horiz-adv-x="1404" 
d="M1386 1397l-202 -1403h-72l-727 1112l-162 -1106h-137l203 1397h73l725 -1112l162 1112h137zM422 -410l31 88q39 -8 86 -8q71 0 117 23.5t46 70.5q0 27 -15 44t-44.5 25t-63.5 10.5t-81 0.5l28 88q27 2 64 2q50 0 92.5 -7t83 -23t63.5 -48.5t23 -78.5q0 -98 -86.5 -148.5
t-216.5 -50.5q-65 0 -127 12z" />
    <glyph glyph-name="ncommaaccent" unicode="&#x146;" horiz-adv-x="937" 
d="M186 920h133l-24 -170q96 96 171 144t167 48q115 0 171 -69t56 -171q0 -43 -8 -100l-88 -602h-131l86 598q6 38 6 88q0 79 -37.5 112t-93.5 33q-28 0 -50.5 -6t-60 -26t-90 -67.5t-121.5 -123.5l-88 -608h-133zM229 -377l25 86q18 -4 53 -4q56 0 91.5 21t35.5 61
q0 56 -84 59l10 86q197 0 197 -137q0 -73 -54.5 -127.5t-158.5 -54.5q-66 0 -115 10z" />
    <glyph glyph-name="Ncaron" unicode="&#x147;" horiz-adv-x="1404" 
d="M1386 1397l-202 -1403h-72l-727 1112l-162 -1106h-137l203 1397h73l725 -1112l162 1112h137zM719 1491l-76 321h80l94 -200l254 200h98l-292 -321h-158z" />
    <glyph glyph-name="ncaron" unicode="&#x148;" horiz-adv-x="937" 
d="M186 920h133l-24 -170q96 96 171 144t167 48q115 0 171 -69t56 -171q0 -43 -8 -100l-88 -602h-131l86 598q6 38 6 88q0 79 -37.5 112t-93.5 33q-28 0 -50.5 -6t-60 -26t-90 -67.5t-121.5 -123.5l-88 -608h-133zM487 1083l-75 322h80l94 -201l254 201h98l-293 -322h-158z
" />
    <glyph glyph-name="napostrophe" unicode="&#x149;" horiz-adv-x="1132" 
d="M381 920h133l-25 -170q96 96 171 144t167 48q115 0 171.5 -69t56.5 -171q0 -43 -8 -100l-89 -602h-131l86 598q7 44 7 88q0 79 -38 112t-94 33q-28 0 -50 -5.5t-59.5 -26t-90 -68t-121.5 -123.5l-88 -608h-133zM47 965l10 82q59 12 98.5 54.5t26.5 106.5q-73 32 -73 99
q0 40 27.5 74t84.5 34q56 0 90.5 -41.5t34.5 -105.5q0 -104 -78.5 -194t-220.5 -109z" />
    <glyph glyph-name="Eng" unicode="&#x14a;" horiz-adv-x="1400" 
d="M748 -4l-23 137q73 -16 131 -16q115 0 166 58.5t74 213.5l63 438q28 198 -67 329.5t-273 131.5q-136 0 -251.5 -78t-192.5 -198l-146 -1012h-143l201 1397h145l-26 -189q189 207 452 207q96 0 183.5 -38.5t154.5 -110.5t97.5 -189t9.5 -260l-70 -473q-15 -103 -47 -175
t-79.5 -112t-103 -57.5t-126.5 -17.5q-50 0 -129 14z" />
    <glyph glyph-name="eng" unicode="&#x14b;" horiz-adv-x="937" 
d="M852 602l-94 -635q-27 -187 -53 -258q-47 -132 -157 -166q-44 -14 -102 -14q-46 0 -120 18l22 119q51 -14 94 -14q73 0 118 84.5t69 249.5l90 612q6 38 6 88q0 79 -37.5 112t-93.5 33q-28 0 -50.5 -6t-60 -26t-90 -67.5t-121.5 -123.5l-88 -608h-133l135 920h133
l-24 -170q96 96 171 144t167 48q115 0 171 -69t56 -171q0 -43 -8 -100z" />
    <glyph glyph-name="Omacron" unicode="&#x14c;" horiz-adv-x="1341" 
d="M1288 838q0 -128 -30 -253t-88.5 -233.5t-138 -191.5t-186.5 -130.5t-227 -47.5q-99 0 -186 35t-157 104t-111 184t-41 262q0 92 18.5 188.5t54.5 192t93.5 179.5t130 148.5t170 102t207.5 37.5q98 0 185 -35t156 -103.5t109.5 -181.5t40.5 -257zM1137 864
q0 111 -27.5 195t-76.5 133t-109 72.5t-131 23.5q-122 0 -223.5 -71t-164 -182t-97 -238.5t-34.5 -249.5q0 -97 21 -173.5t55.5 -125t81.5 -81t95 -45.5t100 -13q149 0 267 105t180.5 276.5t62.5 373.5zM1145 1716l-19 -129h-604l21 129h602z" />
    <glyph glyph-name="omacron" unicode="&#x14d;" horiz-adv-x="917" 
d="M844 553q0 -113 -26 -209t-69 -162.5t-100.5 -113.5t-119.5 -69t-126 -22q-19 0 -39.5 2.5t-54 12t-64 25.5t-62.5 46.5t-55.5 71t-38.5 103t-15 139.5q0 136 38.5 246.5t101.5 178.5t140 104t158 36q138 0 235 -100.5t97 -288.5zM213 373q0 -73 15.5 -128t37 -84
t49.5 -46.5t48 -22t38 -4.5q70 0 130 44.5t96.5 114.5t57 150t20.5 156q0 125 -52.5 201.5t-146.5 76.5q-83 0 -150.5 -62.5t-105 -167.5t-37.5 -228zM860 1309l-18 -129h-604l20 129h602z" />
    <glyph glyph-name="Obreve" unicode="&#x14e;" horiz-adv-x="1341" 
d="M1288 838q0 -128 -30 -253t-88.5 -233.5t-138 -191.5t-186.5 -130.5t-227 -47.5q-99 0 -186 35t-157 104t-111 184t-41 262q0 92 18.5 188.5t54.5 192t93.5 179.5t130 148.5t170 102t207.5 37.5q98 0 185 -35t156 -103.5t109.5 -181.5t40.5 -257zM1137 864
q0 111 -27.5 195t-76.5 133t-109 72.5t-131 23.5q-122 0 -223.5 -71t-164 -182t-97 -238.5t-34.5 -249.5q0 -97 21 -173.5t55.5 -125t81.5 -81t95 -45.5t100 -13q149 0 267 105t180.5 276.5t62.5 373.5zM594 1753h88q3 -72 42.5 -111.5t96.5 -39.5q52 0 105 39.5t92 111.5
h86q-18 -60 -45.5 -106.5t-57 -75t-63.5 -47.5t-63.5 -26t-57.5 -7q-100 0 -163 75.5t-60 186.5z" />
    <glyph glyph-name="obreve" unicode="&#x14f;" horiz-adv-x="917" 
d="M844 553q0 -113 -26 -209t-69 -162.5t-100.5 -113.5t-119.5 -69t-126 -22q-19 0 -39.5 2.5t-54 12t-64 25.5t-62.5 46.5t-55.5 71t-38.5 103t-15 139.5q0 136 38.5 246.5t101.5 178.5t140 104t158 36q138 0 235 -100.5t97 -288.5zM213 373q0 -73 15.5 -128t37 -84
t49.5 -46.5t48 -22t38 -4.5q70 0 130 44.5t96.5 114.5t57 150t20.5 156q0 125 -52.5 201.5t-146.5 76.5q-83 0 -150.5 -62.5t-105 -167.5t-37.5 -228zM332 1346h88q3 -72 42.5 -112t96.5 -40q52 0 105 40t92 112h86q-22 -74 -58 -128t-77 -82t-78.5 -40.5t-73.5 -12.5
q-100 0 -163 75.5t-60 187.5z" />
    <glyph glyph-name="Ohungarumlaut" unicode="&#x150;" horiz-adv-x="1341" 
d="M1288 838q0 -128 -30 -253t-88.5 -233.5t-138 -191.5t-186.5 -130.5t-227 -47.5q-99 0 -186 35t-157 104t-111 184t-41 262q0 92 18.5 188.5t54.5 192t93.5 179.5t130 148.5t170 102t207.5 37.5q98 0 185 -35t156 -103.5t109.5 -181.5t40.5 -257zM1137 864
q0 111 -27.5 195t-76.5 133t-109 72.5t-131 23.5q-122 0 -223.5 -71t-164 -182t-97 -238.5t-34.5 -249.5q0 -97 21 -173.5t55.5 -125t81.5 -81t95 -45.5t100 -13q149 0 267 105t180.5 276.5t62.5 373.5zM934 1812l-283 -321h-90l189 321h184zM1231 1812l-283 -321h-90
l189 321h184z" />
    <glyph glyph-name="ohungarumlaut" unicode="&#x151;" horiz-adv-x="917" 
d="M844 553q0 -113 -26 -209t-69 -162.5t-100.5 -113.5t-119.5 -69t-126 -22q-19 0 -39.5 2.5t-54 12t-64 25.5t-62.5 46.5t-55.5 71t-38.5 103t-15 139.5q0 136 38.5 246.5t101.5 178.5t140 104t158 36q138 0 235 -100.5t97 -288.5zM213 373q0 -73 15.5 -128t37 -84
t49.5 -46.5t48 -22t38 -4.5q70 0 130 44.5t96.5 114.5t57 150t20.5 156q0 125 -52.5 201.5t-146.5 76.5q-83 0 -150.5 -62.5t-105 -167.5t-37.5 -228zM702 1405l-282 -322h-90l188 322h184zM999 1405l-282 -322h-90l188 322h184z" />
    <glyph glyph-name="OE" unicode="&#x152;" horiz-adv-x="2007" 
d="M1948 1397l-19 -127h-583l-74 -496h551l-17 -127h-553l-75 -520h768l-19 -127h-1139q-144 0 -257.5 33.5t-187.5 90t-122.5 135.5t-69 164t-20.5 181q0 233 105 412.5t302.5 280t458.5 100.5h951zM1032 127l168 1143h-227q-201 0 -356.5 -77.5t-244.5 -229t-89 -357.5
q0 -247 130 -363t404 -116h215z" />
    <glyph glyph-name="oe" unicode="&#x153;" horiz-adv-x="1468" 
d="M1354 223l-21 -149q-145 -97 -295 -97q-101 0 -188.5 48.5t-138.5 152.5q-25 -36 -47 -62t-62.5 -62.5t-93.5 -56.5t-113 -20q-61 0 -117.5 24.5t-103 71.5t-74.5 126t-28 180q0 149 60.5 279.5t161 207t214.5 76.5q185 0 272 -184q117 184 305 184q138 0 229 -99.5
t91 -275.5q0 -44 -4 -84h-590q-10 -63 -10 -112q0 -124 61 -203.5t178 -79.5q57 0 141 29.5t173 105.5zM825 578h451q0 127 -52 190t-141 63q-94 0 -166.5 -72t-91.5 -181zM680 573q0 64 -13 112.5t-32 75t-45 43.5t-47 22t-43 5q-69 0 -126.5 -48t-91.5 -122t-52.5 -153.5
t-18.5 -151.5q0 -66 19 -125t63 -101t106 -42q67 0 122 45.5t88.5 117.5t52 156t18.5 166z" />
    <glyph glyph-name="Racute" unicode="&#x154;" horiz-adv-x="1087" 
d="M86 0l201 1397h288q187 0 301.5 -92.5t114.5 -270.5q0 -155 -78.5 -238.5t-224.5 -125.5q48 -29 90 -107l293 -563h-156l-227 428q-28 53 -47 85.5t-41 57.5t-37.5 36.5t-44 18.5t-52 8t-69.5 1h-75l-91 -635h-145zM557 1270h-143l-74 -508h135q96 0 166.5 20t107.5 48
t59 67.5t27 69t5 63.5q0 240 -283 240zM893 1812l-283 -321h-90l189 321h184z" />
    <glyph glyph-name="racute" unicode="&#x155;" horiz-adv-x="587" 
d="M190 920h132l-31 -226q70 125 136.5 186.5t147.5 61.5q36 0 84 -16l-14 -135q-50 20 -84 20q-28 0 -57 -11t-53 -28t-48 -41.5t-41.5 -47t-36 -50t-28 -44.5t-20 -36.5t-11.5 -20.5l-76 -532h-135zM711 1405l-283 -322h-90l188 322h185z" />
    <glyph glyph-name="Rcommaaccent" unicode="&#x156;" horiz-adv-x="1087" 
d="M86 0l201 1397h288q187 0 301.5 -92.5t114.5 -270.5q0 -155 -78.5 -238.5t-224.5 -125.5q48 -29 90 -107l293 -563h-156l-227 428q-28 53 -47 85.5t-41 57.5t-37.5 36.5t-44 18.5t-52 8t-69.5 1h-75l-91 -635h-145zM557 1270h-143l-74 -508h135q96 0 166.5 20t107.5 48
t59 67.5t27 69t5 63.5q0 240 -283 240zM279 -410l30 88q39 -8 86 -8q71 0 117.5 23.5t46.5 70.5q0 27 -15 44t-45 25t-64 10.5t-81 0.5l29 88q27 2 63 2q50 0 93 -7t83.5 -23t63.5 -48.5t23 -78.5q0 -98 -86.5 -148.5t-216.5 -50.5q-66 0 -127 12z" />
    <glyph glyph-name="rcommaaccent" unicode="&#x157;" horiz-adv-x="587" 
d="M190 920h132l-31 -226q70 125 136.5 186.5t147.5 61.5q36 0 84 -16l-14 -135q-50 20 -84 20q-28 0 -57 -11t-53 -28t-48 -41.5t-41.5 -47t-36 -50t-28 -44.5t-20 -36.5t-11.5 -20.5l-76 -532h-135zM-20 -377l24 86q18 -4 53 -4q56 0 91.5 21t35.5 61q0 56 -84 59l11 86
q196 0 196 -137q0 -73 -54.5 -127.5t-158.5 -54.5q-65 0 -114 10z" />
    <glyph glyph-name="Rcaron" unicode="&#x158;" horiz-adv-x="1087" 
d="M86 0l201 1397h288q187 0 301.5 -92.5t114.5 -270.5q0 -155 -78.5 -238.5t-224.5 -125.5q48 -29 90 -107l293 -563h-156l-227 428q-28 53 -47 85.5t-41 57.5t-37.5 36.5t-44 18.5t-52 8t-69.5 1h-75l-91 -635h-145zM557 1270h-143l-74 -508h135q96 0 166.5 20t107.5 48
t59 67.5t27 69t5 63.5q0 240 -283 240zM479 1491l-76 321h80l95 -200l253 200h99l-293 -321h-158z" />
    <glyph glyph-name="rcaron" unicode="&#x159;" horiz-adv-x="587" 
d="M190 920h132l-31 -226q70 125 136.5 186.5t147.5 61.5q36 0 84 -16l-14 -135q-50 20 -84 20q-28 0 -57 -11t-53 -28t-48 -41.5t-41.5 -47t-36 -50t-28 -44.5t-20 -36.5t-11.5 -20.5l-76 -532h-135zM328 1083l-76 322h80l94 -201l254 201h98l-293 -322h-157z" />
    <glyph glyph-name="Sacute" unicode="&#x15a;" horiz-adv-x="897" 
d="M862 1350l-20 -144q-128 76 -236 76q-54 0 -99 -14t-74 -37t-49 -53.5t-29 -62.5t-9 -64q0 -75 46.5 -139t152.5 -146q50 -38 82 -65t71 -68t60.5 -79t37 -90t15.5 -110q0 -110 -57.5 -197t-145.5 -131t-186 -44q-68 0 -157.5 21t-170.5 75l21 151q103 -66 167.5 -90
t129.5 -24q115 0 181 68t66 159q0 86 -46 148.5t-152 144.5q-65 51 -107 90.5t-81.5 89.5t-58.5 105.5t-19 119.5q0 45 15 94.5t48 100t79 90.5t115 65t150 25q58 0 131 -16.5t129 -48.5zM881 1812l-283 -321h-90l188 321h185z" />
    <glyph glyph-name="sacute" unicode="&#x15b;" horiz-adv-x="724" 
d="M672 842l-21 -127q-158 108 -278 108q-76 0 -111 -35.5t-35 -78.5t41 -80t213 -158q72 -50 111 -113.5t39 -126.5q0 -112 -86.5 -183t-212.5 -71q-146 0 -305 117l20 139q153 -137 293 -137q72 0 114 34t42 85q0 28 -8 49t-50.5 63t-124.5 97q-115 78 -165 136.5
t-50 137.5q0 100 76 172t209 72q136 0 289 -100zM713 1405l-283 -322h-90l188 322h185z" />
    <glyph glyph-name="Scircumflex" unicode="&#x15c;" horiz-adv-x="897" 
d="M862 1350l-20 -144q-128 76 -236 76q-54 0 -99 -14t-74 -37t-49 -53.5t-29 -62.5t-9 -64q0 -75 46.5 -139t152.5 -146q50 -38 82 -65t71 -68t60.5 -79t37 -90t15.5 -110q0 -110 -57.5 -197t-145.5 -131t-186 -44q-68 0 -157.5 21t-170.5 75l21 151q103 -66 167.5 -90
t129.5 -24q115 0 181 68t66 159q0 86 -46 148.5t-152 144.5q-65 51 -107 90.5t-81.5 89.5t-58.5 105.5t-19 119.5q0 45 15 94.5t48 100t79 90.5t115 65t150 25q58 0 131 -16.5t129 -48.5zM758 1812l76 -321h-80l-95 201l-253 -201h-99l293 321h158z" />
    <glyph glyph-name="scircumflex" unicode="&#x15d;" horiz-adv-x="724" 
d="M672 842l-21 -127q-158 108 -278 108q-76 0 -111 -35.5t-35 -78.5t41 -80t213 -158q72 -50 111 -113.5t39 -126.5q0 -112 -86.5 -183t-212.5 -71q-146 0 -305 117l20 139q153 -137 293 -137q72 0 114 34t42 85q0 28 -8 49t-50.5 63t-124.5 97q-115 78 -165 136.5
t-50 137.5q0 100 76 172t209 72q136 0 289 -100zM606 1405l76 -322h-80l-94 201l-254 -201h-98l293 322h157z" />
    <glyph glyph-name="uni015E" unicode="&#x15e;" horiz-adv-x="897" 
d="M186 -342l23 80q28 -8 72 -8q54 0 84 27.5t30 64.5q0 47 -69 67l43 95q-161 17 -275 94l21 151q103 -66 167.5 -90t129.5 -24q115 0 181 68t66 159q0 86 -46 148.5t-152 144.5q-65 51 -107 90.5t-81.5 89.5t-58.5 105.5t-19 119.5q0 45 15 94.5t48 100t79 90.5t115 65
t150 25q58 0 131 -16.5t129 -48.5l-20 -144q-128 76 -236 76q-54 0 -99 -14t-74 -37t-49 -53.5t-29 -62.5t-9 -64q0 -75 46.5 -139t152.5 -146q50 -38 82 -65t71 -68t60.5 -79t37 -90t15.5 -110q0 -82 -32.5 -152t-85.5 -116.5t-120.5 -74t-138.5 -29.5l-12 -33
q84 -34 84 -123q0 -88 -64 -133t-166 -45q-45 0 -90 10z" />
    <glyph glyph-name="uni015F" unicode="&#x15f;" horiz-adv-x="724" 
d="M100 -342l23 80q28 -8 72 -8q54 0 84 27.5t30 64.5q0 47 -69 67l41 93q-123 16 -254 112l20 139q153 -137 293 -137q72 0 114 34t42 85q0 28 -8 49t-50.5 63t-124.5 97q-115 78 -165 136.5t-50 137.5q0 100 76 172t209 72q136 0 289 -100l-21 -127q-158 108 -278 108
q-76 0 -111 -35.5t-35 -78.5t41 -80t213 -158q72 -50 111 -113.5t39 -126.5q0 -108 -82 -178.5t-203 -75.5l-10 -28q84 -34 84 -123q0 -88 -64 -133t-166 -45q-45 0 -90 10z" />
    <glyph glyph-name="Scaron" unicode="&#x160;" horiz-adv-x="897" 
d="M862 1350l-20 -144q-128 76 -236 76q-54 0 -99 -14t-74 -37t-49 -53.5t-29 -62.5t-9 -64q0 -75 46.5 -139t152.5 -146q50 -38 82 -65t71 -68t60.5 -79t37 -90t15.5 -110q0 -110 -57.5 -197t-145.5 -131t-186 -44q-68 0 -157.5 21t-170.5 75l21 151q103 -66 167.5 -90
t129.5 -24q115 0 181 68t66 159q0 86 -46 148.5t-152 144.5q-65 51 -107 90.5t-81.5 89.5t-58.5 105.5t-19 119.5q0 45 15 94.5t48 100t79 90.5t115 65t150 25q58 0 131 -16.5t129 -48.5zM446 1491l-75 321h80l94 -200l254 200h98l-293 -321h-158z" />
    <glyph glyph-name="scaron" unicode="&#x161;" horiz-adv-x="724" 
d="M672 842l-21 -127q-158 108 -278 108q-76 0 -111 -35.5t-35 -78.5t41 -80t213 -158q72 -50 111 -113.5t39 -126.5q0 -112 -86.5 -183t-212.5 -71q-146 0 -305 117l20 139q153 -137 293 -137q72 0 114 34t42 85q0 28 -8 49t-50.5 63t-124.5 97q-115 78 -165 136.5
t-50 137.5q0 100 76 172t209 72q136 0 289 -100zM319 1083l-75 322h80l94 -201l254 201h98l-293 -322h-158z" />
    <glyph glyph-name="uni021A" unicode="&#x162;" horiz-adv-x="1003" 
d="M1110 1397l-18 -133h-404l-184 -1264h-144l185 1264h-400l19 133h946zM184 -410l31 88q39 -8 86 -8q71 0 117.5 23.5t46.5 70.5q0 27 -15 44t-45 25t-64 10.5t-81 0.5l29 88q27 2 63 2q50 0 92.5 -7t83 -23t63.5 -48.5t23 -78.5q0 -98 -86.5 -148.5t-216.5 -50.5
q-65 0 -127 12z" />
    <glyph glyph-name="uni021A" unicode="&#x21a;" horiz-adv-x="1003" 
d="M1110 1397l-18 -133h-404l-184 -1264h-144l185 1264h-400l19 133h946zM184 -410l31 88q39 -8 86 -8q71 0 117.5 23.5t46.5 70.5q0 27 -15 44t-45 25t-64 10.5t-81 0.5l29 88q27 2 63 2q50 0 92.5 -7t83 -23t63.5 -48.5t23 -78.5q0 -98 -86.5 -148.5t-216.5 -50.5
q-65 0 -127 12z" />
    <glyph glyph-name="uni021B" unicode="&#x163;" horiz-adv-x="595" 
d="M606 920l-16 -111h-215l-68 -381q-31 -190 -31 -217q0 -65 38.5 -94t80.5 -29q87 0 178 70l-4 -129q-99 -52 -194 -52q-94 0 -163 59t-69 161q0 38 11.5 116.5t17.5 104.5l72 391h-170l16 111h172l35 198h131l-33 -198h211zM102 -377l25 86q18 -4 53 -4q56 0 91.5 21
t35.5 61q0 56 -84 59l10 86q197 0 197 -137q0 -73 -54.5 -127.5t-158.5 -54.5q-66 0 -115 10z" />
    <glyph glyph-name="uni021B" unicode="&#x21b;" horiz-adv-x="595" 
d="M606 920l-16 -111h-215l-68 -381q-31 -190 -31 -217q0 -65 38.5 -94t80.5 -29q87 0 178 70l-4 -129q-99 -52 -194 -52q-94 0 -163 59t-69 161q0 38 11.5 116.5t17.5 104.5l72 391h-170l16 111h172l35 198h131l-33 -198h211zM102 -377l25 86q18 -4 53 -4q56 0 91.5 21
t35.5 61q0 56 -84 59l10 86q197 0 197 -137q0 -73 -54.5 -127.5t-158.5 -54.5q-66 0 -115 10z" />
    <glyph glyph-name="Tcaron" unicode="&#x164;" horiz-adv-x="1003" 
d="M1110 1397l-18 -133h-404l-184 -1264h-144l185 1264h-400l19 133h946zM541 1491l-76 321h80l94 -200l254 200h98l-293 -321h-157z" />
    <glyph glyph-name="tcaron" unicode="&#x165;" horiz-adv-x="768" 
d="M606 920l-16 -111h-215l-68 -381q-31 -190 -31 -217q0 -65 38.5 -94t80.5 -29q87 0 178 70l-4 -129q-99 -52 -194 -52q-94 0 -163 59t-69 161q0 38 11.5 116.5t17.5 104.5l72 391h-170l16 111h172l35 198h131l-33 -198h211zM653 965l11 82q59 12 98 54.5t26 106.5
q-73 32 -73 99q0 40 27.5 74t84.5 34q56 0 90.5 -41.5t34.5 -105.5q0 -104 -78.5 -194t-220.5 -109z" />
    <glyph glyph-name="Tbar" unicode="&#x166;" horiz-adv-x="1003" 
d="M92 625l19 110h356l78 529h-400l19 133h946l-18 -133h-404l-78 -529h377l-18 -110h-375l-90 -625h-144l91 625h-359z" />
    <glyph glyph-name="tbar" unicode="&#x167;" horiz-adv-x="595" 
d="M606 920l-16 -111h-215l-41 -225h229l-14 -105h-234l-8 -51q-31 -190 -31 -217q0 -65 38.5 -94t80.5 -29q87 0 178 70l-4 -129q-99 -52 -194 -52q-94 0 -163 59t-69 161q0 38 11.5 116.5t17.5 104.5l10 61h-168l15 105h174l41 225h-170l16 111h172l35 198h131l-33 -198
h211z" />
    <glyph glyph-name="Utilde" unicode="&#x168;" horiz-adv-x="1300" 
d="M1303 1397l-129 -893q-17 -114 -57.5 -204t-95.5 -149t-125 -97.5t-142 -55t-150 -16.5q-166 0 -280 74t-159.5 194.5t-23.5 265.5l129 881h142l-127 -875q-18 -120 9 -211t108.5 -146.5t213.5 -55.5q358 0 418 421l125 867h144zM569 1542h-73q11 90 32 131q41 84 134 84
q66 0 182 -49q93 -39 135 -39q23 0 39 8.5t24 26t11 27.5t6 30h74q0 -106 -51 -162.5t-117 -56.5q-56 0 -148 37q-133 51 -168 51q-66 0 -80 -88z" />
    <glyph glyph-name="utilde" unicode="&#x169;" horiz-adv-x="944" 
d="M758 0h-133l24 170q-97 -97 -171.5 -145t-166.5 -48q-115 0 -171 69t-56 171q0 43 8 100l88 603h131l-86 -598q-6 -37 -6 -89q0 -79 37.5 -112t93.5 -33q28 0 50.5 6t60 26t90 67.5t121.5 123.5l88 609h133zM330 1135h-74q11 87 33 131q41 84 133 84q64 0 182 -50
q90 -38 135 -38q23 0 39 8.5t24 26t11 27.5t6 30h74q0 -106 -51 -162.5t-117 -56.5q-57 0 -147 36q-3 1 -30 11.5t-39 15t-34 12t-37.5 10.5t-27.5 3q-66 0 -80 -88z" />
    <glyph glyph-name="Umacron" unicode="&#x16a;" horiz-adv-x="1300" 
d="M1303 1397l-129 -893q-17 -114 -57.5 -204t-95.5 -149t-125 -97.5t-142 -55t-150 -16.5q-166 0 -280 74t-159.5 194.5t-23.5 265.5l129 881h142l-127 -875q-18 -120 9 -211t108.5 -146.5t213.5 -55.5q358 0 418 421l125 867h144zM1104 1716l-19 -129h-604l21 129h602z
" />
    <glyph glyph-name="umacron" unicode="&#x16b;" horiz-adv-x="944" 
d="M758 0h-133l24 170q-97 -97 -171.5 -145t-166.5 -48q-115 0 -171 69t-56 171q0 43 8 100l88 603h131l-86 -598q-6 -37 -6 -89q0 -79 37.5 -112t93.5 -33q28 0 50.5 6t60 26t90 67.5t121.5 123.5l88 609h133zM864 1309l-18 -129h-604l20 129h602z" />
    <glyph glyph-name="Ubreve" unicode="&#x16c;" horiz-adv-x="1300" 
d="M1303 1397l-129 -893q-17 -114 -57.5 -204t-95.5 -149t-125 -97.5t-142 -55t-150 -16.5q-166 0 -280 74t-159.5 194.5t-23.5 265.5l129 881h142l-127 -875q-18 -120 9 -211t108.5 -146.5t213.5 -55.5q358 0 418 421l125 867h144zM561 1753h88q3 -72 42.5 -111.5
t96.5 -39.5q52 0 105 39.5t92 111.5h86q-18 -60 -45.5 -106.5t-57 -75t-63.5 -47.5t-63.5 -26t-57.5 -7q-100 0 -163 75.5t-60 186.5z" />
    <glyph glyph-name="ubreve" unicode="&#x16d;" horiz-adv-x="944" 
d="M758 0h-133l24 170q-97 -97 -171.5 -145t-166.5 -48q-115 0 -171 69t-56 171q0 43 8 100l88 603h131l-86 -598q-6 -37 -6 -89q0 -79 37.5 -112t93.5 -33q28 0 50.5 6t60 26t90 67.5t121.5 123.5l88 609h133zM342 1346h88q3 -72 42.5 -112t96.5 -40q52 0 105 40t92 112h86
q-22 -74 -58 -128t-77 -82t-78.5 -40.5t-73.5 -12.5q-100 0 -163 75.5t-60 187.5z" />
    <glyph glyph-name="Uring" unicode="&#x16e;" horiz-adv-x="1300" 
d="M1303 1397l-129 -893q-17 -114 -57.5 -204t-95.5 -149t-125 -97.5t-142 -55t-150 -16.5q-166 0 -280 74t-159.5 194.5t-23.5 265.5l129 881h142l-127 -875q-18 -120 9 -211t108.5 -146.5t213.5 -55.5q358 0 418 421l125 867h144zM803 1483q-80 0 -135.5 55.5t-55.5 134.5
q0 80 56 136.5t135 56.5t135.5 -56.5t56.5 -136.5q0 -79 -56 -134.5t-136 -55.5zM803 1571q43 0 73.5 29.5t30.5 72.5t-30.5 74t-73.5 31t-73 -31t-30 -74t30 -72.5t73 -29.5z" />
    <glyph glyph-name="uring" unicode="&#x16f;" horiz-adv-x="944" 
d="M758 0h-133l24 170q-97 -97 -171.5 -145t-166.5 -48q-115 0 -171 69t-56 171q0 43 8 100l88 603h131l-86 -598q-6 -37 -6 -89q0 -79 37.5 -112t93.5 -33q28 0 50.5 6t60 26t90 67.5t121.5 123.5l88 609h133zM563 1075q-79 0 -134.5 55.5t-55.5 135.5t55.5 136t134.5 56
q80 0 136.5 -56.5t56.5 -135.5t-56.5 -135t-136.5 -56zM563 1163q43 0 74 30t31 73t-31 73.5t-74 30.5t-72.5 -30.5t-29.5 -73.5t29.5 -73t72.5 -30z" />
    <glyph glyph-name="Uhungarumlaut" unicode="&#x170;" horiz-adv-x="1300" 
d="M1303 1397l-129 -893q-17 -114 -57.5 -204t-95.5 -149t-125 -97.5t-142 -55t-150 -16.5q-166 0 -280 74t-159.5 194.5t-23.5 265.5l129 881h142l-127 -875q-18 -120 9 -211t108.5 -146.5t213.5 -55.5q358 0 418 421l125 867h144zM913 1812l-282 -321h-90l188 321h184z
M1210 1812l-282 -321h-90l188 321h184z" />
    <glyph glyph-name="uhungarumlaut" unicode="&#x171;" horiz-adv-x="944" 
d="M758 0h-133l24 170q-97 -97 -171.5 -145t-166.5 -48q-115 0 -171 69t-56 171q0 43 8 100l88 603h131l-86 -598q-6 -37 -6 -89q0 -79 37.5 -112t93.5 -33q28 0 50.5 6t60 26t90 67.5t121.5 123.5l88 609h133zM715 1405l-283 -322h-90l188 322h185zM1012 1405l-283 -322
h-90l188 322h185z" />
    <glyph glyph-name="Uogonek" unicode="&#x172;" horiz-adv-x="1300" 
d="M1303 1397l-129 -893q-19 -131 -69.5 -230.5t-122 -159t-152 -91.5t-171.5 -39q-57 -88 -57 -150q0 -48 40 -78t93 -30q34 0 88 12l-8 -125q-83 -16 -125 -16q-57 0 -103.5 18.5t-74.5 47t-42.5 61.5t-14.5 65q0 87 69 199q-211 26 -313 175t-70 353l129 881h142
l-127 -875q-18 -120 9 -211t108.5 -146.5t213.5 -55.5q358 0 418 421l125 867h144z" />
    <glyph glyph-name="uogonek" unicode="&#x173;" horiz-adv-x="944" 
d="M758 0h-2q-62 -92 -62 -145q0 -50 38.5 -76.5t80.5 -26.5q32 0 82 12l-14 -112q-63 -14 -111 -14q-100 0 -157.5 53.5t-57.5 120.5q0 89 70 188l24 170q-97 -97 -171.5 -145t-166.5 -48q-115 0 -171 69t-56 171q0 43 8 100l88 603h131l-86 -598q-6 -37 -6 -89
q0 -79 37.5 -112t93.5 -33q28 0 50.5 6t60 26t90 67.5t121.5 123.5l88 609h133z" />
    <glyph glyph-name="Wcircumflex" unicode="&#x174;" horiz-adv-x="1878" 
d="M2003 1397l-678 -1411h-55l-244 1077l-504 -1077h-61l-316 1411h138l239 -1086l508 1086h55l246 -1094l524 1094h148zM1229 1812l76 -321h-80l-95 201l-253 -201h-99l293 321h158z" />
    <glyph glyph-name="wcircumflex" unicode="&#x175;" horiz-adv-x="1271" 
d="M1331 920l-481 -934h-59l-119 659l-340 -659h-58l-200 934h129l141 -668l334 668h61l121 -668l340 668h131zM893 1405l76 -322h-80l-94 201l-254 -201h-99l293 322h158z" />
    <glyph glyph-name="Ycircumflex" unicode="&#x176;" horiz-adv-x="1007" 
d="M1133 1397l-502 -688l-101 -709h-143l98 709l-340 688h150l272 -545l402 545h164zM813 1812l76 -321h-80l-94 201l-254 -201h-99l293 321h158z" />
    <glyph glyph-name="ycircumflex" unicode="&#x177;" horiz-adv-x="796" 
d="M856 920l-694 -1391h-144l254 506l-174 885h133l134 -699l350 699h141zM688 1405l76 -322h-80l-94 201l-254 -201h-98l292 322h158z" />
    <glyph glyph-name="Ydieresis" unicode="&#x178;" horiz-adv-x="1007" 
d="M1133 1397l-502 -688l-101 -709h-143l98 709l-340 688h150l272 -545l402 545h164zM444 1743q38 0 65.5 -27t27.5 -65t-27.5 -65t-65.5 -27t-65 27t-27 65t27 65t65 27zM791 1743q38 0 65 -27t27 -65t-27 -65t-65 -27t-65.5 27t-27.5 65t27.5 65t65.5 27z" />
    <glyph glyph-name="Zacute" unicode="&#x179;" horiz-adv-x="1236" 
d="M207 1397h1130v-17l-1095 -1247h913l-18 -133h-1174v16l1092 1248h-867zM1042 1812l-282 -321h-90l188 321h184z" />
    <glyph glyph-name="zacute" unicode="&#x17a;" horiz-adv-x="917" 
d="M139 920h772v-19l-694 -790h594l-18 -111h-820v18l693 791h-541zM809 1405l-283 -322h-90l189 322h184z" />
    <glyph glyph-name="Zdotaccent" unicode="&#x17b;" horiz-adv-x="1236" 
d="M207 1397h1130v-17l-1095 -1247h913l-18 -133h-1174v16l1092 1248h-867zM877 1649q0 -39 -27.5 -70t-71.5 -31q-41 0 -70.5 30t-29.5 71t29 69.5t69 28.5q42 0 71.5 -29t29.5 -69z" />
    <glyph glyph-name="zdotaccent" unicode="&#x17c;" horiz-adv-x="917" 
d="M139 920h772v-19l-694 -790h594l-18 -111h-820v18l693 791h-541zM557 1335q38 0 65 -27t27 -65t-27 -65t-65 -27t-65 27t-27 65t27 65t65 27z" />
    <glyph glyph-name="Zcaron" unicode="&#x17d;" horiz-adv-x="1236" 
d="M207 1397h1130v-17l-1095 -1247h913l-18 -133h-1174v16l1092 1248h-867zM606 1491l-76 321h80l95 -200l253 200h99l-293 -321h-158z" />
    <glyph glyph-name="zcaron" unicode="&#x17e;" horiz-adv-x="917" 
d="M139 920h772v-19l-694 -790h594l-18 -111h-820v18l693 791h-541zM424 1083l-76 322h80l94 -201l254 201h98l-292 -322h-158z" />
    <glyph glyph-name="uni018f" unicode="&#x18f;" horiz-adv-x="1341" 
d="M797 1415q98 0 185 -35t156 -103.5t109.5 -181.5t40.5 -257q0 -128 -30 -253t-88.5 -233.5t-138 -191.5t-186.5 -130.5t-227 -47.5q-99 0 -186 35t-157 104t-111 184t-41 262q0 101 20 201h990q4 62 4 96q0 111 -27.5 195t-76.5 133t-109 72.5t-131 23.5q-35 0 -69 -5
t-59.5 -9.5t-59.5 -19t-50.5 -21t-52 -28t-46 -27.5t-49.5 -32l-45 -30l25 174q91 55 199.5 90t210.5 35zM627 109q181 0 311 148.5t176 383.5h-835q-5 -41 -5 -94q0 -97 21 -173.5t55.5 -125t81.5 -81t95 -45.5t100 -13z" />
    <glyph glyph-name="florin" unicode="&#x192;" horiz-adv-x="1130" 
d="M666 793l-181 -963q-26 -143 -88.5 -202.5t-189.5 -59.5q-78 0 -191 29l29 129q95 -23 152 -23q73 0 102.5 45.5t56.5 192.5l156 852h-180l22 114h181l34 199q14 79 32.5 131.5t50 95t80.5 62.5t118 20q84 0 201 -45l-27 -123q-96 33 -141 33q-72 0 -106 -39.5
t-54 -148.5l-35 -185h219l-24 -114h-217z" />
    <glyph glyph-name="AEacute" unicode="&#x1fc;" horiz-adv-x="1687" 
d="M1624 1397l-18 -127h-562l-73 -496h528l-18 -127h-531l-73 -520h747l-16 -127h-891l94 647h-330l-385 -647h-153l837 1397h844zM829 774l72 496h-53l-293 -496h274zM1475 1812l-283 -321h-90l188 321h185z" />
    <glyph glyph-name="aeacute" unicode="&#x1fd;" horiz-adv-x="1345" 
d="M1225 219l-21 -143q-77 -52 -162 -75.5t-151 -23.5q-95 0 -177.5 45.5t-119.5 129.5q-164 -175 -338 -175q-82 0 -147.5 54t-65.5 147q0 126 133.5 221.5t407.5 130.5l6 37q10 50 10 113q0 77 -43 114t-104 37q-46 0 -91 -14.5t-86 -41.5t-66.5 -47.5t-58.5 -50.5
q-8 -8 -12 -11l4 139q49 39 84.5 62.5t103.5 49t136 25.5q85 0 142.5 -40t82.5 -95q116 135 271 135q136 0 226.5 -104.5t90.5 -298.5q0 -32 -4 -72h-567l-4 -29q-11 -70 -11 -155q0 -89 57.5 -142t151.5 -53q155 0 322 131zM721 561h430q7 123 -48.5 196.5t-150.5 73.5
q-96 0 -156.5 -72t-74.5 -198zM541 217l30 213q-107 -15 -186 -43t-121.5 -62.5t-62 -69t-19.5 -69.5q0 -50 31 -74t72 -24q113 0 256 129zM1063 1405l-283 -322h-90l189 322h184z" />
    <glyph glyph-name="Oslashacute" unicode="&#x1fe;" horiz-adv-x="1341" 
d="M326 78l-115 -154l-74 53l121 164q-135 158 -135 428q0 93 19 189.5t55 191.5t94 179t130 148t168.5 101t205.5 37q194 0 321 -115l92 125l74 -55l-104 -141q110 -163 110 -391q0 -236 -87 -432.5t-240.5 -310t-339.5 -113.5q-170 0 -295 96zM1087 1108l-681 -922
q86 -77 221 -77q114 0 211 63t161.5 167t101 238.5t36.5 278.5q0 155 -50 252zM344 258l690 932q-98 98 -241 98q-86 0 -162 -34t-131.5 -92.5t-99.5 -133.5t-71 -160t-41 -168.5t-14 -162.5q0 -163 70 -279zM1018 1812l-283 -321h-90l189 321h184z" />
    <glyph glyph-name="oslashacute" unicode="&#x1ff;" horiz-adv-x="917" 
d="M197 51l-86 -117l-66 48l96 131q-67 98 -67 266q0 135 38 244.5t100.5 177.5t140 104.5t159.5 36.5q115 0 197 -65l79 108l68 -49l-90 -119q78 -101 78 -270q0 -137 -40.5 -249t-105 -180t-141 -104.5t-154.5 -36.5q-113 0 -206 74zM680 702l-408 -550q28 -32 64.5 -48
t64.5 -16q84 0 154.5 68t110 177t39.5 230q0 79 -25 139zM229 231l406 545q-55 55 -129 55q-87 0 -155.5 -67.5t-103 -170.5t-34.5 -218q0 -91 16 -144zM811 1405l-283 -322h-90l189 322h184z" />
    <glyph glyph-name="uni0218" unicode="&#x218;" horiz-adv-x="897" 
d="M862 1350l-20 -144q-128 76 -236 76q-54 0 -99 -14t-74 -37t-49 -53.5t-29 -62.5t-9 -64q0 -75 46.5 -139t152.5 -146q50 -38 82 -65t71 -68t60.5 -79t37 -90t15.5 -110q0 -110 -57.5 -197t-145.5 -131t-186 -44q-68 0 -157.5 21t-170.5 75l21 151q103 -66 167.5 -90
t129.5 -24q115 0 181 68t66 159q0 86 -46 148.5t-152 144.5q-65 51 -107 90.5t-81.5 89.5t-58.5 105.5t-19 119.5q0 45 15 94.5t48 100t79 90.5t115 65t150 25q58 0 131 -16.5t129 -48.5zM137 -410l31 88q39 -8 86 -8q71 0 117.5 23.5t46.5 70.5q0 27 -15 44t-45 25
t-64 10.5t-81 0.5l29 88q27 2 63 2q50 0 92.5 -7t83 -23t63.5 -48.5t23 -78.5q0 -98 -86.5 -148.5t-216.5 -50.5q-66 0 -127 12z" />
    <glyph glyph-name="uni0219" unicode="&#x219;" horiz-adv-x="724" 
d="M672 842l-21 -127q-158 108 -278 108q-76 0 -111 -35.5t-35 -78.5t41 -80t213 -158q72 -50 111 -113.5t39 -126.5q0 -112 -86.5 -183t-212.5 -71q-146 0 -305 117l20 139q153 -137 293 -137q72 0 114 34t42 85q0 28 -8 49t-50.5 63t-124.5 97q-115 78 -165 136.5
t-50 137.5q0 100 76 172t209 72q136 0 289 -100zM109 -377l24 86q18 -4 53 -4q56 0 91.5 21t35.5 61q0 56 -84 59l11 86q196 0 196 -137q0 -73 -54.5 -127.5t-158.5 -54.5q-65 0 -114 10z" />
    <glyph glyph-name="uni0259" unicode="&#x259;" horiz-adv-x="917" 
d="M74 377q0 113 24 201h604q-5 116 -55 184.5t-139 68.5q-114 0 -270 -92l20 140q123 63 254 63q138 0 235 -100.5t97 -288.5q0 -113 -26 -209t-69 -162.5t-100.5 -113.5t-119.5 -69t-126 -22q-19 0 -39.5 2.5t-54 12t-64 25.5t-62.5 46.5t-55.5 71t-38.5 103t-15 139.5z
M401 88q62 0 116 35.5t90.5 93.5t60 126t32.5 140h-479q-8 -49 -8 -110q0 -73 15.5 -128t37 -84t49.5 -46.5t48 -22t38 -4.5z" />
    <glyph glyph-name="circumflex" unicode="&#x2c6;" horiz-adv-x="681" 
d="M625 1405l75 -322h-79l-95 201l-254 -201h-98l293 322h158z" />
    <glyph glyph-name="caron" unicode="&#x2c7;" horiz-adv-x="681" 
d="M287 1083l-76 322h80l94 -201l254 201h98l-293 -322h-157z" />
    <glyph glyph-name="uni02C9" unicode="&#x2c9;" horiz-adv-x="681" 
d="M766 1309l-18 -129h-605l21 129h602z" />
    <glyph glyph-name="breve" unicode="&#x2d8;" horiz-adv-x="681" 
d="M209 1346h88q3 -72 42.5 -112t96.5 -40q52 0 105 40t92 112h86q-22 -74 -58 -128t-77 -82t-78.5 -40.5t-73.5 -12.5q-100 0 -163 75.5t-60 187.5z" />
    <glyph glyph-name="dotaccent" unicode="&#x2d9;" horiz-adv-x="681" 
d="M442 1335q38 0 65.5 -27t27.5 -65t-27.5 -65t-65.5 -27t-65 27t-27 65t27 65t65 27z" />
    <glyph glyph-name="ring" unicode="&#x2da;" horiz-adv-x="681" 
d="M451 1075q-79 0 -135 55.5t-56 135.5t56 136t135 56t135.5 -56t56.5 -136q0 -79 -56 -135t-136 -56zM451 1163q43 0 73.5 30t30.5 73t-30.5 73.5t-73.5 30.5t-73 -30.5t-30 -73.5t30 -73t73 -30z" />
    <glyph glyph-name="ogonek" unicode="&#x2db;" horiz-adv-x="681" 
d="M430 -236l-14 -112q-63 -14 -111 -14q-100 0 -157.5 53.5t-57.5 120.5q0 95 82 204h129q-72 -112 -72 -161q0 -50 38.5 -76.5t80.5 -26.5q32 0 82 12z" />
    <glyph glyph-name="tilde" unicode="&#x2dc;" horiz-adv-x="681" 
d="M207 1135h-74q11 87 33 131q41 84 133 84q64 0 182 -50q90 -38 135 -38q23 0 39 8.5t24 26t11 27.5t6 30h74q0 -106 -51 -162.5t-117 -56.5q-57 0 -147 36q-3 1 -30 11.5t-39 15t-34 12t-37.5 10.5t-27.5 3q-66 0 -80 -88z" />
    <glyph glyph-name="hungarumlaut" unicode="&#x2dd;" horiz-adv-x="681" 
d="M541 1405l-283 -322h-90l188 322h185zM838 1405l-283 -322h-90l188 322h185z" />
    <glyph glyph-name="Delta" unicode="&#x394;" horiz-adv-x="1144" 
d="M1135 0h-1092v76l455 1358h188l449 -1358v-76zM956 129l-338 1032q-9 29 -19 70t-11 45h-4q-12 -45 -29 -113l-340 -1034h741z" />
    <glyph glyph-name="Delta" unicode="&#x2206;" horiz-adv-x="1144" 
d="M1135 0h-1092v76l455 1358h188l449 -1358v-76zM956 129l-338 1032q-9 29 -19 70t-11 45h-4q-12 -45 -29 -113l-340 -1034h741z" />
    <glyph glyph-name="Omega" unicode="&#x3a9;" horiz-adv-x="1372" 
d="M1257 0h-436v127q42 40 75 76.5t73 97.5t67 125t45.5 153.5t18.5 188.5q0 162 -47.5 287t-143 197.5t-227.5 72.5q-195 0 -311.5 -156t-116.5 -401q0 -96 17.5 -183.5t44 -152t65.5 -125t74.5 -100.5t79.5 -80v-127h-437v127h291q-295 258 -295 664q0 188 74 340
t209 239.5t307 87.5q268 0 422 -182t154 -481q0 -115 -26 -221t-70.5 -189t-94 -145.5t-106.5 -112.5h294v-127z" />
    <glyph glyph-name="Omega" unicode="&#x2126;" horiz-adv-x="1372" 
d="M1257 0h-436v127q42 40 75 76.5t73 97.5t67 125t45.5 153.5t18.5 188.5q0 162 -47.5 287t-143 197.5t-227.5 72.5q-195 0 -311.5 -156t-116.5 -401q0 -96 17.5 -183.5t44 -152t65.5 -125t74.5 -100.5t79.5 -80v-127h-437v127h291q-295 258 -295 664q0 188 74 340
t209 239.5t307 87.5q268 0 422 -182t154 -481q0 -115 -26 -221t-70.5 -189t-94 -145.5t-106.5 -112.5h294v-127z" />
    <glyph glyph-name="uni03BC" unicode="&#x3bc;" horiz-adv-x="1050" 
d="M829 920h142l-105 -742q-7 -59 33 -59q44 0 113 37l-17 -111q-50 -20 -74.5 -29.5t-59.5 -18.5t-62 -9q-54 0 -73.5 29t-10.5 92q-111 -125 -242 -125q-59 0 -104 19t-73 46.5t-60 73.5l-84 -594h-142l197 1391h141l-76 -545q-18 -126 44 -197.5t165 -71.5
q108 0 183 84.5t90 194.5z" />
    <glyph glyph-name="pi" unicode="&#x3c0;" horiz-adv-x="1204" 
d="M1155 129l33 -113q-48 -30 -135 -30q-124 0 -182 77t-58 193v639h-371v-623q0 -165 -26 -272h-168q31 124 31 279v616q-41 0 -96.5 -13t-92.5 -32l-47 117q45 24 121.5 40.5t161.5 16.5h854v-129h-201v-619q0 -163 111 -163q29 0 65 16z" />
    <glyph glyph-name="Wgrave" unicode="&#x1e80;" horiz-adv-x="1878" 
d="M2003 1397l-678 -1411h-55l-244 1077l-504 -1077h-61l-316 1411h138l239 -1086l508 1086h55l246 -1094l524 1094h148zM793 1812h186l186 -321h-90z" />
    <glyph glyph-name="wgrave" unicode="&#x1e81;" horiz-adv-x="1271" 
d="M1331 920l-481 -934h-59l-119 659l-340 -659h-58l-200 934h129l141 -668l334 668h61l121 -668l340 668h131zM449 1405h186l186 -322h-90z" />
    <glyph glyph-name="Wacute" unicode="&#x1e82;" horiz-adv-x="1878" 
d="M2003 1397l-678 -1411h-55l-244 1077l-504 -1077h-61l-316 1411h138l239 -1086l508 1086h55l246 -1094l524 1094h148zM1350 1812l-283 -321h-90l188 321h185z" />
    <glyph glyph-name="wacute" unicode="&#x1e83;" horiz-adv-x="1271" 
d="M1331 920l-481 -934h-59l-119 659l-340 -659h-58l-200 934h129l141 -668l334 668h61l121 -668l340 668h131zM1006 1405l-283 -322h-90l188 322h185z" />
    <glyph glyph-name="Wdieresis" unicode="&#x1e84;" horiz-adv-x="1878" 
d="M2003 1397l-678 -1411h-55l-244 1077l-504 -1077h-61l-316 1411h138l239 -1086l508 1086h55l246 -1094l524 1094h148zM903 1743q38 0 65 -27t27 -65t-27 -65t-65 -27t-65 27t-27 65t27 65t65 27zM1249 1743q38 0 65 -27t27 -65t-27 -65t-65 -27t-65 27t-27 65t27 65
t65 27z" />
    <glyph glyph-name="wdieresis" unicode="&#x1e85;" horiz-adv-x="1271" 
d="M1331 920l-481 -934h-59l-119 659l-340 -659h-58l-200 934h129l141 -668l334 668h61l121 -668l340 668h131zM545 1335q38 0 65 -27t27 -65t-27 -65t-65 -27t-65 27t-27 65t27 65t65 27zM891 1335q38 0 65 -27t27 -65t-27 -65t-65 -27t-65 27t-27 65t27 65t65 27z" />
    <glyph glyph-name="Ygrave" unicode="&#x1ef2;" horiz-adv-x="1007" 
d="M1133 1397l-502 -688l-101 -709h-143l98 709l-340 688h150l272 -545l402 545h164zM338 1812h186l187 -321h-90z" />
    <glyph glyph-name="ygrave" unicode="&#x1ef3;" horiz-adv-x="796" 
d="M856 920l-694 -1391h-144l254 506l-174 885h133l134 -699l350 699h141zM213 1405h186l187 -322h-90z" />
    <glyph glyph-name="endash" unicode="&#x2013;" horiz-adv-x="1024" 
d="M-12 508h1048v-92h-1048v92z" />
    <glyph glyph-name="emdash" unicode="&#x2014;" horiz-adv-x="2048" 
d="M-12 508h2072v-92h-2072v92z" />
    <glyph glyph-name="quoteleft" unicode="&#x2018;" horiz-adv-x="491" 
d="M506 1415l-10 -82q-59 -12 -98.5 -55t-26.5 -107q73 -32 73 -98q0 -40 -27.5 -74t-84.5 -34q-56 0 -90.5 41.5t-34.5 105.5q0 104 78.5 194t220.5 109z" />
    <glyph glyph-name="quoteright" unicode="&#x2019;" horiz-adv-x="491" 
d="M178 965l10 82q59 12 98.5 54.5t26.5 106.5q-73 32 -73 99q0 40 27.5 74t84.5 34q56 0 90.5 -41.5t34.5 -105.5q0 -104 -78.5 -194t-220.5 -109z" />
    <glyph glyph-name="quotesinglbase" unicode="&#x201a;" horiz-adv-x="491" 
d="M14 -248l11 82q59 12 98.5 55t26.5 107q-74 32 -74 98q0 40 27.5 74.5t84.5 34.5q56 0 90.5 -42t34.5 -106q0 -104 -78.5 -194t-220.5 -109z" />
    <glyph glyph-name="quotedblleft" unicode="&#x201c;" horiz-adv-x="876" 
d="M506 1415l-10 -82q-59 -12 -98.5 -55t-26.5 -107q73 -32 73 -98q0 -40 -27.5 -74t-84.5 -34q-56 0 -90.5 41.5t-34.5 105.5q0 104 78.5 194t220.5 109zM891 1415l-10 -82q-59 -12 -98.5 -55t-26.5 -107q73 -32 73 -98q0 -40 -27.5 -74t-84.5 -34q-56 0 -90.5 41.5
t-34.5 105.5q0 104 78.5 194t220.5 109z" />
    <glyph glyph-name="quotedblright" unicode="&#x201d;" horiz-adv-x="876" 
d="M563 965l10 82q59 12 98.5 54.5t26.5 106.5q-73 32 -73 99q0 40 27.5 74t84.5 34q56 0 90.5 -41.5t34.5 -105.5q0 -104 -78.5 -194t-220.5 -109zM178 965l10 82q59 12 98.5 54.5t26.5 106.5q-73 32 -73 99q0 40 27.5 74t84.5 34q56 0 90.5 -41.5t34.5 -105.5
q0 -104 -78.5 -194t-220.5 -109z" />
    <glyph glyph-name="quotedblbase" unicode="&#x201e;" horiz-adv-x="876" 
d="M399 -248l11 82q59 12 98.5 55t26.5 107q-74 32 -74 98q0 40 27.5 74.5t84.5 34.5q56 0 90.5 -42t34.5 -106q0 -104 -78.5 -194t-220.5 -109zM14 -248l11 82q59 12 98.5 55t26.5 107q-74 32 -74 98q0 40 27.5 74.5t84.5 34.5q56 0 90.5 -42t34.5 -106q0 -104 -78.5 -194
t-220.5 -109z" />
    <glyph glyph-name="dagger" unicode="&#x2020;" horiz-adv-x="980" 
d="M565 778q2 -146 -16.5 -449.5t-50.5 -516.5q-7 -46 -12.5 -76.5t-17.5 -73.5t-25 -69t-35 -45t-48 -19q-25 0 -43 14t-26.5 37t-12.5 45t-4 45q0 121 58.5 395t107.5 458.5t70 254.5q-184 -57 -279 -57q-58 0 -90 24.5t-32 57.5q0 37 38 59.5t91 22.5q59 0 180 -29
q93 -27 96 -27q-16 125 -16 254q0 39 2 74.5t9 85.5t19.5 85.5t36.5 61t56 25.5q24 0 41 -12.5t24.5 -33t10.5 -39.5t3 -40q0 -167 -129 -461q109 32 166.5 44t112.5 12t88 -21.5t33 -54.5q0 -42 -39 -65t-86 -23q-105 0 -281 57z" />
    <glyph glyph-name="daggerdbl" unicode="&#x2021;" horiz-adv-x="917" 
d="M541 836q-15 -111 -15 -170q0 -13 4.5 -79t4.5 -77q0 -42 -10 -80t-40 -117q-5 -14 -16.5 -56.5t-24 -90.5t-14.5 -55q160 55 260 55q119 0 119 -78q0 -86 -123 -86q-119 0 -262 61q14 -181 14 -264q0 -270 -119 -270q-40 0 -60.5 31t-20.5 75q0 75 30.5 170t102.5 258
q-97 -38 -143.5 -49.5t-100.5 -11.5q-30 0 -51.5 2.5t-45 9.5t-36 23t-12.5 41q0 43 42 65.5t91 22.5q95 0 262 -55q14 69 14 145q0 15 -4 95t-4 93q0 33 5.5 57.5t27.5 86.5q36 101 47.5 142t23.5 106q-173 -52 -256 -52q-49 0 -89 21.5t-40 66.5q0 38 35.5 57t91.5 19
q100 0 263 -67q-15 165 -15 241q0 43 1.5 76t8.5 76.5t18.5 72t34.5 48.5t54 20q82 0 82 -115q0 -71 -33 -176t-65 -174l-33 -69q3 1 9 4q142 63 253 63q123 0 123 -76q0 -29 -16 -48t-41 -27t-43.5 -10.5t-36.5 -2.5q-102 0 -252 52z" />
    <glyph glyph-name="bullet" unicode="&#x2022;" horiz-adv-x="874" 
d="M471 950q104 0 178 -73t74 -177t-74 -177.5t-178 -73.5t-177 73.5t-73 177.5t73 177t177 73z" />
    <glyph glyph-name="ellipsis" unicode="&#x2026;" horiz-adv-x="2048" 
d="M342 203q45 0 78 -33t33 -78q0 -46 -32.5 -78t-78.5 -32t-78.5 32t-32.5 78t32.5 78.5t78.5 32.5zM1024 203q46 0 78.5 -32.5t32.5 -78.5t-32.5 -78t-78.5 -32t-78.5 32t-32.5 78t32.5 78.5t78.5 32.5zM1706 203q46 0 78.5 -32.5t32.5 -78.5t-32.5 -78t-78.5 -32
t-78.5 32t-32.5 78q0 45 33 78t78 33z" />
    <glyph glyph-name="perthousand" unicode="&#x2030;" horiz-adv-x="2181" 
d="M1839 621q132 0 226 -94t94 -226t-94 -225.5t-226 -93.5t-225.5 93.5t-93.5 225.5t93.5 226t225.5 94zM1839 100q83 0 142 59t59 142t-59 142t-142 59t-142 -59t-59 -142t59 -142t142 -59zM1085 621q132 0 226 -94t94 -226t-94 -225.5t-226 -93.5t-225.5 93.5
t-93.5 225.5t93.5 226t225.5 94zM1085 100q83 0 142 59t59 142t-59 142t-142 59t-141.5 -59t-58.5 -142t58.5 -142t141.5 -59zM410 1415q132 0 225.5 -93.5t93.5 -225.5t-93.5 -226t-225.5 -94t-226 94t-94 226t94 225.5t226 93.5zM410 895q83 0 141.5 59t58.5 142
t-58.5 141.5t-141.5 58.5t-142 -58.5t-59 -141.5t59 -142t142 -59zM1323 1397l-1022 -1397h-129l1022 1397h129z" />
    <glyph glyph-name="guilsinglleft" unicode="&#x2039;" horiz-adv-x="468" 
d="M190 0l-180 461l336 459h129l-346 -474l174 -446h-113z" />
    <glyph glyph-name="guilsinglright" unicode="&#x203a;" horiz-adv-x="468" 
d="M270 920l181 -461l-336 -459h-129l346 473l-174 447h112z" />
    <glyph glyph-name="fraction" unicode="&#x2044;" horiz-adv-x="362" 
d="M788 1415l-1103 -1470h-111l1106 1470h108z" />
    <glyph glyph-name="fraction" unicode="&#x2215;" horiz-adv-x="362" 
d="M788 1415l-1103 -1470h-111l1106 1470h108z" />
    <glyph glyph-name="Euro" unicode="&#x20ac;" horiz-adv-x="1071" 
d="M1067 1407l-14 -129q-33 4 -90 4q-114 0 -212.5 -31.5t-170.5 -87.5t-124.5 -127t-86.5 -157h602l-19 -123h-622q-10 -44 -17 -113h613l-17 -123h-598q12 -191 100.5 -298t217.5 -107q46 0 91 10.5t75.5 22.5t73.5 40.5t62 42.5t64 50l-20 -175q-76 -55 -166.5 -89.5
t-177.5 -34.5q-191 0 -323 150.5t-144 387.5h-115l17 123h98q1 21 16 113h-94l18 123h107q80 247 278 391.5t467 144.5q65 0 111 -8z" />
    <glyph glyph-name="afii61289" unicode="&#x2113;" horiz-adv-x="950" 
d="M723 188l55 -84q-118 -131 -252 -131q-122 0 -177.5 82t-55.5 221v236l-117 -131l-65 76l182 207v477q0 174 63.5 262t173.5 88q50 0 89 -20t60.5 -52.5t32.5 -68t11 -72.5q0 -155 -77 -308t-210 -317v-379q0 -96 33.5 -140t87.5 -44q76 0 166 98zM612 1264
q0 45 -17 76.5t-56 31.5q-49 0 -76 -50t-27 -175v-330q78 104 127 224.5t49 222.5z" />
    <glyph glyph-name="trademark" unicode="&#x2122;" horiz-adv-x="1986" 
d="M674 582h-119v710h-266v105h651v-105h-266v-710zM1032 582v815h178l205 -652l205 652h176v-815h-108v706l-226 -706h-96l-225 710v-710h-109z" />
    <glyph glyph-name="estimated" unicode="&#x212e;" horiz-adv-x="1304" 
d="M1206 569h-880v-391q127 -127 311 -127q271 0 420 258l73 -43q-98 -146 -211.5 -218.5t-281.5 -72.5q-167 0 -294.5 80t-194 214t-66.5 300q0 167 66 301.5t194 214.5t297 80q130 0 236 -46t176.5 -127t110 -189t44.5 -234zM952 645v313q-131 134 -315 134
q-185 0 -311 -129v-318h626z" />
    <glyph glyph-name="onethird" unicode="&#x2153;" horiz-adv-x="1685" 
d="M545 1407l-131 -729h-105l129 729h107zM1450 1415l-1104 -1470h-110l1105 1470h109zM1049 41l14 80q1 -1 19 -9.5t31.5 -14t37.5 -12.5t53.5 -11t63.5 -4q88 0 135 50t47 99q0 65 -52 94t-122 29l12 70q62 0 106.5 15.5t64.5 39t28 43t8 37.5q0 47 -35.5 79.5
t-105.5 32.5q-21 0 -42.5 -3t-36 -6.5t-33 -11t-26 -11t-23.5 -12.5t-17 -9l14 92q99 39 180 39q107 0 169.5 -56t62.5 -132q0 -70 -47 -114.5t-105 -61.5q106 -56 106 -158q0 -89 -75 -156t-217 -67q-109 0 -215 49z" />
    <glyph glyph-name="twothirds" unicode="&#x2154;" horiz-adv-x="1685" 
d="M608 756l-12 -78h-518q83 75 189 189.5t169 195.5q49 64 67.5 103.5t18.5 74.5q0 40 -26 68t-86 28q-41 0 -87.5 -16t-121.5 -64l18 101q107 57 209 57q93 0 147 -49.5t54 -116.5q0 -44 -16 -85.5t-66 -106.5q-86 -114 -266 -301h327zM1450 1415l-1104 -1470h-110
l1105 1470h109zM1049 41l14 80q1 -1 19 -9.5t31.5 -14t37.5 -12.5t53.5 -11t63.5 -4q88 0 135 50t47 99q0 65 -52 94t-122 29l12 70q62 0 106.5 15.5t64.5 39t28 43t8 37.5q0 47 -35.5 79.5t-105.5 32.5q-21 0 -42.5 -3t-36 -6.5t-33 -11t-26 -11t-23.5 -12.5t-17 -9l14 92
q99 39 180 39q107 0 169.5 -56t62.5 -132q0 -70 -47 -114.5t-105 -61.5q106 -56 106 -158q0 -89 -75 -156t-217 -67q-109 0 -215 49z" />
    <glyph glyph-name="oneeighth" unicode="&#x215b;" horiz-adv-x="1685" 
d="M545 1407l-131 -729h-105l129 729h107zM1450 1415l-1104 -1470h-110l1105 1470h109zM1485 381q104 -42 104 -148q0 -98 -82 -169.5t-209 -71.5q-107 0 -174 58t-67 143q0 26 7.5 52t25.5 55t54 53.5t87 39.5q-90 50 -90 135q0 88 75.5 148.5t182.5 60.5q103 0 163 -54
t60 -128q0 -18 -4.5 -37t-17 -45.5t-42 -51t-73.5 -40.5zM1516 551q0 40 -29 73t-90 33q-66 0 -107 -40t-41 -93q0 -45 35 -72.5t88 -27.5q71 0 107.5 42t36.5 85zM1483 227q0 49 -37.5 84t-104.5 35q-84 0 -131 -48t-47 -108q0 -56 42 -89t102 -33q71 0 123.5 46t52.5 113z
" />
    <glyph glyph-name="threeeighths" unicode="&#x215c;" horiz-adv-x="1685" 
d="M102 719l15 80q1 -1 19 -9.5t31.5 -14t37.5 -12.5t53.5 -11t63.5 -4q88 0 135 50t47 99q0 65 -52 94t-122 29l12 70q62 0 106.5 15.5t64.5 39t28 43t8 37.5q0 47 -35.5 79.5t-105.5 32.5q-19 0 -36.5 -2t-33.5 -6t-28 -7.5t-26 -10t-21 -10t-19.5 -10t-14.5 -7.5l15 92
q99 39 180 39q107 0 169 -56t62 -132q0 -70 -46.5 -114.5t-104.5 -61.5q106 -56 106 -158q0 -89 -75.5 -156t-217.5 -67q-109 0 -215 49zM1450 1415l-1104 -1470h-110l1105 1470h109zM1485 381q104 -42 104 -148q0 -98 -82 -169.5t-209 -71.5q-107 0 -174 58t-67 143
q0 26 7.5 52t25.5 55t54 53.5t87 39.5q-90 50 -90 135q0 88 75.5 148.5t182.5 60.5q103 0 163 -54t60 -128q0 -18 -4.5 -37t-17 -45.5t-42 -51t-73.5 -40.5zM1516 551q0 40 -29 73t-90 33q-66 0 -107 -40t-41 -93q0 -45 35 -72.5t88 -27.5q71 0 107.5 42t36.5 85zM1483 227
q0 49 -37.5 84t-104.5 35q-84 0 -131 -48t-47 -108q0 -56 42 -89t102 -33q71 0 123.5 46t52.5 113z" />
    <glyph glyph-name="fiveeighths" unicode="&#x215d;" horiz-adv-x="1685" 
d="M664 1407l-15 -80h-266l-33 -188q128 3 195 -61t67 -150q0 -103 -84 -180.5t-227 -77.5q-126 0 -215 61l37 74q93 -57 176 -57q86 0 145.5 50t59.5 128q0 70 -50 104.5t-122 34.5q-28 0 -103 -14l68 356h367zM1450 1415l-1104 -1470h-110l1105 1470h109zM1485 381
q104 -42 104 -148q0 -98 -82 -169.5t-209 -71.5q-107 0 -174 58t-67 143q0 26 7.5 52t25.5 55t54 53.5t87 39.5q-90 50 -90 135q0 88 75.5 148.5t182.5 60.5q103 0 163 -54t60 -128q0 -18 -4.5 -37t-17 -45.5t-42 -51t-73.5 -40.5zM1516 551q0 40 -29 73t-90 33
q-66 0 -107 -40t-41 -93q0 -45 35 -72.5t88 -27.5q71 0 107.5 42t36.5 85zM1483 227q0 49 -37.5 84t-104.5 35q-84 0 -131 -48t-47 -108q0 -56 42 -89t102 -33q71 0 123.5 46t52.5 113z" />
    <glyph glyph-name="seveneighths" unicode="&#x215e;" horiz-adv-x="1685" 
d="M709 1407l-410 -733h-111l367 653h-362l12 80h504zM1450 1415l-1104 -1470h-110l1105 1470h109zM1485 381q104 -42 104 -148q0 -98 -82 -169.5t-209 -71.5q-107 0 -174 58t-67 143q0 26 7.5 52t25.5 55t54 53.5t87 39.5q-90 50 -90 135q0 88 75.5 148.5t182.5 60.5
q103 0 163 -54t60 -128q0 -18 -4.5 -37t-17 -45.5t-42 -51t-73.5 -40.5zM1516 551q0 40 -29 73t-90 33q-66 0 -107 -40t-41 -93q0 -45 35 -72.5t88 -27.5q71 0 107.5 42t36.5 85zM1483 227q0 49 -37.5 84t-104.5 35q-84 0 -131 -48t-47 -108q0 -56 42 -89t102 -33
q71 0 123.5 46t52.5 113z" />
    <glyph glyph-name="partialdiff" unicode="&#x2202;" horiz-adv-x="1099" 
d="M1018 1010q0 -191 -51 -402q-23 -93 -55.5 -178.5t-81.5 -169t-107.5 -144.5t-136.5 -98.5t-164 -37.5q-153 0 -246.5 102t-93.5 270q0 142 44 268t116 212.5t166.5 137t193.5 50.5q92 0 156.5 -39.5t95.5 -99.5h4q10 108 10 149q0 172 -69 254t-195 82q-92 0 -176 -49
l-39 108q38 26 104.5 44t129.5 18q185 0 290 -121.5t105 -355.5zM838 733q-23 78 -80.5 124t-145.5 46q-99 0 -186 -76.5t-138.5 -205.5t-51.5 -277q0 -114 52 -179t138 -65q140 0 249.5 171.5t162.5 461.5z" />
    <glyph glyph-name="product" unicode="&#x220f;" horiz-adv-x="1366" 
d="M1202 -471h-153v1771h-732v-1771h-153v1905h1038v-1905z" />
    <glyph glyph-name="summation" unicode="&#x2211;" horiz-adv-x="1206" 
d="M1122 -471h-1073v70l623 890l-578 863v82h979v-127h-788l544 -815l-583 -836h876v-127z" />
    <glyph glyph-name="minus" unicode="&#x2212;" horiz-adv-x="1366" 
d="M174 764h1088v-131h-1088v131z" />
    <glyph glyph-name="uni2219" unicode="&#x2219;" horiz-adv-x="491" 
d="M279 811q46 0 78 -32.5t32 -78.5t-32 -78t-78 -32t-78.5 32t-32.5 78t32.5 78.5t78.5 32.5z" />
    <glyph glyph-name="radical" unicode="&#x221a;" horiz-adv-x="944" 
d="M969 1491l-355 -1516h-131l-260 699l-106 -62l-51 93l231 137l248 -666l305 1315h119z" />
    <glyph glyph-name="infinity" unicode="&#x221e;" horiz-adv-x="1480" 
d="M1380 600q0 -135 -86.5 -228t-218.5 -93q-109 0 -197 59.5t-143 153.5h-4q-62 -94 -146.5 -153.5t-181.5 -59.5q-138 0 -226.5 87.5t-88.5 227.5q0 141 87 230t222 89q60 0 114 -19t95.5 -52t71 -67t53.5 -73h4q25 38 55 71.5t71.5 67t94.5 53t111 19.5
q134 0 223.5 -87.5t89.5 -225.5zM1247 600q0 86 -48 141.5t-138 55.5q-80 0 -143 -50.5t-123 -148.5q53 -97 121 -150t143 -53q92 0 140 58t48 147zM674 598q-52 88 -123 143.5t-143 55.5q-93 0 -141 -58t-48 -147q0 -86 53.5 -141.5t135.5 -55.5q145 0 266 203z" />
    <glyph glyph-name="integral" unicode="&#x222b;" horiz-adv-x="946" 
d="M815 1507l-33 -114q-32 16 -84 16q-76 0 -116.5 -51t-40.5 -146v-1339q0 -152 -76.5 -241t-218.5 -89q-79 0 -131 23l30 115q47 -15 84 -15q79 0 119.5 50.5t40.5 146.5v1341q0 151 77 239.5t222 88.5q37 0 74.5 -7.5t52.5 -17.5z" />
    <glyph glyph-name="approxequal" unicode="&#x2248;" horiz-adv-x="1271" 
d="M1108 860q-114 -170 -270 -170q-108 0 -215 66q-109 67 -187 67q-52 0 -99.5 -37t-82.5 -96l-88 94q55 81 117.5 125.5t152.5 44.5q115 0 213 -65q113 -68 187 -68q103 0 184 133zM1108 420q-112 -170 -270 -170q-110 0 -215 65q-111 68 -187 68q-53 0 -100 -37.5
t-82 -97.5l-88 96q55 81 117.5 125.5t152.5 44.5q109 0 213 -65q113 -68 187 -68q53 0 100.5 36.5t83.5 96.5z" />
    <glyph glyph-name="notequal" unicode="&#x2260;" horiz-adv-x="1271" 
d="M1071 315h-504l-123 -264h-139l125 264h-229v131h291l145 312h-436v131h495l127 276h142l-129 -276h235v-131h-297l-145 -312h442v-131z" />
    <glyph glyph-name="lessequal" unicode="&#x2264;" horiz-adv-x="1271" 
d="M1071 0h-870v131h870v-131zM1071 272l-870 404v92l870 401v-143l-674 -303v-4l674 -305v-142z" />
    <glyph glyph-name="greaterequal" unicode="&#x2265;" horiz-adv-x="1271" 
d="M1071 0h-870v131h870v-131zM1071 676l-870 -402v142l676 303v4l-676 305v141l870 -401v-92z" />
    <glyph glyph-name="lozenge" unicode="&#x25ca;" horiz-adv-x="1056" 
d="M553 1434l379 -717l-379 -717h-80l-377 715l377 719h80zM805 717l-291 553l-291 -553l289 -553z" />
    <glyph glyph-name="one.alt" unicode="&#xe000;" horiz-adv-x="1067" 
d="M684 1415h96l-215 -1415h-137l178 1159q-132 -126 -297 -207l25 156q98 60 172 121t108 99t70 87z" />
    <glyph glyph-name="zero.fitted" unicode="&#xf639;" horiz-adv-x="1067" 
d="M1018 934q0 -118 -19 -244t-62.5 -254t-106.5 -228t-158.5 -163t-210.5 -63q-173 0 -261.5 132t-88.5 357q0 134 22 267t68 255.5t110.5 216t156.5 149.5t200 56q159 0 254.5 -122.5t95.5 -358.5zM467 109q74 0 141.5 54t115.5 140.5t84 194t53.5 216.5t17.5 206
q0 66 -9.5 124.5t-31.5 116.5t-66.5 92.5t-107.5 34.5q-81 0 -151.5 -62t-117 -155.5t-80.5 -205t-49.5 -208.5t-15.5 -168q0 -24 0.5 -44t5 -61.5t12 -74t24 -72t38.5 -66t57.5 -44.5t79.5 -18z" />
    <glyph glyph-name="two.fitted" unicode="&#xf63a;" horiz-adv-x="946" 
d="M834 127l-19 -127h-823q143 169 200 236.5t151.5 186t176.5 230.5q108 148 159.5 245t51.5 185q0 98 -64 148.5t-149 50.5q-70 0 -146.5 -27t-181.5 -98l23 152q182 106 324 106q154 0 243.5 -91t89.5 -222q0 -118 -59.5 -237t-216.5 -326q-223 -292 -328 -412h568z" />
    <glyph glyph-name="three.fitted" unicode="&#xf63b;" horiz-adv-x="962" 
d="M-2 72l18 131q166 -94 326 -94q71 0 129 19.5t95 50t62 71.5t35.5 82t10.5 82q0 108 -73.5 178.5t-215.5 73.5l16 114q94 4 165 30t111.5 66t60.5 85.5t20 95.5q0 41 -15 80t-45.5 74t-85 56t-125.5 21q-89 0 -163 -27.5t-109 -56.5l21 142q135 69 286 69
q156 0 265.5 -98t109.5 -256q0 -245 -281 -344q97 -37 147 -117.5t50 -187.5q0 -58 -16 -115.5t-52.5 -115t-89.5 -101.5t-134.5 -71t-180.5 -27q-173 0 -342 90z" />
    <glyph glyph-name="four.fitted" unicode="&#xf63c;" horiz-adv-x="983" 
d="M842 1415l-127 -852h217l-17 -110h-219l-69 -453h-135l71 453h-543v59l750 903h72zM580 563l82 545l-459 -545h377z" />
    <glyph glyph-name="five.fitted" unicode="&#xf63d;" horiz-adv-x="976" 
d="M928 1397l-19 -127h-450l-62 -398q25 5 64 5q66 0 132.5 -26t123 -75t92 -129t35.5 -178q0 -94 -35 -181.5t-98.5 -155.5t-161 -109t-213.5 -41q-199 0 -342 110l51 119q151 -102 289 -102q111 0 197.5 53t130 133.5t43.5 171.5q0 132 -84.5 211.5t-219.5 79.5
q-26 0 -53 -3t-40.5 -6t-39.5 -9t-28 -7l110 664h578z" />
    <glyph glyph-name="six.fitted" unicode="&#xf63e;" horiz-adv-x="1028" 
d="M803 1397l-428 -623q26 24 97 53t157 29q55 0 107 -18t98.5 -55t75 -104t28.5 -155q0 -100 -37 -198t-100 -174t-153 -123t-189 -47q-88 0 -158.5 35t-113 91.5t-65 123t-22.5 135.5q0 145 58 271.5t188 317.5l301 441h156zM799 500q0 104 -53 166.5t-158 62.5
q-98 0 -179 -52.5t-125 -135.5t-44 -174q0 -45 13 -88t38.5 -80.5t70 -60.5t101.5 -23q75 0 140 35t107 91t65.5 123.5t23.5 135.5z" />
    <glyph glyph-name="seven.fitted" unicode="&#xf63f;" horiz-adv-x="913" 
d="M174 1397h813v-19l-686 -1378h-143l622 1270h-622z" />
    <glyph glyph-name="eight.fitted" unicode="&#xf640;" horiz-adv-x="1067" 
d="M762 731q61 -22 103 -58t61.5 -79.5t27 -80t7.5 -75.5q0 -194 -138 -325t-334 -131q-179 0 -287 112t-108 271q0 40 7.5 80t29 88t55 88t91.5 76t133 57q-33 17 -58 35t-53 49t-43.5 77.5t-15.5 104.5q0 75 28.5 145t80 126t132 90t176.5 34q158 0 257.5 -100.5
t99.5 -243.5q0 -28 -4.5 -58.5t-21 -73t-42 -79t-73.5 -72t-111 -57.5zM612 801q64 0 115.5 25t82.5 64.5t47.5 85t16.5 91.5q0 35 -12 71.5t-36.5 71t-70 56.5t-104.5 22q-56 0 -103.5 -18.5t-78 -47.5t-51.5 -66t-30 -72.5t-9 -67.5q0 -87 63 -151t170 -64zM494 109
q132 0 229.5 88.5t97.5 230.5q0 62 -23.5 111t-62 77.5t-83.5 43t-93 14.5q-130 0 -228 -85.5t-98 -228.5q0 -118 74.5 -184.5t186.5 -66.5z" />
    <glyph glyph-name="nine.fitted" unicode="&#xf641;" horiz-adv-x="1028" 
d="M303 0l428 623q-32 -32 -97.5 -57t-156.5 -25q-38 0 -76.5 8.5t-81.5 32t-75.5 59.5t-54 95.5t-21.5 135.5q0 135 62 259.5t174 204t243 79.5q88 0 158.5 -35t113 -91.5t65 -123t22.5 -135.5q0 -77 -16 -148t-53 -147t-75 -138t-102 -157l-301 -440h-156zM307 897
q0 -99 52 -164t159 -65q98 0 179 52.5t125 135.5t44 174q0 45 -13 88t-38.5 80.5t-70 60.5t-101.5 23q-75 0 -140 -35t-107 -91t-65.5 -123.5t-23.5 -135.5z" />
    <glyph glyph-name="zero.taboldstyle" unicode="&#xf643;" horiz-adv-x="1032" 
d="M53 373q0 66 15.5 138t54 150.5t94.5 139.5t146.5 101t201.5 40q81 0 150 -24t122.5 -71.5t84 -125.5t30.5 -180q0 -75 -17 -150t-56 -149.5t-96 -131.5t-144 -92.5t-193 -35.5q-176 0 -284.5 103t-108.5 288zM207 385q0 -126 65 -203.5t185 -77.5q74 0 134 29t98 75
t63.5 105t36 116t10.5 112q0 38 -6 73.5t-23 74t-43.5 66.5t-71 46t-102.5 18q-83 0 -151 -39t-109.5 -102.5t-63.5 -139t-22 -153.5z" />
    <glyph glyph-name="one.taboldstyle" unicode="&#xf644;" horiz-adv-x="1032" 
d="M567 0h-137l109 725l-279 -184l29 164l358 237h62z" />
    <glyph glyph-name="two.taboldstyle" unicode="&#xf645;" horiz-adv-x="1032" 
d="M831 123l-16 -123h-713q62 56 146 130t130.5 115t104 94.5t87 88.5t58.5 77t40.5 79.5t11.5 77.5q0 21 -9 45.5t-28.5 51t-58 43.5t-90.5 17q-156 0 -306 -135l19 143q42 27 65 40.5t67 34.5t91.5 30.5t101.5 9.5q136 0 215.5 -71t79.5 -181q0 -126 -93 -253.5
t-312 -313.5h409z" />
    <glyph glyph-name="three.taboldstyle" unicode="&#xf646;" horiz-adv-x="1032" 
d="M246 188l444 609h-508l19 123h735l-469 -631q85 -13 149.5 -49.5t100 -87.5t52.5 -105t17 -110q0 -169 -125.5 -288.5t-312.5 -119.5q-178 0 -360 92l26 129q59 -34 149 -66t173 -32q131 0 217 78t86 200q0 129 -104 208.5t-289 49.5z" />
    <glyph glyph-name="four.taboldstyle" unicode="&#xf647;" horiz-adv-x="1032" 
d="M838 942l-127 -831h227l-16 -111h-230l-76 -471h-129l74 471h-581v47l808 895h50zM580 111l88 532l-471 -532h383z" />
    <glyph glyph-name="five.taboldstyle" unicode="&#xf648;" horiz-adv-x="1032" 
d="M918 920l-21 -123h-385l-143 -475q116 18 221 -22t171 -130t66 -207q0 -87 -35.5 -166t-97.5 -138.5t-153 -94.5t-197 -35q-190 0 -350 104l45 117q35 -21 55 -31.5t63.5 -29.5t91.5 -28t101 -9q137 0 233.5 82.5t96.5 210.5q0 63 -25.5 115t-83 93t-150 50.5
t-226.5 -13.5l227 730h496z" />
    <glyph glyph-name="six.taboldstyle" unicode="&#xf649;" horiz-adv-x="1032" 
d="M635 1397l113 -60l-390 -565q35 25 58.5 39t74.5 29.5t109 15.5q140 0 232 -89t92 -243q0 -133 -59.5 -256.5t-170.5 -204.5t-245 -81q-166 0 -263.5 115t-97.5 284q0 136 71.5 284t231.5 379zM782 510q0 95 -54 159t-153 64q-59 0 -120 -25.5t-111.5 -71t-82.5 -115.5
t-32 -152q0 -117 63.5 -184.5t158.5 -67.5q133 0 232 116.5t99 276.5z" />
    <glyph glyph-name="seven.taboldstyle" unicode="&#xf64a;" horiz-adv-x="1032" 
d="M973 920l-684 -1391l-131 55l618 1213h-604l16 123h785z" />
    <glyph glyph-name="eight.taboldstyle" unicode="&#xf64b;" horiz-adv-x="1032" 
d="M700 741q58 -19 101.5 -51t65.5 -64.5t35.5 -71.5t16.5 -64t3 -50q0 -90 -35.5 -173.5t-97 -146.5t-150 -100.5t-188.5 -37.5q-122 0 -213.5 55t-136 139.5t-44.5 183.5q0 151 91.5 250t242.5 131q-38 20 -66 39.5t-58.5 52t-47 79.5t-16.5 106q0 165 118.5 281
t296.5 116q164 0 260.5 -101.5t96.5 -236.5q0 -15 -1.5 -30.5t-8.5 -51t-25 -68t-46.5 -69t-78.5 -67.5t-115 -50zM571 799q68 0 121.5 27.5t83 70t44 86.5t14.5 84q0 94 -60.5 159.5t-161.5 65.5q-84 0 -146.5 -42.5t-92 -104t-29.5 -129.5q0 -56 21 -99.5t55 -68t72.5 -37
t78.5 -12.5zM457 104q134 0 228.5 96t94.5 226q0 111 -69.5 180.5t-190.5 69.5q-134 0 -227.5 -93t-93.5 -223q0 -122 78 -189t180 -67z" />
    <glyph glyph-name="nine.taboldstyle" unicode="&#xf64c;" horiz-adv-x="1032" 
d="M371 -471l-111 76l397 553q-32 -25 -54.5 -39.5t-75 -31.5t-109.5 -17q-77 0 -138 24.5t-96 61t-57.5 83.5t-30.5 86.5t-8 75.5q0 96 36 192.5t98 174t154 126t195 48.5q161 0 258 -108.5t97 -286.5q0 -144 -72.5 -293t-196.5 -322zM784 555q0 69 -20 121t-53.5 80
t-71 41.5t-78.5 13.5q-96 0 -174.5 -64t-118 -154.5t-39.5 -182.5q0 -91 50.5 -154t152.5 -63q146 0 249 107t103 255z" />
    <glyph glyph-name="zero.denominator" unicode="&#xf655;" 
d="M612 481q0 -77 -19.5 -158.5t-58.5 -157.5t-108 -124.5t-156 -48.5q-96 0 -158.5 64.5t-62.5 189.5q0 57 11 120t37 130t64 120t98 87t132 34q51 0 91 -17.5t64 -44t39.5 -61.5t21 -67.5t5.5 -65.5zM504 481q0 78 -29 128t-86 50q-67 0 -121.5 -70t-81 -163.5
t-26.5 -179.5q0 -76 31 -127t83 -51t97.5 43.5t73 108.5t43.5 134.5t16 126.5z" />
    <glyph glyph-name="one.denominator" unicode="&#xf656;" 
d="M467 729l-131 -729h-105l129 729h107z" />
    <glyph glyph-name="two.denominator" unicode="&#xf657;" 
d="M530 78l-12 -78h-518q83 75 189 189.5t169 195.5q49 64 67.5 103.5t18.5 74.5q0 40 -26 68t-86 28q-42 0 -88 -15.5t-121 -63.5l18 100q107 57 209 57q93 0 147 -49.5t54 -116.5q0 -44 -16 -85.5t-66 -106.5q-86 -114 -266 -301h327z" />
    <glyph glyph-name="three.denominator" unicode="&#xf658;" 
d="M25 41l14 80q1 -1 19 -9.5t31.5 -14t37.5 -12.5t53.5 -11t63.5 -4q88 0 135 50t47 99q0 65 -52 94t-122 29l12 70q62 0 106.5 15.5t64.5 39t28 43t8 37.5q0 47 -35.5 79.5t-105.5 32.5q-21 0 -42.5 -3t-36 -6.5t-33 -11t-26 -11t-23.5 -12.5t-17 -9l14 92q99 39 180 39
q107 0 169.5 -56t62.5 -132q0 -70 -47 -114.5t-105 -61.5q106 -56 106 -158q0 -89 -75 -156t-217 -67q-109 0 -215 49z" />
    <glyph glyph-name="four.denominator" unicode="&#xf659;" 
d="M526 737l-75 -436h127l-13 -68h-129l-39 -233h-104l41 233h-320v37l449 467h63zM346 301l43 240l-233 -240h190z" />
    <glyph glyph-name="five.denominator" unicode="&#xf65a;" 
d="M586 729l-15 -80h-266l-33 -188q128 3 195.5 -61t67.5 -150q0 -102 -84.5 -180t-227.5 -78q-126 0 -215 61l37 74q93 -57 176 -57q86 0 145.5 50t59.5 128q0 70 -50 104.5t-122 34.5q-27 0 -102 -14l67 356h367z" />
    <glyph glyph-name="six.denominator" unicode="&#xf65b;" 
d="M496 729l-236 -299q57 21 107 21q86 0 144 -47t58 -130q0 -109 -86 -195.5t-209 -86.5q-102 0 -162.5 60t-60.5 147q0 39 10 75.5t35 78.5t44.5 68.5t60.5 80.5l180 227h115zM463 268q0 56 -32.5 81.5t-76.5 25.5q-77 0 -135.5 -51.5t-58.5 -126.5q0 -56 33 -89.5
t86 -33.5q76 0 130 60t54 134z" />
    <glyph glyph-name="seven.denominator" unicode="&#xf65c;" 
d="M631 729l-410 -733h-110l366 653h-362l12 80h504z" />
    <glyph glyph-name="eight.denominator" unicode="&#xf65d;" 
d="M461 381q104 -42 104 -148q0 -98 -82 -169.5t-209 -71.5q-107 0 -174 58t-67 143q0 26 7.5 52t25.5 55t54 53.5t87 39.5q-90 50 -90 135q0 88 75.5 148.5t182.5 60.5q103 0 163 -54t60 -128q0 -18 -4.5 -37t-17 -45.5t-42 -51t-73.5 -40.5zM492 551q0 40 -29 73t-90 33
q-66 0 -107 -40t-41 -93q0 -45 35 -72.5t88 -27.5q71 0 107.5 42t36.5 85zM459 227q0 49 -37.5 84t-104.5 35q-84 0 -131 -48t-47 -108q0 -56 42 -89t102 -33q71 0 123.5 46t52.5 113z" />
    <glyph glyph-name="nine.denominator" unicode="&#xf65e;" 
d="M139 -4l240 303q-3 -1 -16.5 -6t-19.5 -6.5t-18.5 -5t-24.5 -4.5t-26 -1q-55 0 -96.5 17.5t-64 45t-33 56.5t-10.5 58q0 106 85 195t214 89q97 0 158 -58.5t61 -150.5q0 -63 -30 -126.5t-93 -145.5l-209 -260h-117zM481 532q0 56 -33.5 89.5t-87.5 33.5q-78 0 -131 -61.5
t-53 -134.5q0 -45 29.5 -75t79.5 -30q79 0 137.5 52t58.5 126z" />
    <glyph glyph-name="zero.numerator" unicode="&#xf661;" 
d="M690 1159q0 -77 -19.5 -158.5t-58.5 -157.5t-108 -124.5t-156 -48.5q-96 0 -158.5 64.5t-62.5 189.5q0 57 11 120t37 130t64 120t98 87t132 34q51 0 91 -17.5t64 -44t39.5 -61.5t21 -67.5t5.5 -65.5zM582 1159q0 78 -29 128t-86 50q-67 0 -121.5 -70t-81 -163.5
t-26.5 -179.5q0 -76 31 -127.5t83 -51.5t97.5 43.5t73 108.5t43.5 135t16 127z" />
    <glyph glyph-name="one.numerator" unicode="&#xf662;" 
d="M545 1407l-131 -729h-105l129 729h107z" />
    <glyph glyph-name="two.numerator" unicode="&#xf663;" 
d="M608 756l-12 -78h-518q83 75 189 189.5t169 195.5q49 64 67.5 103.5t18.5 74.5q0 40 -26 68t-86 28q-41 0 -87.5 -16t-121.5 -64l18 101q107 57 209 57q93 0 147 -49.5t54 -116.5q0 -44 -16 -85.5t-66 -106.5q-86 -114 -266 -301h327z" />
    <glyph glyph-name="three.numerator" unicode="&#xf664;" 
d="M102 719l15 80q1 -1 19 -9.5t31.5 -14t37.5 -12.5t53.5 -11t63.5 -4q88 0 135 50t47 99q0 65 -52 94t-122 29l12 70q62 0 106.5 15.5t64.5 39t28 43t8 37.5q0 47 -35.5 79.5t-105.5 32.5q-19 0 -36.5 -2t-33.5 -6t-28 -7.5t-26 -10t-21 -10t-19.5 -10t-14.5 -7.5l15 92
q99 39 180 39q107 0 169 -56t62 -132q0 -70 -46.5 -114.5t-104.5 -61.5q106 -56 106 -158q0 -89 -75.5 -156t-217.5 -67q-109 0 -215 49z" />
    <glyph glyph-name="four.numerator" unicode="&#xf665;" 
d="M604 1415l-76 -436h127l-12 -68h-129l-39 -233h-104l41 233h-320v37l449 467h63zM424 979l43 240l-234 -240h191z" />
    <glyph glyph-name="five.numerator" unicode="&#xf666;" 
d="M664 1407l-15 -80h-266l-33 -188q128 3 195 -61t67 -150q0 -103 -84 -180.5t-227 -77.5q-126 0 -215 61l37 74q93 -57 176 -57q86 0 145.5 50t59.5 128q0 70 -50 104.5t-122 34.5q-28 0 -103 -14l68 356h367z" />
    <glyph glyph-name="six.numerator" unicode="&#xf667;" 
d="M573 1407l-235 -299q54 20 106 20q86 0 144.5 -46.5t58.5 -129.5q0 -109 -86 -195.5t-209 -86.5q-102 0 -162.5 60t-60.5 147q0 39 10 75.5t35 78.5t44.5 68.5t60.5 80.5l180 227h114zM541 946q0 56 -32.5 81.5t-76.5 25.5q-77 0 -135.5 -52t-58.5 -127q0 -56 32.5 -89
t85.5 -33q76 0 130.5 60t54.5 134z" />
    <glyph glyph-name="seven.numerator" unicode="&#xf668;" 
d="M709 1407l-410 -733h-111l367 653h-362l12 80h504z" />
    <glyph glyph-name="eight.numerator" unicode="&#xf669;" 
d="M539 1059q104 -42 104 -148q0 -98 -82 -169.5t-209 -71.5q-107 0 -174 57.5t-67 142.5q0 26 7.5 52t25.5 55.5t54 54t87 39.5q-90 50 -90 135q0 88 75.5 148.5t182.5 60.5q103 0 163 -54t60 -128q0 -18 -4.5 -37t-17 -45.5t-42 -51t-73.5 -40.5zM569 1229q0 40 -28.5 73
t-89.5 33q-66 0 -107 -40t-41 -93q0 -45 35 -72.5t88 -27.5q71 0 107 41.5t36 85.5zM537 905q0 49 -37.5 84t-104.5 35q-84 0 -131 -48t-47 -108q0 -56 41.5 -89.5t101.5 -33.5q71 0 124 46t53 114z" />
    <glyph glyph-name="nine.numerator" unicode="&#xf66a;" 
d="M217 674l240 303q-3 -1 -16.5 -6t-19.5 -6.5t-18.5 -5t-24.5 -4.5t-26 -1q-55 0 -96.5 17.5t-64 45t-33.5 56.5t-11 57q0 106 85 195.5t214 89.5q97 0 158.5 -58.5t61.5 -150.5q0 -63 -30 -126.5t-93 -145.5l-209 -260h-117zM559 1210q0 56 -33.5 89.5t-87.5 33.5
q-78 0 -131 -61.5t-53 -134.5q0 -46 29 -75.5t79 -29.5q79 0 138 52t59 126z" />
    <glyph glyph-name="abreve.sc" unicode="&#xf66d;" horiz-adv-x="839" 
d="M735 0h-121l-67 324h-295l-141 -324h-127l438 997h108zM526 434l-73 357l-154 -357h227zM270 1346h88q3 -72 43 -112t97 -40q52 0 104.5 40t91.5 112h86q-22 -74 -58 -128t-76.5 -82t-78 -40.5t-73.5 -12.5q-100 0 -163.5 76t-60.5 187z" />
    <glyph glyph-name="amacron.sc" unicode="&#xf66e;" horiz-adv-x="839" 
d="M735 0h-121l-67 324h-295l-141 -324h-127l438 997h108zM526 434l-73 357l-154 -357h227zM807 1309l-19 -129h-604l21 129h602z" />
    <glyph glyph-name="aogonek.sc" unicode="&#xf66f;" horiz-adv-x="839" 
d="M735 0q-59 -87 -59 -145q0 -50 38.5 -76.5t80.5 -26.5q32 0 82 12l-15 -112q-63 -14 -110 -14q-100 0 -157.5 53.5t-57.5 120.5q0 15 4.5 36.5t23 64.5t49.5 87l-67 324h-295l-141 -324h-127l438 997h108zM526 434l-73 357l-154 -357h227z" />
    <glyph glyph-name="aeacute.sc" unicode="&#xf670;" horiz-adv-x="1245" 
d="M1157 117l-14 -117h-639l61 444h-196l-256 -444h-138l578 989h588l-17 -117h-376l-43 -309h354l-17 -119h-354l-45 -327h514zM623 877h-7l-182 -322h146zM1137 1405l-283 -322h-90l188 322h185z" />
    <glyph glyph-name="cacute.sc" unicode="&#xf671;" horiz-adv-x="817" 
d="M805 993l-21 -121q-86 7 -102 7q-121 0 -219.5 -43.5t-158 -113.5t-91 -151.5t-31.5 -164.5q0 -131 72.5 -214t183.5 -83q143 0 305 122l-22 -157q-143 -86 -291 -86q-75 0 -144 29t-121 81t-83 131t-31 172q0 120 45.5 229.5t126.5 191.5t201 130.5t260 48.5
q56 0 121 -8zM842 1405l-283 -322h-90l188 322h185z" />
    <glyph glyph-name="ccaron.sc" unicode="&#xf672;" horiz-adv-x="817" 
d="M805 993l-21 -121q-86 7 -102 7q-121 0 -219.5 -43.5t-158 -113.5t-91 -151.5t-31.5 -164.5q0 -131 72.5 -214t183.5 -83q143 0 305 122l-22 -157q-143 -86 -291 -86q-75 0 -144 29t-121 81t-83 131t-31 172q0 120 45.5 229.5t126.5 191.5t201 130.5t260 48.5
q56 0 121 -8zM467 1083l-76 322h80l94 -201l254 201h99l-293 -322h-158z" />
    <glyph glyph-name="ccircumflex.sc" unicode="&#xf673;" horiz-adv-x="817" 
d="M805 993l-21 -121q-86 7 -102 7q-121 0 -219.5 -43.5t-158 -113.5t-91 -151.5t-31.5 -164.5q0 -131 72.5 -214t183.5 -83q143 0 305 122l-22 -157q-143 -86 -291 -86q-75 0 -144 29t-121 81t-83 131t-31 172q0 120 45.5 229.5t126.5 191.5t201 130.5t260 48.5
q56 0 121 -8zM719 1405l76 -322h-80l-94 201l-254 -201h-99l293 322h158z" />
    <glyph glyph-name="cdotaccent.sc" unicode="&#xf674;" horiz-adv-x="817" 
d="M805 993l-21 -121q-86 7 -102 7q-121 0 -219.5 -43.5t-158 -113.5t-91 -151.5t-31.5 -164.5q0 -131 72.5 -214t183.5 -83q143 0 305 122l-22 -157q-143 -86 -291 -86q-75 0 -144 29t-121 81t-83 131t-31 172q0 120 45.5 229.5t126.5 191.5t201 130.5t260 48.5
q56 0 121 -8zM602 1335q38 0 65 -27t27 -65t-27 -65t-65 -27t-65 27t-27 65t27 65t65 27z" />
    <glyph glyph-name="dcaron.sc" unicode="&#xf675;" horiz-adv-x="890" 
d="M840 489q0 -138 -56.5 -247.5t-170.5 -175.5t-269 -66h-317l135 989h151q106 0 200 -32t167.5 -93t116.5 -157.5t43 -217.5zM709 492q0 92 -34.5 166.5t-91 119.5t-124.5 68.5t-140 23.5h-47l-104 -753h139q111 0 191 29t125 82t65.5 118t20.5 146zM360 1083l-75 322h80
l94 -201l254 201h98l-293 -322h-158z" />
    <glyph glyph-name="dcroat.sc" unicode="&#xf676;" horiz-adv-x="890" 
d="M4 438l16 113h80l62 438h151q106 0 200 -32t167.5 -93t116.5 -157.5t43 -217.5q0 -138 -56.5 -247.5t-170.5 -175.5t-269 -66h-317l59 438h-82zM709 492q0 92 -34.5 166.5t-91 119.5t-124.5 68.5t-140 23.5h-47l-45 -319h275l-19 -113h-272l-43 -321h139q111 0 191 29
t125 82t65.5 118t20.5 146z" />
    <glyph glyph-name="ebreve.sc" unicode="&#xf677;" horiz-adv-x="774" 
d="M684 117l-14 -117h-643l137 989h512l-17 -117h-389l-43 -309h359l-17 -119h-358l-45 -327h518zM238 1346h88q3 -72 42.5 -112t96.5 -40q52 0 105 40t92 112h86q-22 -74 -58 -128t-77 -82t-78.5 -40.5t-73.5 -12.5q-100 0 -163 75.5t-60 187.5z" />
    <glyph glyph-name="ecaron.sc" unicode="&#xf678;" horiz-adv-x="774" 
d="M684 117l-14 -117h-643l137 989h512l-17 -117h-389l-43 -309h359l-17 -119h-358l-45 -327h518zM332 1083l-76 322h80l94 -201l254 201h98l-293 -322h-157z" />
    <glyph glyph-name="edotaccent.sc" unicode="&#xf679;" horiz-adv-x="774" 
d="M684 117l-14 -117h-643l137 989h512l-17 -117h-389l-43 -309h359l-17 -119h-358l-45 -327h518zM459 1335q38 0 65 -27t27 -65t-27 -65t-65 -27t-65 27t-27 65t27 65t65 27z" />
    <glyph glyph-name="emacron.sc" unicode="&#xf67a;" horiz-adv-x="774" 
d="M684 117l-14 -117h-643l137 989h512l-17 -117h-389l-43 -309h359l-17 -119h-358l-45 -327h518zM791 1309l-19 -129h-604l20 129h603z" />
    <glyph glyph-name="eng.sc" unicode="&#xf67b;" horiz-adv-x="952" 
d="M492 -12l-27 116q50 -16 106 -16q71 0 102.5 45t45.5 150l35 268q20 151 -38.5 242.5t-178.5 91.5q-171 0 -289 -189l-94 -696h-127l133 989h127l-15 -106q125 121 285 121q166 0 261 -120.5t65 -328.5l-39 -279q-10 -71 -26 -121.5t-45 -93t-76 -63.5t-113 -21
q-39 0 -92 11z" />
    <glyph glyph-name="eogonek.sc" unicode="&#xf67c;" horiz-adv-x="774" 
d="M659 -236l-14 -112q-63 -14 -110 -14q-100 0 -158 53.5t-58 120.5q0 89 70 188h-362l137 989h512l-17 -117h-389l-43 -309h359l-17 -119h-358l-45 -327h518l-14 -117h-150q-61 -90 -61 -145q0 -50 38.5 -76.5t80.5 -26.5q31 0 81 12z" />
    <glyph glyph-name="gbreve.sc" unicode="&#xf67d;" horiz-adv-x="915" 
d="M899 979l-14 -117q-123 21 -183 21q-100 0 -185.5 -27t-144.5 -72.5t-101 -105t-61.5 -125t-19.5 -133.5q0 -139 79 -226.5t204 -87.5q87 0 191 52l20 164h-170l14 112h297l-49 -350q-156 -96 -311 -96q-176 0 -291 122.5t-115 309.5q0 80 23.5 160t76 156.5t127 135
t185.5 94t244 35.5q66 0 184 -22zM369 1346h88q3 -72 42.5 -112t96.5 -40q52 0 105 40t92 112h86q-22 -74 -58 -128t-77 -82t-78.5 -40.5t-73.5 -12.5q-100 0 -163 75.5t-60 187.5z" />
    <glyph glyph-name="gcircumflex.sc" unicode="&#xf67e;" horiz-adv-x="915" 
d="M899 979l-14 -117q-123 21 -183 21q-100 0 -185.5 -27t-144.5 -72.5t-101 -105t-61.5 -125t-19.5 -133.5q0 -139 79 -226.5t204 -87.5q87 0 191 52l20 164h-170l14 112h297l-49 -350q-156 -96 -311 -96q-176 0 -291 122.5t-115 309.5q0 80 23.5 160t76 156.5t127 135
t185.5 94t244 35.5q66 0 184 -22zM776 1405l76 -322h-80l-94 201l-254 -201h-98l292 322h158z" />
    <glyph glyph-name="gcommaaccent.sc" unicode="&#xf67f;" horiz-adv-x="915" 
d="M899 979l-14 -117q-123 21 -183 21q-100 0 -185.5 -27t-144.5 -72.5t-101 -105t-61.5 -125t-19.5 -133.5q0 -139 79 -226.5t204 -87.5q87 0 191 52l20 164h-170l14 112h297l-49 -350q-156 -96 -311 -96q-176 0 -291 122.5t-115 309.5q0 80 23.5 160t76 156.5t127 135
t185.5 94t244 35.5q66 0 184 -22zM180 -410l31 88q39 -8 86 -8q71 0 117.5 23.5t46.5 70.5q0 27 -15 44t-45 25t-64 10.5t-81 0.5l29 88q27 2 63 2q50 0 92.5 -7t83 -23t63.5 -48.5t23 -78.5q0 -98 -86.5 -148.5t-216.5 -50.5q-65 0 -127 12z" />
    <glyph glyph-name="gdotaccent.sc" unicode="&#xf680;" horiz-adv-x="915" 
d="M899 979l-14 -117q-123 21 -183 21q-100 0 -185.5 -27t-144.5 -72.5t-101 -105t-61.5 -125t-19.5 -133.5q0 -139 79 -226.5t204 -87.5q87 0 191 52l20 164h-170l14 112h297l-49 -350q-156 -96 -311 -96q-176 0 -291 122.5t-115 309.5q0 80 23.5 160t76 156.5t127 135
t185.5 94t244 35.5q66 0 184 -22zM662 1335q38 0 65 -27t27 -65t-27 -65t-65 -27t-65.5 27t-27.5 65t27.5 65t65.5 27z" />
    <glyph glyph-name="hbar.sc" unicode="&#xf681;" horiz-adv-x="968" 
d="M942 989l-22 -162h104l-18 -110h-101l-98 -717h-127l59 440h-526l-59 -440h-127l96 717h-98l18 110h94l23 162h127l-23 -162h529l22 162h127zM229 561h527l20 156h-526z" />
    <glyph glyph-name="hcircumflex.sc" unicode="&#xf682;" horiz-adv-x="968" 
d="M942 989l-135 -989h-127l59 440h-526l-59 -440h-127l133 989h127l-58 -428h527l59 428h127zM733 1405l76 -322h-80l-94 201l-254 -201h-98l292 322h158z" />
    <glyph glyph-name="ibreve.sc" unicode="&#xf683;" horiz-adv-x="311" 
d="M285 989l-133 -989h-125l133 989h125zM-2 1346h88q3 -72 42.5 -112t96.5 -40q52 0 105 40t92 112h86q-22 -74 -58 -128t-77 -82t-78.5 -40.5t-73.5 -12.5q-100 0 -163 75.5t-60 187.5z" />
    <glyph glyph-name="ij.sc" unicode="&#xf684;" horiz-adv-x="653" 
d="M285 989l-133 -989h-125l133 989h125zM627 989l-144 -1059q-18 -129 -81.5 -192.5t-163.5 -63.5q-37 0 -97 13l-28 129q80 -21 110 -21q64 0 97.5 39t46.5 135l137 1020h123z" />
    <glyph glyph-name="imacron.sc" unicode="&#xf685;" horiz-adv-x="311" 
d="M285 989l-133 -989h-125l133 989h125zM561 1309l-18 -129h-604l20 129h602z" />
    <glyph glyph-name="iogonek.sc" unicode="&#xf686;" horiz-adv-x="311" 
d="M285 989l-133 -989q-60 -96 -60 -145q0 -50 38.5 -76.5t80.5 -26.5q32 0 82 12l-14 -112q-63 -14 -111 -14q-100 0 -157.5 53.5t-57.5 120.5q0 80 74 188l133 989h125z" />
    <glyph glyph-name="itilde.sc" unicode="&#xf687;" horiz-adv-x="311" 
d="M285 989l-133 -989h-125l133 989h125zM10 1135h-73q11 90 32 131q41 84 133 84q65 0 183 -50q90 -38 135 -38q23 0 39 8.5t24 26t11 27.5t6 30h73q0 -106 -50.5 -162.5t-116.5 -56.5q-58 0 -148 36q-3 1 -30 11.5t-39 15t-34 12t-37.5 10.5t-27.5 3q-66 0 -80 -88z" />
    <glyph glyph-name="jcircumflex.sc" unicode="&#xf688;" horiz-adv-x="342" 
d="M315 989l-143 -1059q-18 -129 -82 -192.5t-164 -63.5q-36 0 -96 13l-29 129q80 -21 111 -21q64 0 97 38.5t46 135.5l138 1020h122zM428 1405l76 -322h-80l-94 201l-254 -201h-99l293 322h158z" />
    <glyph glyph-name="kcommaaccent.sc" unicode="&#xf689;" horiz-adv-x="833" 
d="M817 989l-489 -459l467 -530h-156l-420 489l-67 -489h-125l135 989h125l-56 -395l424 395h162zM117 -410l30 88q39 -8 86 -8q71 0 117.5 23.5t46.5 70.5q0 27 -15 44t-44.5 25t-63.5 10.5t-81 0.5l28 88q27 2 64 2q50 0 92.5 -7t83 -23t63.5 -48.5t23 -78.5
q0 -98 -86.5 -148.5t-216.5 -50.5q-66 0 -127 12z" />
    <glyph glyph-name="lacute.sc" unicode="&#xf68a;" horiz-adv-x="659" 
d="M578 117l-17 -117h-518l133 989h125l-123 -872h400zM598 1405l-283 -322h-90l189 322h184z" />
    <glyph glyph-name="lcaron.sc" unicode="&#xf68b;" horiz-adv-x="659" 
d="M369 553l10 82q59 12 98.5 55t26.5 107q-74 32 -74 98q0 40 28 74.5t85 34.5q56 0 90.5 -42t34.5 -106q0 -104 -78.5 -194t-220.5 -109zM578 117l-17 -117h-518l133 989h125l-123 -872h400z" />
    <glyph glyph-name="lcommaaccent.sc" unicode="&#xf68c;" horiz-adv-x="659" 
d="M578 117l-17 -117h-518l133 989h125l-123 -872h400zM53 -410l31 88q39 -8 86 -8q71 0 117.5 23.5t46.5 70.5q0 27 -15 44t-45 25t-64 10.5t-81 0.5l29 88q27 2 63 2q50 0 92.5 -7t83 -23t63.5 -48.5t23 -78.5q0 -98 -86.5 -148.5t-216.5 -50.5q-66 0 -127 12z" />
    <glyph glyph-name="ldot.sc" unicode="&#xf68d;" horiz-adv-x="659" 
d="M578 117l-17 -117h-518l133 989h125l-123 -872h400zM453 639q38 0 65 -27t27 -65t-27 -65t-65 -27t-65.5 27t-27.5 65t27.5 65t65.5 27z" />
    <glyph glyph-name="nacute.sc" unicode="&#xf68e;" horiz-adv-x="948" 
d="M922 989l-136 -993h-69l-469 735l-101 -731h-120l135 989h71l467 -737l101 737h121zM846 1405l-283 -322h-90l189 322h184z" />
    <glyph glyph-name="ncaron.sc" unicode="&#xf68f;" horiz-adv-x="948" 
d="M922 989l-136 -993h-69l-469 735l-101 -731h-120l135 989h71l467 -737l101 737h121zM446 1083l-75 322h80l94 -201l254 201h98l-293 -322h-158z" />
    <glyph glyph-name="ncommaaccent.sc" unicode="&#xf690;" horiz-adv-x="948" 
d="M922 989l-136 -993h-69l-469 735l-101 -731h-120l135 989h71l467 -737l101 737h121zM176 -410l31 88q39 -8 86 -8q71 0 117.5 23.5t46.5 70.5q0 27 -15 44t-45 25t-64 10.5t-81 0.5l29 88q27 2 63 2q50 0 92.5 -7t83 -23t63.5 -48.5t23 -78.5q0 -98 -86.5 -148.5
t-216.5 -50.5q-65 0 -127 12z" />
    <glyph glyph-name="obreve.sc" unicode="&#xf691;" horiz-adv-x="909" 
d="M856 590q0 -166 -60 -304t-165.5 -218t-233.5 -80q-160 0 -253 113.5t-93 301.5q0 75 16.5 155t53.5 160t89.5 142.5t131.5 101.5t172 39q157 0 249.5 -112.5t92.5 -298.5zM729 610q0 128 -58.5 199.5t-156.5 71.5q-69 0 -126.5 -32.5t-95 -84.5t-63.5 -119t-37.5 -133
t-11.5 -129q0 -131 58.5 -201.5t160.5 -70.5q93 0 169 66.5t118.5 180.5t42.5 252zM305 1346h88q3 -72 42.5 -112t96.5 -40q52 0 105 40t92 112h86q-22 -74 -58 -128t-77 -82t-78.5 -40.5t-73.5 -12.5q-100 0 -163 75.5t-60 187.5z" />
    <glyph glyph-name="ohungarumlaut.sc" unicode="&#xf692;" horiz-adv-x="909" 
d="M856 590q0 -166 -60 -304t-165.5 -218t-233.5 -80q-160 0 -253 113.5t-93 301.5q0 75 16.5 155t53.5 160t89.5 142.5t131.5 101.5t172 39q157 0 249.5 -112.5t92.5 -298.5zM729 610q0 128 -58.5 199.5t-156.5 71.5q-69 0 -126.5 -32.5t-95 -84.5t-63.5 -119t-37.5 -133
t-11.5 -129q0 -131 58.5 -201.5t160.5 -70.5q93 0 169 66.5t118.5 180.5t42.5 252zM653 1405l-282 -322h-90l188 322h184zM950 1405l-282 -322h-90l188 322h184z" />
    <glyph glyph-name="omacron.sc" unicode="&#xf693;" horiz-adv-x="909" 
d="M856 590q0 -166 -60 -304t-165.5 -218t-233.5 -80q-160 0 -253 113.5t-93 301.5q0 75 16.5 155t53.5 160t89.5 142.5t131.5 101.5t172 39q157 0 249.5 -112.5t92.5 -298.5zM729 610q0 128 -58.5 199.5t-156.5 71.5q-69 0 -126.5 -32.5t-95 -84.5t-63.5 -119t-37.5 -133
t-11.5 -129q0 -131 58.5 -201.5t160.5 -70.5q93 0 169 66.5t118.5 180.5t42.5 252zM864 1309l-18 -129h-604l20 129h602z" />
    <glyph glyph-name="oslashacute.sc" unicode="&#xf694;" horiz-adv-x="909" 
d="M856 590q0 -166 -60 -304t-165.5 -218t-233.5 -80q-130 0 -215 73l-90 -120l-61 53l96 131q-76 112 -76 278q0 75 16.5 155t53.5 160t89.5 142.5t131.5 101.5t172 39q122 0 209 -71l82 110l63 -53l-90 -121q78 -111 78 -276zM729 610q0 84 -29 150l-444 -598
q54 -51 143 -51q93 0 169 66.5t118.5 180.5t42.5 252zM180 383q0 -90 27 -152l442 600q-53 50 -135 50q-69 0 -126.5 -32.5t-95 -84.5t-63.5 -119t-37.5 -133t-11.5 -129zM811 1405l-283 -322h-90l189 322h184z" />
    <glyph glyph-name="racute.sc" unicode="&#xf695;" horiz-adv-x="790" 
d="M739 0h-135l-135 266q-25 52 -38.5 76t-33.5 50t-41.5 35t-50.5 9h-76l-57 -436h-127l133 989h170q112 0 168 -20q72 -25 118 -89.5t46 -160.5q0 -91 -50.5 -158.5t-137.5 -95.5q46 -49 81 -121zM549 721q0 64 -39 107.5t-123 43.5h-98l-41 -319h74q227 0 227 168z
M698 1405l-282 -322h-90l188 322h184z" />
    <glyph glyph-name="rcaron.sc" unicode="&#xf696;" horiz-adv-x="790" 
d="M739 0h-135l-135 266q-25 52 -38.5 76t-33.5 50t-41.5 35t-50.5 9h-76l-57 -436h-127l133 989h170q112 0 168 -20q72 -25 118 -89.5t46 -160.5q0 -91 -50.5 -158.5t-137.5 -95.5q46 -49 81 -121zM549 721q0 64 -39 107.5t-123 43.5h-98l-41 -319h74q227 0 227 168z
M315 1083l-75 322h79l95 -201l254 201h98l-293 -322h-158z" />
    <glyph glyph-name="rcommaaccent.sc" unicode="&#xf697;" horiz-adv-x="790" 
d="M739 0h-135l-135 266q-25 52 -38.5 76t-33.5 50t-41.5 35t-50.5 9h-76l-57 -436h-127l133 989h170q112 0 168 -20q72 -25 118 -89.5t46 -160.5q0 -91 -50.5 -158.5t-137.5 -95.5q46 -49 81 -121zM549 721q0 64 -39 107.5t-123 43.5h-98l-41 -319h74q227 0 227 168z
M102 -410l31 88q39 -8 86 -8q71 0 117.5 23.5t46.5 70.5q0 27 -15 44t-45 25t-64 10.5t-81 0.5l29 88q27 2 63 2q50 0 92.5 -7t83 -23t63.5 -48.5t23 -78.5q0 -98 -86.5 -148.5t-216.5 -50.5q-65 0 -127 12z" />
    <glyph glyph-name="sacute.sc" unicode="&#xf698;" horiz-adv-x="643" 
d="M582 948l-23 -127q-61 35 -97 47.5t-73 12.5q-66 0 -109.5 -43.5t-43.5 -106.5q0 -40 23 -77t57.5 -64t75 -61.5t75 -69t57.5 -87t23 -114.5q0 -110 -77.5 -190t-203.5 -80q-50 0 -111.5 19t-113.5 54l22 136q74 -51 120 -69.5t87 -18.5q59 0 105.5 37.5t46.5 105.5
q0 45 -23 85t-57.5 68.5t-75 63t-75 67t-57.5 83t-23 108.5q0 119 83.5 196.5t200.5 77.5q102 0 187 -53zM688 1405l-282 -322h-91l189 322h184z" />
    <glyph glyph-name="scedilla.sc" unicode="&#xf699;" horiz-adv-x="643" 
d="M39 -342l22 80q28 -8 72 -8q54 0 84.5 27.5t30.5 64.5q0 21 -13 36t-25.5 20t-31.5 11l45 103q-102 14 -182 69l22 136q74 -51 120 -69.5t87 -18.5q59 0 105.5 37.5t46.5 105.5q0 45 -23 85t-57.5 68.5t-75 63t-75 67t-57.5 83t-23 108.5q0 119 83.5 196.5t200.5 77.5
q102 0 187 -53l-23 -127q-61 35 -97 47.5t-73 12.5q-66 0 -109.5 -43.5t-43.5 -106.5q0 -40 23 -77t57.5 -64t75 -61.5t75 -69t57.5 -87t23 -114.5q0 -105 -70 -183t-186 -85l-17 -41q84 -34 84 -123q0 -88 -63.5 -133t-165.5 -45q-45 0 -90 10z" />
    <glyph glyph-name="scircumflex.sc" unicode="&#xf69a;" horiz-adv-x="643" 
d="M582 948l-23 -127q-61 35 -97 47.5t-73 12.5q-66 0 -109.5 -43.5t-43.5 -106.5q0 -40 23 -77t57.5 -64t75 -61.5t75 -69t57.5 -87t23 -114.5q0 -110 -77.5 -190t-203.5 -80q-50 0 -111.5 19t-113.5 54l22 136q74 -51 120 -69.5t87 -18.5q59 0 105.5 37.5t46.5 105.5
q0 45 -23 85t-57.5 68.5t-75 63t-75 67t-57.5 83t-23 108.5q0 119 83.5 196.5t200.5 77.5q102 0 187 -53zM588 1405l76 -322h-80l-95 201l-253 -201h-99l293 322h158z" />
    <glyph glyph-name="scommaaccent.sc" unicode="&#xf69b;" horiz-adv-x="643" 
d="M582 948l-23 -127q-61 35 -97 47.5t-73 12.5q-66 0 -109.5 -43.5t-43.5 -106.5q0 -40 23 -77t57.5 -64t75 -61.5t75 -69t57.5 -87t23 -114.5q0 -110 -77.5 -190t-203.5 -80q-50 0 -111.5 19t-113.5 54l22 136q74 -51 120 -69.5t87 -18.5q59 0 105.5 37.5t46.5 105.5
q0 45 -23 85t-57.5 68.5t-75 63t-75 67t-57.5 83t-23 108.5q0 119 83.5 196.5t200.5 77.5q102 0 187 -53zM27 -410l30 88q39 -8 86 -8q71 0 117.5 23.5t46.5 70.5q0 27 -15 44t-45 25t-64 10.5t-81 0.5l29 88q27 2 64 2q50 0 92.5 -7t83 -23t63.5 -48.5t23 -78.5
q0 -98 -86.5 -148.5t-216.5 -50.5q-66 0 -127 12z" />
    <glyph glyph-name="tbar.sc" unicode="&#xf69c;" horiz-adv-x="727" 
d="M766 989l-14 -121h-269l-37 -264h220l-19 -110h-217l-68 -494h-124l67 494h-221l18 110h217l37 264h-268l16 121h662z" />
    <glyph glyph-name="tcaron.sc" unicode="&#xf69d;" horiz-adv-x="727" 
d="M766 989l-14 -121h-269l-121 -868h-124l118 868h-268l16 121h662zM342 1083l-76 322h80l94 -201l254 201h99l-293 -322h-158z" />
    <glyph glyph-name="tcommaaccent.sc" unicode="&#xf69e;" horiz-adv-x="727" 
d="M766 989l-14 -121h-269l-121 -868h-124l118 868h-268l16 121h662zM68 -410l30 88q39 -8 86 -8q71 0 117.5 23.5t46.5 70.5q0 27 -15 44t-45 25t-64 10.5t-81 0.5l29 88q27 2 64 2q50 0 92.5 -7t83 -23t63.5 -48.5t23 -78.5q0 -98 -86.5 -148.5t-216.5 -50.5
q-65 0 -127 12z" />
    <glyph glyph-name="ubreve.sc" unicode="&#xf69f;" horiz-adv-x="903" 
d="M881 989l-86 -624q-18 -127 -77 -214t-140 -125t-181 -38q-158 0 -252 103.5t-71 268.5l86 629h125l-88 -635q-16 -122 45.5 -186t163.5 -64q226 0 266 289l82 596h127zM301 1346h88q3 -72 42.5 -112t96.5 -40q52 0 105 40t92 112h86q-22 -74 -58 -128t-77 -82
t-78.5 -40.5t-73.5 -12.5q-100 0 -163 75.5t-60 187.5z" />
    <glyph glyph-name="uhungarumlaut.sc" unicode="&#xf6a0;" horiz-adv-x="903" 
d="M881 989l-86 -624q-18 -127 -77 -214t-140 -125t-181 -38q-158 0 -252 103.5t-71 268.5l86 629h125l-88 -635q-16 -122 45.5 -186t163.5 -64q226 0 266 289l82 596h127zM659 1405l-282 -322h-90l188 322h184zM956 1405l-282 -322h-90l188 322h184z" />
    <glyph glyph-name="umacron.sc" unicode="&#xf6a1;" horiz-adv-x="903" 
d="M881 989l-86 -624q-18 -127 -77 -214t-140 -125t-181 -38q-158 0 -252 103.5t-71 268.5l86 629h125l-88 -635q-16 -122 45.5 -186t163.5 -64q226 0 266 289l82 596h127zM868 1309l-18 -129h-604l20 129h602z" />
    <glyph glyph-name="uogonek.sc" unicode="&#xf6a2;" horiz-adv-x="903" 
d="M569 -236l-14 -112q-63 -14 -111 -14q-100 0 -157.5 53.5t-57.5 120.5q0 89 70 188q-118 30 -181.5 126.5t-43.5 233.5l86 629h125l-88 -635q-16 -122 45.5 -186t163.5 -64q226 0 266 289l82 596h127l-86 -624q-25 -181 -126.5 -275t-246.5 -100q-53 -91 -53 -135
q0 -50 38 -76.5t80 -26.5q32 0 82 12z" />
    <glyph glyph-name="uring.sc" unicode="&#xf6a3;" horiz-adv-x="903" 
d="M881 989l-86 -624q-18 -127 -77 -214t-140 -125t-181 -38q-158 0 -252 103.5t-71 268.5l86 629h125l-88 -635q-16 -122 45.5 -186t163.5 -64q226 0 266 289l82 596h127zM553 1075q-79 0 -135 55.5t-56 135.5t56 136t135 56t135.5 -56t56.5 -136q0 -79 -56 -135t-136 -56z
M553 1163q43 0 73.5 30t30.5 73t-30.5 73.5t-73.5 30.5t-72.5 -30.5t-29.5 -73.5t29.5 -73t72.5 -30z" />
    <glyph glyph-name="utilde.sc" unicode="&#xf6a4;" horiz-adv-x="903" 
d="M881 989l-86 -624q-18 -127 -77 -214t-140 -125t-181 -38q-158 0 -252 103.5t-71 268.5l86 629h125l-88 -635q-16 -122 45.5 -186t163.5 -64q226 0 266 289l82 596h127zM322 1135h-74q11 87 33 131q41 84 133 84q64 0 182 -50q90 -38 135 -38q23 0 39 8.5t24 26t11 27.5
t6 30h74q0 -106 -51 -162.5t-117 -56.5q-58 0 -148 36q-3 1 -30 11.5t-39 15t-34 12t-37.5 10.5t-27.5 3q-65 0 -79 -88z" />
    <glyph glyph-name="wacute.sc" unicode="&#xf6a5;" horiz-adv-x="1372" 
d="M1399 989l-469 -999h-58l-155 708l-324 -708h-61l-219 999h123l151 -717l326 717h59l158 -721l334 721h135zM1028 1405l-283 -322h-90l189 322h184z" />
    <glyph glyph-name="wcircumflex.sc" unicode="&#xf6a6;" horiz-adv-x="1372" 
d="M1399 989l-469 -999h-58l-155 708l-324 -708h-61l-219 999h123l151 -717l326 717h59l158 -721l334 721h135zM926 1405l75 -322h-79l-95 201l-254 -201h-98l293 322h158z" />
    <glyph glyph-name="wdieresis.sc" unicode="&#xf6a7;" horiz-adv-x="1372" 
d="M1399 989l-469 -999h-58l-155 708l-324 -708h-61l-219 999h123l151 -717l326 717h59l158 -721l334 721h135zM590 1335q38 0 65 -27t27 -65t-27 -65t-65 -27t-65 27t-27 65t27 65t65 27zM936 1335q38 0 65 -27t27 -65t-27 -65t-65 -27t-65 27t-27 65t27 65t65 27z" />
    <glyph glyph-name="wgrave.sc" unicode="&#xf6a8;" horiz-adv-x="1372" 
d="M1399 989l-469 -999h-58l-155 708l-324 -708h-61l-219 999h123l151 -717l326 717h59l158 -721l334 721h135zM520 1405h187l186 -322h-90z" />
    <glyph glyph-name="ycircumflex.sc" unicode="&#xf6a9;" horiz-adv-x="770" 
d="M805 989l-352 -493l-68 -496h-123l68 500l-234 489h133l172 -360l256 360h148zM635 1405l76 -322h-80l-94 201l-254 -201h-99l293 322h158z" />
    <glyph glyph-name="ygrave.sc" unicode="&#xf6aa;" horiz-adv-x="770" 
d="M805 989l-352 -493l-68 -496h-123l68 500l-234 489h133l172 -360l256 360h148zM219 1405h187l186 -322h-90z" />
    <glyph glyph-name="zacute.sc" unicode="&#xf6ab;" horiz-adv-x="946" 
d="M952 973v-4l-721 -848h590l-14 -121h-817v16l719 852h-564l15 121h792v-16zM844 1405l-283 -322h-90l188 322h185z" />
    <glyph glyph-name="zdotaccent.sc" unicode="&#xf6ac;" horiz-adv-x="946" 
d="M952 973v-4l-721 -848h590l-14 -121h-817v16l719 852h-564l15 121h792v-16zM612 1335q38 0 65.5 -27t27.5 -65t-27.5 -65t-65.5 -27t-65 27t-27 65t27 65t65 27z" />
    <glyph glyph-name="idotaccent.sc" unicode="&#xf6ad;" horiz-adv-x="311" 
d="M285 989l-133 -989h-125l133 989h125zM260 1335q38 0 65 -27t27 -65t-27 -65t-65 -27t-65 27t-27 65t27 65t65 27z" />
    <glyph glyph-name="one.fitted" unicode="&#xf6d6;" horiz-adv-x="501" 
d="M457 1405l-217 -1405h-138l217 1405h138z" />
    <glyph glyph-name="one.fitted" unicode="&#xf6dc;" horiz-adv-x="501" 
d="M457 1405l-217 -1405h-138l217 1405h138z" />
    <glyph glyph-name="lslash.sc" unicode="&#xf6f9;" horiz-adv-x="659" 
d="M-18 330l14 108l117 80l63 471h125l-53 -379l254 172l-15 -110l-256 -174l-53 -381h400l-17 -117h-518l55 408z" />
    <glyph glyph-name="oe.sc" unicode="&#xf6fa;" horiz-adv-x="1402" 
d="M1315 117l-17 -117h-645q-15 0 -67 -2t-80 -2q-101 0 -181.5 27t-130.5 70.5t-83 102.5t-46.5 118t-13.5 122q0 104 44 214t110 181q88 92 203 125t331 33h559l-16 -117h-395l-41 -311h371l-17 -119h-371l-45 -325h531zM764 872h-92q-157 0 -246 -38q-86 -35 -142 -101.5
t-78 -141t-22 -161.5q0 -150 79 -231.5t222 -81.5h177q47 361 102 755z" />
    <glyph glyph-name="scaron.sc" unicode="&#xf6fd;" horiz-adv-x="643" 
d="M582 948l-23 -127q-61 35 -97 47.5t-73 12.5q-66 0 -109.5 -43.5t-43.5 -106.5q0 -40 23 -77t57.5 -64t75 -61.5t75 -69t57.5 -87t23 -114.5q0 -110 -77.5 -190t-203.5 -80q-50 0 -111.5 19t-113.5 54l22 136q74 -51 120 -69.5t87 -18.5q59 0 105.5 37.5t46.5 105.5
q0 45 -23 85t-57.5 68.5t-75 63t-75 67t-57.5 83t-23 108.5q0 119 83.5 196.5t200.5 77.5q102 0 187 -53zM287 1083l-76 322h80l94 -201l254 201h98l-293 -322h-157z" />
    <glyph glyph-name="zcaron.sc" unicode="&#xf6ff;" horiz-adv-x="946" 
d="M952 973v-4l-721 -848h590l-14 -121h-817v16l719 852h-564l15 121h792v-16zM467 1083l-76 322h80l94 -201l254 201h99l-293 -322h-158z" />
    <glyph glyph-name="ampersand.sc" unicode="&#xf726;" horiz-adv-x="925" 
d="M887 111q-10 -20 -29 -59t-29 -58q-31 -8 -67 -4q-97 10 -187 96q-66 -51 -129 -74.5t-139 -23.5q-129 0 -206.5 79.5t-77.5 196.5q0 88 57.5 164t161.5 129q-54 118 -54 203q0 103 65 172t163 69q83 0 140.5 -60.5t57.5 -147.5q0 -161 -213 -283q69 -122 177 -260
q91 94 159 254h129q-74 -192 -202 -338q72 -62 147 -66q30 -3 76 11zM492 793q0 40 -24 66t-62 26q-43 0 -71 -34.5t-28 -86.5q0 -71 39 -150q146 80 146 179zM494 168q-102 124 -195 285q-147 -85 -147 -191q0 -69 47.5 -114.5t122.5 -45.5q83 0 172 66z" />
    <glyph glyph-name="zero.oldstyle" unicode="&#xf730;" horiz-adv-x="1021" 
d="M49 373q0 66 15.5 138t54 150.5t94.5 139.5t146.5 101t201.5 40q81 0 150 -24t122.5 -71.5t84 -125.5t30.5 -180q0 -75 -17 -150t-56 -149.5t-96 -131.5t-144 -92.5t-193 -35.5q-176 0 -284.5 103t-108.5 288zM203 385q0 -126 65 -203.5t185 -77.5q74 0 134 29t98 75
t63.5 105t36 116t10.5 112q0 38 -6 73.5t-23 74t-43.5 66.5t-71 46t-102.5 18q-83 0 -151 -39t-109.5 -102.5t-63.5 -139t-22 -153.5z" />
    <glyph glyph-name="one.oldstyle" unicode="&#xf731;" horiz-adv-x="669" 
d="M367 0h-138l109 725l-279 -184l29 164l358 237h62z" />
    <glyph glyph-name="two.oldstyle" unicode="&#xf732;" horiz-adv-x="905" 
d="M768 123l-16 -123h-713q62 56 146 130t130 115t103.5 94.5t87 88.5t58.5 77t40.5 79.5t11.5 77.5q0 21 -9 45.5t-28.5 51t-58 43.5t-90.5 17q-155 0 -305 -135l18 143q41 27 65 41t68 34.5t91.5 30t101.5 9.5q136 0 215.5 -71t79.5 -181q0 -126 -93 -253t-313 -314h410z
" />
    <glyph glyph-name="three.oldstyle" unicode="&#xf733;" horiz-adv-x="856" 
d="M156 188l444 609h-508l19 123h735l-469 -631q85 -13 149.5 -49.5t100 -87.5t52.5 -105t17 -110q0 -169 -125.5 -288.5t-312.5 -119.5q-178 0 -360 92l26 129q59 -34 149 -66t173 -32q131 0 217 78t86 200q0 129 -104 208.5t-289 49.5z" />
    <glyph glyph-name="four.oldstyle" unicode="&#xf734;" horiz-adv-x="978" 
d="M811 942l-127 -831h227l-16 -111h-229l-76 -471h-129l74 471h-582v47l809 895h49zM553 111l88 532l-471 -532h383z" />
    <glyph glyph-name="five.oldstyle" unicode="&#xf735;" horiz-adv-x="913" 
d="M856 920l-20 -123h-385l-144 -475q116 18 221.5 -22t171.5 -130t66 -207q0 -87 -35.5 -166t-97.5 -138.5t-153 -94.5t-197 -35q-191 0 -351 104l45 117q46 -27 76.5 -43t98.5 -35.5t137 -19.5q137 0 233 82.5t96 210.5q0 63 -25.5 115t-83 93t-150 50.5t-226.5 -13.5
l227 730h496z" />
    <glyph glyph-name="six.oldstyle" unicode="&#xf736;" horiz-adv-x="958" 
d="M596 1397l113 -60l-390 -565q35 25 58.5 39t74.5 29.5t109 15.5q140 0 232 -89t92 -243q0 -133 -59.5 -256.5t-170.5 -204.5t-245 -81q-166 0 -263.5 115t-97.5 284q0 136 71.5 284t231.5 379zM743 510q0 95 -53.5 159t-152.5 64q-81 0 -159 -42.5t-133 -128t-55 -193.5
q0 -117 63.5 -184.5t158.5 -67.5q133 0 232 116.5t99 276.5z" />
    <glyph glyph-name="seven.oldstyle" unicode="&#xf737;" horiz-adv-x="888" 
d="M895 920l-684 -1391l-131 55l618 1213h-604l17 123h784z" />
    <glyph glyph-name="eight.oldstyle" unicode="&#xf738;" horiz-adv-x="1028" 
d="M700 741q58 -19 101.5 -51t65.5 -64.5t35.5 -71.5t16.5 -64t3 -50q0 -90 -35.5 -173.5t-97 -146.5t-150 -100.5t-188.5 -37.5q-122 0 -213.5 55t-136 139.5t-44.5 183.5q0 151 91.5 250t242.5 131q-38 20 -66 39.5t-58.5 52t-47 79.5t-16.5 106q0 165 118.5 281
t296.5 116q164 0 260.5 -101.5t96.5 -236.5q0 -15 -1.5 -30.5t-8.5 -51t-25 -68t-46.5 -69t-78.5 -67.5t-115 -50zM571 799q68 0 121.5 27.5t83 70t44 86.5t14.5 84q0 94 -60.5 159.5t-161.5 65.5q-84 0 -146.5 -42.5t-92 -104t-29.5 -129.5q0 -56 21 -99.5t55 -68t72.5 -37
t78.5 -12.5zM457 104q134 0 228.5 96t94.5 226q0 111 -69.5 180.5t-190.5 69.5q-134 0 -227.5 -93t-93.5 -223q0 -122 78 -189t180 -67z" />
    <glyph glyph-name="nine.oldstyle" unicode="&#xf739;" horiz-adv-x="960" 
d="M332 -471l-111 76l397 553q-32 -25 -54.5 -39.5t-75 -31.5t-109.5 -17q-77 0 -138 24.5t-96 61t-57.5 83.5t-30.5 86.5t-8 75.5q0 96 36 192.5t98 174t154 126t195 48.5q161 0 258 -108.5t97 -286.5q0 -144 -72.5 -293t-196.5 -322zM745 555q0 69 -20 121t-53.5 80
t-71 41.5t-78.5 13.5q-96 0 -174.5 -64t-118 -154.5t-39.5 -182.5q0 -91 50.5 -154t152.5 -63q146 0 249 107t103 255z" />
    <glyph glyph-name="a.sc" unicode="&#xf761;" horiz-adv-x="839" 
d="M735 0h-121l-67 324h-295l-141 -324h-127l438 997h108zM526 434l-73 357l-154 -357h227z" />
    <glyph glyph-name="b.sc" unicode="&#xf762;" horiz-adv-x="743" 
d="M674 289q0 -131 -100 -210t-257 -79h-290l133 989h127q157 0 237 -73.5t80 -182.5q0 -118 -106 -188q176 -73 176 -256zM475 735q0 73 -50.5 106t-158.5 33l-37 -282h64q88 0 135 38.5t47 104.5zM547 289q0 81 -62 134.5t-155 53.5h-115l-51 -362h143q122 0 181 49
t59 125z" />
    <glyph glyph-name="c.sc" unicode="&#xf763;" horiz-adv-x="817" 
d="M805 993l-21 -121q-86 7 -102 7q-121 0 -219.5 -43.5t-158 -113.5t-91 -151.5t-31.5 -164.5q0 -131 72.5 -214t183.5 -83q143 0 305 122l-22 -157q-143 -86 -291 -86q-75 0 -144 29t-121 81t-83 131t-31 172q0 120 45.5 229.5t126.5 191.5t201 130.5t260 48.5
q56 0 121 -8z" />
    <glyph glyph-name="d.sc" unicode="&#xf764;" horiz-adv-x="890" 
d="M840 489q0 -138 -56.5 -247.5t-170.5 -175.5t-269 -66h-317l135 989h151q106 0 200 -32t167.5 -93t116.5 -157.5t43 -217.5zM709 492q0 92 -34.5 166.5t-91 119.5t-124.5 68.5t-140 23.5h-47l-104 -753h139q111 0 191 29t125 82t65.5 118t20.5 146z" />
    <glyph glyph-name="e.sc" unicode="&#xf765;" horiz-adv-x="774" 
d="M684 117l-14 -117h-643l137 989h512l-17 -117h-389l-43 -309h359l-17 -119h-358l-45 -327h518z" />
    <glyph glyph-name="f.sc" unicode="&#xf766;" horiz-adv-x="612" 
d="M625 989l-15 -117h-342l-43 -311h318l-17 -119h-317l-62 -442h-124l139 989h463z" />
    <glyph glyph-name="g.sc" unicode="&#xf767;" horiz-adv-x="915" 
d="M899 979l-14 -117q-123 21 -183 21q-100 0 -185.5 -27t-144.5 -72.5t-101 -105t-61.5 -125t-19.5 -133.5q0 -139 79 -226.5t204 -87.5q87 0 191 52l20 164h-170l14 112h297l-49 -350q-156 -96 -311 -96q-176 0 -291 122.5t-115 309.5q0 80 23.5 160t76 156.5t127 135
t185.5 94t244 35.5q66 0 184 -22z" />
    <glyph glyph-name="h.sc" unicode="&#xf768;" horiz-adv-x="968" 
d="M942 989l-135 -989h-127l59 440h-526l-59 -440h-127l133 989h127l-58 -428h527l59 428h127z" />
    <glyph glyph-name="i.sc" unicode="&#xf769;" horiz-adv-x="311" 
d="M285 989l-133 -989h-125l133 989h125z" />
    <glyph glyph-name="j.sc" unicode="&#xf76a;" horiz-adv-x="342" 
d="M315 989l-143 -1059q-18 -129 -82 -192.5t-164 -63.5q-36 0 -96 13l-29 129q80 -21 111 -21q64 0 97 38.5t46 135.5l138 1020h122z" />
    <glyph glyph-name="k.sc" unicode="&#xf76b;" horiz-adv-x="833" 
d="M817 989l-489 -459l467 -530h-156l-420 489l-67 -489h-125l135 989h125l-56 -395l424 395h162z" />
    <glyph glyph-name="l.sc" unicode="&#xf76c;" horiz-adv-x="659" 
d="M578 117l-17 -117h-518l133 989h125l-123 -872h400z" />
    <glyph glyph-name="m.sc" unicode="&#xf76d;" horiz-adv-x="1142" 
d="M1034 0h-125v723l-379 -723h-16l-166 733l-233 -733h-127l317 989h105l151 -684l359 684h114v-989z" />
    <glyph glyph-name="n.sc" unicode="&#xf76e;" horiz-adv-x="948" 
d="M922 989l-136 -993h-69l-469 735l-101 -731h-120l135 989h71l467 -737l101 737h121z" />
    <glyph glyph-name="o.sc" unicode="&#xf76f;" horiz-adv-x="909" 
d="M856 590q0 -166 -60 -304t-165.5 -218t-233.5 -80q-160 0 -253 113.5t-93 301.5q0 75 16.5 155t53.5 160t89.5 142.5t131.5 101.5t172 39q157 0 249.5 -112.5t92.5 -298.5zM729 610q0 128 -58.5 199.5t-156.5 71.5q-69 0 -126.5 -32.5t-95 -84.5t-63.5 -119t-37.5 -133
t-11.5 -129q0 -131 58.5 -201.5t160.5 -70.5q93 0 169 66.5t118.5 180.5t42.5 252z" />
    <glyph glyph-name="p.sc" unicode="&#xf770;" horiz-adv-x="690" 
d="M659 711q0 -40 -10 -79t-33.5 -78t-58.5 -69t-90.5 -48.5t-124.5 -18.5h-117l-57 -418h-125l133 989h186q128 0 212.5 -70.5t84.5 -207.5zM530 711q0 70 -43.5 115.5t-124.5 45.5h-75l-45 -337h94q54 0 94 16t60.5 42.5t30 55.5t9.5 62z" />
    <glyph glyph-name="q.sc" unicode="&#xf771;" horiz-adv-x="909" 
d="M881 18q2 -78 -21.5 -143t-79.5 -108t-137 -43q-102 0 -189.5 71t-127.5 199q-93 17 -156.5 80.5t-91 148.5t-27.5 187q0 77 18 158t56.5 159t92 138.5t131 98t167.5 37.5q160 0 251 -110.5t91 -302.5q0 -106 -26 -204.5t-74.5 -180t-124.5 -137.5t-168 -72
q30 -71 83 -108.5t116 -37.5q61 0 109 43.5t61 126.5h47zM729 604q0 133 -56.5 205t-156.5 72q-79 0 -145 -45.5t-106.5 -118t-62.5 -159.5t-22 -175q0 -133 60 -202.5t168 -69.5q92 0 166.5 69.5t114.5 182t40 241.5z" />
    <glyph glyph-name="r.sc" unicode="&#xf772;" horiz-adv-x="790" 
d="M739 0h-135l-135 266q-25 52 -38.5 76t-33.5 50t-41.5 35t-50.5 9h-76l-57 -436h-127l133 989h170q112 0 168 -20q72 -25 118 -89.5t46 -160.5q0 -91 -50.5 -158.5t-137.5 -95.5q46 -49 81 -121zM549 721q0 64 -39 107.5t-123 43.5h-98l-41 -319h74q227 0 227 168z" />
    <glyph glyph-name="s.sc" unicode="&#xf773;" horiz-adv-x="643" 
d="M582 948l-23 -127q-61 35 -97 47.5t-73 12.5q-66 0 -109.5 -43.5t-43.5 -106.5q0 -40 23 -77t57.5 -64t75 -61.5t75 -69t57.5 -87t23 -114.5q0 -110 -77.5 -190t-203.5 -80q-50 0 -111.5 19t-113.5 54l22 136q74 -51 120 -69.5t87 -18.5q59 0 105.5 37.5t46.5 105.5
q0 45 -23 85t-57.5 68.5t-75 63t-75 67t-57.5 83t-23 108.5q0 119 83.5 196.5t200.5 77.5q102 0 187 -53z" />
    <glyph glyph-name="t.sc" unicode="&#xf774;" horiz-adv-x="727" 
d="M766 989l-14 -121h-269l-121 -868h-124l118 868h-268l16 121h662z" />
    <glyph glyph-name="u.sc" unicode="&#xf775;" horiz-adv-x="903" 
d="M881 989l-86 -624q-18 -127 -77 -214t-140 -125t-181 -38q-158 0 -252 103.5t-71 268.5l86 629h125l-88 -635q-16 -122 45.5 -186t163.5 -64q226 0 266 289l82 596h127z" />
    <glyph glyph-name="v.sc" unicode="&#xf776;" horiz-adv-x="792" 
d="M819 989l-452 -999h-60l-194 999h123l133 -706l319 706h131z" />
    <glyph glyph-name="w.sc" unicode="&#xf777;" horiz-adv-x="1372" 
d="M1399 989l-469 -999h-58l-155 708l-324 -708h-61l-219 999h123l151 -717l326 717h59l158 -721l334 721h135z" />
    <glyph glyph-name="x.sc" unicode="&#xf778;" horiz-adv-x="1044" 
d="M1038 989l-428 -479l324 -510h-148l-262 410l-366 -410h-168l465 520l-297 469h145l240 -371l329 371h166z" />
    <glyph glyph-name="y.sc" unicode="&#xf779;" horiz-adv-x="770" 
d="M805 989l-352 -493l-68 -496h-123l68 500l-234 489h133l172 -360l256 360h148z" />
    <glyph glyph-name="z.sc" unicode="&#xf77a;" horiz-adv-x="946" 
d="M952 973v-4l-721 -848h590l-14 -121h-817v16l719 852h-564l15 121h792v-16z" />
    <glyph glyph-name="agrave.sc" unicode="&#xf7e0;" horiz-adv-x="839" 
d="M735 0h-121l-67 324h-295l-141 -324h-127l438 997h108zM526 434l-73 357l-154 -357h227zM215 1405h186l187 -322h-90z" />
    <glyph glyph-name="aacute.sc" unicode="&#xf7e1;" horiz-adv-x="839" 
d="M735 0h-121l-67 324h-295l-141 -324h-127l438 997h108zM526 434l-73 357l-154 -357h227zM754 1405l-283 -322h-90l188 322h185z" />
    <glyph glyph-name="acircumflex.sc" unicode="&#xf7e2;" horiz-adv-x="839" 
d="M735 0h-121l-67 324h-295l-141 -324h-127l438 997h108zM526 434l-73 357l-154 -357h227zM625 1405l75 -322h-79l-95 201l-254 -201h-98l293 322h158z" />
    <glyph glyph-name="atilde.sc" unicode="&#xf7e3;" horiz-adv-x="839" 
d="M735 0h-121l-67 324h-295l-141 -324h-127l438 997h108zM526 434l-73 357l-154 -357h227zM244 1135h-74q11 87 33 131q41 84 133 84q64 0 182 -50q90 -38 135 -38q23 0 39 8.5t24 26t11 27.5t6 30h74q0 -106 -51 -162.5t-117 -56.5q-57 0 -147 36q-3 1 -30 11.5t-39 15
t-34 12t-37.5 10.5t-27.5 3q-66 0 -80 -88z" />
    <glyph glyph-name="adieresis.sc" unicode="&#xf7e4;" horiz-adv-x="839" 
d="M735 0h-121l-67 324h-295l-141 -324h-127l438 997h108zM526 434l-73 357l-154 -357h227zM328 1335q38 0 65 -27t27 -65t-27 -65t-65 -27t-65 27t-27 65t27 65t65 27zM674 1335q38 0 65 -27t27 -65t-27 -65t-65 -27t-65 27t-27 65t27 65t65 27z" />
    <glyph glyph-name="aring.sc" unicode="&#xf7e5;" horiz-adv-x="839" 
d="M735 0h-121l-67 324h-295l-141 -324h-127l438 997h108zM526 434l-73 357l-154 -357h227zM489 1075q-79 0 -134.5 55.5t-55.5 135.5t55.5 136t134.5 56q80 0 136.5 -56.5t56.5 -135.5t-56.5 -135t-136.5 -56zM489 1163q43 0 74 30t31 73t-31 73.5t-74 30.5t-72.5 -30.5
t-29.5 -73.5t29.5 -73t72.5 -30z" />
    <glyph glyph-name="ae.sc" unicode="&#xf7e6;" horiz-adv-x="1245" 
d="M1157 117l-14 -117h-639l61 444h-196l-256 -444h-138l578 989h588l-17 -117h-376l-43 -309h354l-17 -119h-354l-45 -327h514zM623 877h-7l-182 -322h146z" />
    <glyph glyph-name="ccedilla.sc" unicode="&#xf7e7;" horiz-adv-x="817" 
d="M207 -342l22 80q28 -8 72 -8q54 0 84.5 27.5t30.5 64.5q0 21 -13 36t-25.5 20t-31.5 11l45 101q-144 14 -242 125.5t-98 285.5q0 120 45.5 229.5t126.5 191.5t201 130.5t260 48.5q56 0 121 -8l-21 -121q-86 7 -102 7q-121 0 -219.5 -43.5t-158 -113.5t-91 -151.5
t-31.5 -164.5q0 -131 72.5 -214t183.5 -83q143 0 305 122l-22 -157q-128 -77 -262 -84l-17 -41q84 -34 84 -123q0 -88 -63.5 -133t-165.5 -45q-45 0 -90 10z" />
    <glyph glyph-name="egrave.sc" unicode="&#xf7e8;" horiz-adv-x="774" 
d="M684 117l-14 -117h-643l137 989h512l-17 -117h-389l-43 -309h359l-17 -119h-358l-45 -327h518zM174 1405h186l187 -322h-90z" />
    <glyph glyph-name="eacute.sc" unicode="&#xf7e9;" horiz-adv-x="774" 
d="M684 117l-14 -117h-643l137 989h512l-17 -117h-389l-43 -309h359l-17 -119h-358l-45 -327h518zM709 1405l-283 -322h-90l188 322h185z" />
    <glyph glyph-name="ecircumflex.sc" unicode="&#xf7ea;" horiz-adv-x="774" 
d="M684 117l-14 -117h-643l137 989h512l-17 -117h-389l-43 -309h359l-17 -119h-358l-45 -327h518zM604 1405l76 -322h-80l-94 201l-254 -201h-98l292 322h158z" />
    <glyph glyph-name="edieresis.sc" unicode="&#xf7eb;" horiz-adv-x="774" 
d="M684 117l-14 -117h-643l137 989h512l-17 -117h-389l-43 -309h359l-17 -119h-358l-45 -327h518zM291 1335q38 0 65 -27t27 -65t-27 -65t-65 -27t-65 27t-27 65t27 65t65 27zM637 1335q38 0 65 -27t27 -65t-27 -65t-65 -27t-65 27t-27 65t27 65t65 27z" />
    <glyph glyph-name="igrave.sc" unicode="&#xf7ec;" horiz-adv-x="311" 
d="M285 989l-133 -989h-125l133 989h125zM-31 1405h187l186 -322h-90z" />
    <glyph glyph-name="iacute.sc" unicode="&#xf7ed;" horiz-adv-x="311" 
d="M285 989l-133 -989h-125l133 989h125zM524 1405l-282 -322h-90l188 322h184z" />
    <glyph glyph-name="icircumflex.sc" unicode="&#xf7ee;" horiz-adv-x="311" 
d="M285 989l-133 -989h-125l133 989h125zM399 1405l76 -322h-80l-94 201l-254 -201h-98l293 322h157z" />
    <glyph glyph-name="idieresis.sc" unicode="&#xf7ef;" horiz-adv-x="311" 
d="M285 989l-133 -989h-125l133 989h125zM76 1335q38 0 65 -27t27 -65t-27 -65t-65 -27t-65 27t-27 65t27 65t65 27zM422 1335q38 0 65 -27t27 -65t-27 -65t-65 -27t-65 27t-27 65t27 65t65 27z" />
    <glyph glyph-name="eth.sc" unicode="&#xf7f0;" horiz-adv-x="890" 
d="M4 438l16 113h80l62 438h151q106 0 200 -32t167.5 -93t116.5 -157.5t43 -217.5q0 -138 -56.5 -247.5t-170.5 -175.5t-269 -66h-317l59 438h-82zM709 492q0 92 -34.5 166.5t-91 119.5t-124.5 68.5t-140 23.5h-47l-45 -319h275l-19 -113h-272l-43 -321h139q111 0 191 29
t125 82t65.5 118t20.5 146z" />
    <glyph glyph-name="ntilde.sc" unicode="&#xf7f1;" horiz-adv-x="948" 
d="M922 989l-136 -993h-69l-469 735l-101 -731h-120l135 989h71l467 -737l101 737h121zM315 1135h-73q11 90 32 131q41 84 134 84q64 0 182 -50q90 -38 135 -38q23 0 39 8.5t24 26t11 27.5t6 30h74q0 -106 -51 -162.5t-117 -56.5q-58 0 -148 36q-3 1 -30 11.5t-39 15t-34 12
t-37.5 10.5t-27.5 3q-66 0 -80 -88z" />
    <glyph glyph-name="ograve.sc" unicode="&#xf7f2;" horiz-adv-x="909" 
d="M856 590q0 -166 -60 -304t-165.5 -218t-233.5 -80q-160 0 -253 113.5t-93 301.5q0 75 16.5 155t53.5 160t89.5 142.5t131.5 101.5t172 39q157 0 249.5 -112.5t92.5 -298.5zM729 610q0 128 -58.5 199.5t-156.5 71.5q-69 0 -126.5 -32.5t-95 -84.5t-63.5 -119t-37.5 -133
t-11.5 -129q0 -131 58.5 -201.5t160.5 -70.5q93 0 169 66.5t118.5 180.5t42.5 252zM256 1405h186l187 -322h-90z" />
    <glyph glyph-name="oacute.sc" unicode="&#xf7f3;" horiz-adv-x="909" 
d="M856 590q0 -166 -60 -304t-165.5 -218t-233.5 -80q-160 0 -253 113.5t-93 301.5q0 75 16.5 155t53.5 160t89.5 142.5t131.5 101.5t172 39q157 0 249.5 -112.5t92.5 -298.5zM729 610q0 128 -58.5 199.5t-156.5 71.5q-69 0 -126.5 -32.5t-95 -84.5t-63.5 -119t-37.5 -133
t-11.5 -129q0 -131 58.5 -201.5t160.5 -70.5q93 0 169 66.5t118.5 180.5t42.5 252zM811 1405l-283 -322h-90l189 322h184z" />
    <glyph glyph-name="ocircumflex.sc" unicode="&#xf7f4;" horiz-adv-x="909" 
d="M856 590q0 -166 -60 -304t-165.5 -218t-233.5 -80q-160 0 -253 113.5t-93 301.5q0 75 16.5 155t53.5 160t89.5 142.5t131.5 101.5t172 39q157 0 249.5 -112.5t92.5 -298.5zM729 610q0 128 -58.5 199.5t-156.5 71.5q-69 0 -126.5 -32.5t-95 -84.5t-63.5 -119t-37.5 -133
t-11.5 -129q0 -131 58.5 -201.5t160.5 -70.5q93 0 169 66.5t118.5 180.5t42.5 252zM694 1405l76 -322h-80l-94 201l-254 -201h-98l293 322h157z" />
    <glyph glyph-name="otilde.sc" unicode="&#xf7f5;" horiz-adv-x="909" 
d="M856 590q0 -166 -60 -304t-165.5 -218t-233.5 -80q-160 0 -253 113.5t-93 301.5q0 75 16.5 155t53.5 160t89.5 142.5t131.5 101.5t172 39q157 0 249.5 -112.5t92.5 -298.5zM729 610q0 128 -58.5 199.5t-156.5 71.5q-69 0 -126.5 -32.5t-95 -84.5t-63.5 -119t-37.5 -133
t-11.5 -129q0 -131 58.5 -201.5t160.5 -70.5q93 0 169 66.5t118.5 180.5t42.5 252zM317 1135h-73q11 90 32 131q41 84 134 84q64 0 182 -50q90 -38 135 -38q23 0 39 8.5t24 26t11 27.5t6 30h74q0 -106 -51 -162.5t-117 -56.5q-58 0 -148 36q-3 1 -30 11.5t-39 15t-34 12
t-37.5 10.5t-27.5 3q-66 0 -80 -88z" />
    <glyph glyph-name="odieresis.sc" unicode="&#xf7f6;" horiz-adv-x="909" 
d="M856 590q0 -166 -60 -304t-165.5 -218t-233.5 -80q-160 0 -253 113.5t-93 301.5q0 75 16.5 155t53.5 160t89.5 142.5t131.5 101.5t172 39q157 0 249.5 -112.5t92.5 -298.5zM729 610q0 128 -58.5 199.5t-156.5 71.5q-69 0 -126.5 -32.5t-95 -84.5t-63.5 -119t-37.5 -133
t-11.5 -129q0 -131 58.5 -201.5t160.5 -70.5q93 0 169 66.5t118.5 180.5t42.5 252zM362 1335q38 0 65.5 -27t27.5 -65t-27.5 -65t-65.5 -27t-65 27t-27 65t27 65t65 27zM709 1335q38 0 65 -27t27 -65t-27 -65t-65 -27t-65.5 27t-27.5 65t27.5 65t65.5 27z" />
    <glyph glyph-name="oslash.sc" unicode="&#xf7f8;" horiz-adv-x="909" 
d="M856 590q0 -166 -60 -304t-165.5 -218t-233.5 -80q-130 0 -215 73l-90 -120l-61 53l96 131q-76 112 -76 278q0 75 16.5 155t53.5 160t89.5 142.5t131.5 101.5t172 39q122 0 209 -71l82 110l63 -53l-90 -121q78 -111 78 -276zM729 610q0 84 -29 150l-444 -598
q54 -51 143 -51q93 0 169 66.5t118.5 180.5t42.5 252zM180 383q0 -90 27 -152l442 600q-53 50 -135 50q-69 0 -126.5 -32.5t-95 -84.5t-63.5 -119t-37.5 -133t-11.5 -129z" />
    <glyph glyph-name="ugrave.sc" unicode="&#xf7f9;" horiz-adv-x="903" 
d="M881 989l-86 -624q-18 -127 -77 -214t-140 -125t-181 -38q-158 0 -252 103.5t-71 268.5l86 629h125l-88 -635q-16 -122 45.5 -186t163.5 -64q226 0 266 289l82 596h127zM236 1405h186l186 -322h-90z" />
    <glyph glyph-name="uacute.sc" unicode="&#xf7fa;" horiz-adv-x="903" 
d="M881 989l-86 -624q-18 -127 -77 -214t-140 -125t-181 -38q-158 0 -252 103.5t-71 268.5l86 629h125l-88 -635q-16 -122 45.5 -186t163.5 -64q226 0 266 289l82 596h127zM823 1405l-282 -322h-90l188 322h184z" />
    <glyph glyph-name="ucircumflex.sc" unicode="&#xf7fb;" horiz-adv-x="903" 
d="M881 989l-86 -624q-18 -127 -77 -214t-140 -125t-181 -38q-158 0 -252 103.5t-71 268.5l86 629h125l-88 -635q-16 -122 45.5 -186t163.5 -64q226 0 266 289l82 596h127zM686 1405l76 -322h-80l-94 201l-254 -201h-98l292 322h158z" />
    <glyph glyph-name="udieresis.sc" unicode="&#xf7fc;" horiz-adv-x="903" 
d="M881 989l-86 -624q-18 -127 -77 -214t-140 -125t-181 -38q-158 0 -252 103.5t-71 268.5l86 629h125l-88 -635q-16 -122 45.5 -186t163.5 -64q226 0 266 289l82 596h127zM352 1335q38 0 65 -27t27 -65t-27 -65t-65 -27t-65 27t-27 65t27 65t65 27zM698 1335q38 0 65.5 -27
t27.5 -65t-27.5 -65t-65.5 -27t-65 27t-27 65t27 65t65 27z" />
    <glyph glyph-name="yacute.sc" unicode="&#xf7fd;" horiz-adv-x="770" 
d="M805 989l-352 -493l-68 -496h-123l68 500l-234 489h133l172 -360l256 360h148zM729 1405l-283 -322h-90l189 322h184z" />
    <glyph glyph-name="thorn.sc" unicode="&#xf7fe;" horiz-adv-x="690" 
d="M633 502q0 -50 -17 -99t-53 -94t-102 -72.5t-154 -27.5h-108l-31 -209h-125l133 989h129l-26 -209h61q127 0 210 -71t83 -207zM506 502q0 70 -44.5 116t-125.5 46h-74l-47 -338h94q55 0 95.5 16t61.5 42.5t30.5 55.5t9.5 62z" />
    <glyph glyph-name="ydieresis.sc" unicode="&#xf7ff;" horiz-adv-x="770" 
d="M805 989l-352 -493l-68 -496h-123l68 500l-234 489h133l172 -360l256 360h148zM291 1335q38 0 65 -27t27 -65t-27 -65t-65 -27t-65 27t-27 65t27 65t65 27zM637 1335q38 0 65 -27t27 -65t-27 -65t-65 -27t-65 27t-27 65t27 65t65 27z" />
    </font>
</defs>
</svg>
