<?xml version="1.0" standalone="no"?>
<!DOCTYPE svg PUBLIC "-//W3C//DTD SVG 1.1//EN" "http://www.w3.org/Graphics/SVG/1.1/DTD/svg11.dtd" >
<svg xmlns="http://www.w3.org/2000/svg" xmlns:xlink="http://www.w3.org/1999/xlink" version="1.1">
<metadata>
Created by FontForge 20170731 at Thu May  6 13:46:54 2021
 By Aleksey,,,
Font software Copyright 1990, 1991, 1998 Adobe Systems Incorporated. Typeface designs Copyright The Monotype Corporation. All rights reserved.
</metadata>
<defs>
<font id="GillSans-Light" horiz-adv-x="1024" >
  <font-face 
    font-family="Gill Sans"
    font-weight="300"
    font-stretch="normal"
    units-per-em="2048"
    panose-1="2 11 3 2 2 1 4 2 2 3"
    ascent="1397"
    descent="-651"
    x-height="920"
    cap-height="1397"
    bbox="-440 -475 2122 1919"
    underline-thickness="102"
    underline-position="-307"
    unicode-range="U+0020-FB04"
  />
<missing-glyph 
d="M25 0v1362h972v-1362h-972zM180 1266l332 -498l330 498h-662zM123 1178v-992q0 -1 82.5 123t164.5 249l83 124zM901 1178l-332 -496l332 -498v994zM842 98l-330 496l-332 -496h662z" />
    <glyph glyph-name="f_f" unicode="ff" horiz-adv-x="1044" 
d="M1004 920v-82h-150v-838h-98v838h-453v-838h-98v838h-158v82h158v116q0 140 45 228q36 73 116 112t169 39q94 0 161 -41v-90q-3 1 -22 7.5t-27.5 9.5t-28 8.5t-33 8t-32 5t-35.5 2.5q-52 0 -107 -30t-77 -76q-15 -29 -22 -62t-8 -55.5t-1 -65.5v-116h453v116
q0 146 51 236q36 65 113.5 104t166.5 39q58 0 119 -18v-97q-107 21 -135 21q-46 0 -101.5 -25.5t-80.5 -70.5q-16 -27 -24.5 -64t-9.5 -60.5t-1 -64.5v-116h150z" />
    <glyph glyph-name="fi" unicode="fi" horiz-adv-x="980" 
d="M481 920v-78h-190v-842h-98v842h-168v78h168v114q0 125 38 213q24 54 65 91t88 52t78 20t60 5q62 0 115 -14t98 -43.5t72 -80.5t31 -120h-99q-4 25 -8.5 42.5t-19 44.5t-35 44t-58.5 30t-88 13q-121 0 -180 -65.5t-59 -231.5v-114h190zM838 920v-920h-99v920h99z" />
    <glyph glyph-name="fl" unicode="fl" horiz-adv-x="980" 
d="M485 920v-76h-190v-844h-98v844h-170v76h170v114q0 52 1.5 80t11 72t28.5 80q36 69 108.5 109t157.5 40q70 0 139 -31v-96q-100 31 -151 31q-56 0 -106.5 -30.5t-68.5 -78.5q-22 -67 -22 -176v-114h190zM838 1397v-1397h-99v1397h99z" />
    <glyph glyph-name="f_f_i" unicode="ffi" horiz-adv-x="1536" 
d="M1040 920v-76h-190v-844h-98v844h-455v-844h-98v844h-172v76h172v114q0 86 10 139t37 101q85 141 280 141q50 0 95.5 -10.5t72.5 -23t54.5 -34t36.5 -31t24 -26.5q14 18 23.5 28.5t35.5 31.5t52.5 33t70 22t94.5 10q37 0 74 -5.5t80.5 -22.5t76 -44t56 -74.5t25.5 -109.5
h-99q-6 28 -10.5 44.5t-19.5 45t-35.5 44.5t-58 29t-87.5 13q-136 0 -186.5 -72t-50.5 -229v-114h190zM297 920h455v114q0 85 14 154q-65 149 -238 149q-48 0 -85.5 -13t-61.5 -31.5t-41 -49t-25 -54.5t-12.5 -59t-5 -52t-0.5 -44v-114zM1397 920v-920h-99v920h99z" />
    <glyph glyph-name="f_f_l" unicode="ffl" horiz-adv-x="1536" 
d="M1038 920v-76h-190v-844h-100v844h-453v-844h-98v844h-172v76h172v114q0 84 6 128t26 87q80 166 295 166q98 0 156 -29.5t129 -95.5q98 125 254 125q64 0 133 -31v-94q-85 29 -143 29q-56 0 -108.5 -32t-70.5 -83q-26 -76 -26 -170v-114h190zM295 920h453v114
q0 74 12 156q-12 21 -19.5 33.5t-29 37t-44.5 38.5t-61 26t-82 12q-20 0 -42.5 -3.5t-55 -14t-61.5 -36t-46 -62.5q-24 -55 -24 -187v-114zM1395 1397v-1397h-99v1397h99z" />
    <glyph glyph-name=".notdef" 
d="M25 0v1362h972v-1362h-972zM180 1266l332 -498l330 498h-662zM123 1178v-992q0 -1 82.5 123t164.5 249l83 124zM901 1178l-332 -496l332 -498v994zM842 98l-330 496l-332 -496h662z" />
    <glyph glyph-name=".null" horiz-adv-x="0" 
 />
    <glyph glyph-name="nonmarkingreturn" horiz-adv-x="682" 
 />
    <glyph glyph-name="space" unicode=" " horiz-adv-x="512" 
 />
    <glyph glyph-name="exclam" unicode="!" horiz-adv-x="362" 
d="M248 1397l-19 -666l-20 -338h-57l-35 1004h131zM248 197v-197h-131v197h131z" />
    <glyph glyph-name="quotedbl" unicode="&#x22;" horiz-adv-x="575" 
d="M109 891l-29 266v240h147v-240l-28 -266h-90zM377 891l-29 266v240h148v-240l-29 -266h-90z" />
    <glyph glyph-name="numbersign" unicode="#" horiz-adv-x="1351" 
d="M158 989h291l86 418h94l-86 -418h387l90 418h94l-86 -418h166v-92h-184l-80 -397h264v-92h-289l-90 -416h-90l90 416h-393l-90 -416h-90l90 416h-174v92h188l84 397h-272v92zM913 897h-391l-82 -397h391z" />
    <glyph glyph-name="dollar" unicode="$" horiz-adv-x="1067" 
d="M932 1229v-115q-85 62 -164 96t-188 45v-532q34 -9 56.5 -16t69.5 -25.5t80.5 -37t75 -50t67.5 -66t44 -83t18 -103.5q0 -41 -11.5 -84t-41.5 -90t-75 -85t-118.5 -66t-164.5 -35v-222h-97v222q-242 17 -411 163v113q134 -95 222.5 -130.5t188.5 -47.5v565
q-35 11 -55.5 17.5t-67.5 25.5t-78 37t-72 48.5t-65.5 63.5t-42.5 79.5t-18 97.5q0 32 7 66t32.5 81.5t66.5 85t117 68t176 39.5v61h97v-61q109 -9 185.5 -35.5t166.5 -89.5zM483 754v501q-123 -3 -211 -71t-88 -164q0 -34 10.5 -63.5t24.5 -51.5t41 -43t48 -34t57.5 -29
t57.5 -23.5t60 -21.5zM580 612v-530q52 2 105 18.5t99 47t74.5 79t28.5 107.5q0 57 -22 102t-66.5 77t-95 54.5t-123.5 44.5z" />
    <glyph glyph-name="percent" unicode="%" horiz-adv-x="1429" 
d="M369 1327q-100 0 -171 -70.5t-71 -171.5q0 -100 71 -170.5t171 -70.5t170.5 70.5t70.5 170.5q0 101 -71 171.5t-170 70.5zM1321 1415l-1124 -1433h-103l1127 1433h100zM1061 551q-99 0 -170.5 -70.5t-71.5 -171.5q0 -100 71 -170.5t171 -70.5t171 70.5t71 170.5
q0 101 -71 171.5t-171 70.5zM369 1415q136 0 231.5 -96.5t95.5 -231.5q0 -136 -96 -232.5t-231 -96.5q-136 0 -233 96t-97 233q0 136 97 232t233 96zM1061 639q136 0 233 -96.5t97 -231.5q0 -136 -96.5 -232.5t-233.5 -96.5q-134 0 -231 96t-97 233q0 136 96.5 232t231.5 96
z" />
    <glyph glyph-name="ampersand" unicode="&#x26;" horiz-adv-x="1259" 
d="M963 301l284 -301h-137l-211 219q-27 -30 -48.5 -51.5t-69 -60t-94 -63t-114.5 -43.5t-139 -19q-161 0 -271 96.5t-110 234.5q0 35 6.5 70.5t28.5 84.5t58 93.5t101 92.5t152 85q-51 58 -71.5 84t-50.5 71t-41 84.5t-11 86.5q0 122 92.5 213.5t239.5 91.5q137 0 221 -85
t84 -204q0 -46 -13 -89t-31 -75t-47.5 -63t-53 -51t-57 -41t-50 -30t-41.5 -21l318 -330q90 125 153 315h115q-81 -238 -192 -395zM500 786q143 59 202.5 135.5t59.5 151.5q0 78 -57 138.5t-154 60.5q-96 0 -158.5 -59.5t-62.5 -141.5q0 -127 170 -285zM825 295l-354 369
q-42 -18 -74 -34t-77.5 -47t-75 -63.5t-51 -81t-21.5 -102.5q0 -108 73.5 -182t200.5 -74q202 0 379 215z" />
    <glyph glyph-name="quotesingle" unicode="'" horiz-adv-x="448" 
d="M178 891l-28 266v240h147v-240l-27 -266h-92z" />
    <glyph glyph-name="parenleft" unicode="(" horiz-adv-x="681" 
d="M668 -465h-103q-112 118 -178 215q-107 160 -165 348.5t-58 378.5q0 107 18 211t43 183t66.5 161t72.5 132.5t79 110t67.5 81.5t54.5 59h103q-169 -154 -285.5 -402.5t-116.5 -533.5q0 -358 176 -663q39 -67 84.5 -126t70.5 -85t71 -70z" />
    <glyph glyph-name="parenright" unicode=")" horiz-adv-x="681" 
d="M16 1415h101q37 -40 56 -60.5t68 -82t79 -110.5t72 -131.5t66 -160.5t42 -182t18 -211q0 -191 -57 -379.5t-164 -347.5q-74 -109 -180 -215h-101q49 49 70.5 71.5t68.5 83t85 126.5q176 305 176 663q0 146 -33 288.5t-90 261t-127 216t-150 170.5z" />
    <glyph glyph-name="asterisk" unicode="*" horiz-adv-x="960" 
d="M809 1255l-281 -231q-4 0 -4 -4t4 -4l367 31v-97l-367 41q-2 0 -4 -2.5t-2 -3.5t2 -3.5t4 -2.5l281 -234l-70 -69l-235 285q-5 -2 -12 0l36 -377h-94l33 377q-4 -2 -10 0l-232 -285l-71 69l288 234q-6 6 -8 12l-368 -41v97l368 -31q2 2 2 4l-2 4l-280 231l71 72l232 -280
q6 2 10 0l-33 368h94l-36 -368q6 2 12 0l235 280z" />
    <glyph glyph-name="plus" unicode="+" horiz-adv-x="1351" 
d="M629 162v489h-490v94h490v490h94v-490h489v-94h-489v-489h-94z" />
    <glyph glyph-name="comma" unicode="," horiz-adv-x="362" 
d="M248 195v-119q0 -220 -133 -316v70q14 27 19.5 39t14.5 50t9 81h-43v195h133z" />
    <glyph glyph-name="hyphen" unicode="-" horiz-adv-x="638" 
d="M563 510v-96h-485v96h485z" />
    <glyph glyph-name="period" unicode="." horiz-adv-x="362" 
d="M248 199v-199h-133v199h133z" />
    <glyph glyph-name="slash" unicode="/" horiz-adv-x="575" 
d="M16 -18l449 1433h96l-450 -1433h-95z" />
    <glyph glyph-name="zero" unicode="0" 
d="M958 692q0 -146 -27 -267.5t-71 -202t-102.5 -136t-119 -80t-122.5 -24.5q-72 0 -138 28t-123 85.5t-99 139t-66 194.5t-24 245q0 162 28.5 299t71.5 211q57 99 144 165t202 66q69 0 133.5 -26.5t121.5 -84.5t99.5 -141t67 -204t24.5 -267zM856 705q0 72 -9.5 149
t-34 162t-61.5 151.5t-98.5 110t-138.5 43.5q-85 0 -152.5 -54.5t-108.5 -145t-62 -198.5t-21 -223q0 -171 39 -310t117 -223.5t182 -84.5q73 0 133 39t99 102t66 145.5t38.5 167t11.5 169.5z" />
    <glyph glyph-name="one" unicode="1" 
d="M565 1397v-1397h-106v1397h106z" />
    <glyph glyph-name="two" unicode="2" 
d="M313 98h650v-98h-891q241 221 458 532q191 272 191 490q0 134 -96.5 216.5t-214.5 82.5q-90 0 -162 -39.5t-156 -114.5v121q150 127 326 127q119 0 214 -57t145 -147t50 -191q0 -109 -44 -231t-165 -302q-26 -39 -55 -78t-64 -83t-58 -72.5t-67 -81.5t-61 -74z" />
    <glyph glyph-name="three" unicode="3" 
d="M90 51v96q148 -71 311 -71q146 0 237 82t91 217q0 40 -8.5 79t-33.5 82.5t-64 76t-105.5 53.5t-152.5 20v98q91 1 161 27t109 67.5t58.5 86.5t19.5 92q0 80 -47 141t-119.5 91t-155.5 30q-147 0 -289 -94v100q123 90 295 90q193 0 304.5 -103.5t111.5 -248.5
q0 -230 -252 -322q24 -8 38 -13.5t46 -21.5t52.5 -32t48 -45t43.5 -62t28 -81t12 -103q0 -86 -28 -156t-71.5 -114.5t-99.5 -75t-110 -43t-106 -12.5q-65 0 -155 15.5t-169 53.5z" />
    <glyph glyph-name="four" unicode="4" 
d="M770 1415v-792h195v-84h-195v-539h-104v539h-637v34l702 842h39zM666 623v589l-492 -589h492z" />
    <glyph glyph-name="five" unicode="5" 
d="M791 1397v-94h-494v-445q62 8 111 8q106 0 189.5 -28.5t134 -72.5t83 -103t45 -115t12.5 -113q0 -188 -126 -320t-326 -132q-155 0 -336 92v119q196 -115 338 -115q89 0 165 38t126.5 119t50.5 191q0 82 -26.5 146.5t-65.5 101.5t-91 60.5t-96 31.5t-86 8q-63 0 -196 -26
v649h588z" />
    <glyph glyph-name="six" unicode="6" 
d="M707 1415l61 -74q-39 -27 -86.5 -64.5t-121 -109t-133.5 -146.5t-111.5 -176t-67.5 -198q149 109 309 109q56 0 111 -15t105.5 -46.5t89.5 -75.5t62 -107t23 -137q0 -173 -112.5 -283t-284.5 -110q-91 0 -168 31.5t-135 92t-90.5 154.5t-32.5 213q0 172 65 335.5
t183 299.5q40 49 131.5 138t202.5 169zM229 526q0 -4 -2 -34.5t-2 -47.5q0 -38 7.5 -81t29.5 -95t56 -92.5t93 -68t134 -27.5q133 0 216 83t83 197q0 35 -9.5 73.5t-33 79t-57 72t-86 52t-115.5 20.5q-166 0 -314 -131z" />
    <glyph glyph-name="seven" unicode="7" 
d="M973 1397l-639 -1415l-90 38l577 1280h-762v97h914z" />
    <glyph glyph-name="eight" unicode="8" 
d="M705 727q206 -124 206 -346q0 -168 -114 -283.5t-281 -115.5q-166 0 -283.5 112.5t-117.5 278.5q0 157 106 276q43 45 103 78q-183 124 -183 315q0 92 45.5 177t132 140.5t191.5 55.5q154 0 263.5 -109.5t109.5 -261.5q0 -137 -90 -241q-38 -43 -88 -76zM780 1047
q0 113 -78.5 189.5t-193.5 76.5q-112 0 -189 -80t-77 -191q0 -115 78.5 -191.5t193.5 -76.5q117 0 191.5 78.5t74.5 194.5zM805 387q0 123 -87.5 204t-207.5 81q-121 0 -206 -86t-85 -209t87 -207t210 -84q127 0 208 85.5t81 215.5z" />
    <glyph glyph-name="nine" unicode="9" 
d="M295 -18l-57 75q53 41 83 64.5t87.5 73.5t93.5 88t84.5 96t79 111.5t57.5 121t39 136.5q-35 -21 -54 -31.5t-64 -31t-92.5 -30.5t-96.5 -10q-69 0 -136.5 24t-124.5 69.5t-92.5 120.5t-35.5 167q0 104 45 191.5t136 142.5t212 55q194 0 312 -127t118 -362
q0 -104 -24.5 -204.5t-59.5 -178.5t-92.5 -158t-104 -132t-115.5 -112.5t-105 -88.5t-93 -70zM780 872q5 54 1 120.5t-25 129.5q-31 89 -106.5 145t-184.5 56q-130 0 -211.5 -85.5t-81.5 -205.5t81 -204.5t204 -84.5q178 0 323 129z" />
    <glyph glyph-name="colon" unicode=":" horiz-adv-x="362" 
d="M248 920v-199h-133v199h133zM248 199v-199h-133v199h133z" />
    <glyph glyph-name="semicolon" unicode=";" horiz-adv-x="362" 
d="M248 920v-197h-133v197h133zM248 195v-119q0 -220 -133 -316v70q14 27 19.5 39t14.5 50t9 81h-43v195h133z" />
    <glyph glyph-name="less" unicode="&#x3c;" horiz-adv-x="1351" 
d="M139 655v84l1073 455v-100l-950 -396l950 -393v-100z" />
    <glyph glyph-name="equal" unicode="=" horiz-adv-x="1351" 
d="M139 893v94h1073v-94h-1073zM139 412v92h1073v-92h-1073z" />
    <glyph glyph-name="greater" unicode="&#x3e;" horiz-adv-x="1351" 
d="M1212 741v-82l-1073 -454v100l951 395l-951 392v102z" />
    <glyph glyph-name="question" unicode="?" horiz-adv-x="575" 
d="M268 367l-37 -29q-79 93 -79 188q0 67 24.5 121.5t108.5 188.5q104 169 104 301q0 75 -43 132.5t-110 57.5q-97 0 -164 -108h-21l47 159q76 37 140 37q115 0 185.5 -80t70.5 -211q0 -76 -29 -156.5t-70 -140.5q-111 -164 -138.5 -216.5t-27.5 -114.5q0 -24 5.5 -46.5
t11.5 -36t22 -46.5zM307 201v-201h-133v201h133z" />
    <glyph glyph-name="at" unicode="@" horiz-adv-x="1642" 
d="M1145 1034h125l-170 -803q-13 -76 -13 -79q0 -17 14 -28t34 -11q42 0 93 24.5t104 74.5t96.5 116.5t71.5 161t28 198.5q0 41 -5 87t-22.5 111.5t-46 124.5t-80 120t-118.5 104.5t-169 71.5t-225 28q-144 0 -269.5 -42t-218 -116.5t-159 -175t-100 -220t-33.5 -249.5
t33.5 -247t100 -214t160 -167.5t220 -110t274.5 -39.5q87 0 167 13.5t137.5 31.5t114.5 50.5t89.5 55.5t71.5 62t52.5 55t39.5 48h103q-30 -46 -51 -75t-69.5 -77t-107.5 -88q-110 -74 -251.5 -115t-297.5 -41q-260 0 -458.5 109.5t-305 304.5t-106.5 447q0 134 33 260.5
t103.5 239.5t171 197t245.5 133.5t317 49.5q123 0 228 -26.5t179.5 -71t134 -105.5t97 -126.5t62 -137.5t34 -135t9.5 -123q0 -124 -35 -235t-90.5 -188.5t-124.5 -134.5t-137.5 -84.5t-128.5 -27.5q-121 0 -121 105q0 42 8 82q-157 -187 -342 -187q-152 0 -249 121.5
t-97 302.5q0 109 37.5 218.5t102.5 198t162.5 143.5t207.5 55q56 0 105.5 -16.5t79.5 -36t58.5 -52t38 -47.5t23.5 -39zM1063 688q0 124 -72.5 204.5t-183.5 80.5q-75 0 -139.5 -36.5t-108.5 -94.5t-76 -130t-46.5 -143t-14.5 -133q0 -85 29 -157t88.5 -118t138.5 -46
q84 0 159.5 60.5t131.5 164.5q41 74 67.5 171.5t26.5 176.5z" />
    <glyph glyph-name="A" unicode="A" horiz-adv-x="1366" 
d="M713 1407l645 -1407h-113l-221 483h-682l-221 -483h-113l641 1407h64zM981 575l-299 656l-301 -656h600z" />
    <glyph glyph-name="B" unicode="B" horiz-adv-x="1087" 
d="M164 1397h217q130 0 200.5 -8.5t133.5 -36.5q93 -38 149 -124.5t56 -191.5q0 -55 -15.5 -103.5t-35 -79t-51 -58.5t-49 -39.5t-43.5 -26.5q-5 -3 -7 -4q76 -16 134 -45.5t93 -64t57.5 -77.5t30.5 -82.5t8 -82.5q0 -96 -39 -168t-98 -111q-90 -58 -168.5 -76t-208.5 -18
h-364v1397zM377 1305h-105v-555h131q28 0 44.5 0.5t52 2.5t59 7t58 14.5t58 23t50 34.5t42 48t26 65t10.5 83q0 70 -29 129.5t-80 89.5q-97 58 -317 58zM465 659h-193v-569h242q26 0 42 0.5t51 3t60 7t60.5 14.5t60.5 24t52.5 36t44.5 49.5t28 66t11 84.5q0 122 -86 196
q-54 50 -134.5 69t-238.5 19z" />
    <glyph glyph-name="C" unicode="C" horiz-adv-x="1388" 
d="M1303 1298v-118q-58 29 -94 45.5t-101.5 40.5t-135.5 35.5t-145 11.5q-138 0 -255 -46.5t-198.5 -127.5t-127 -195t-45.5 -246q0 -178 80 -318t221.5 -217t318.5 -77q79 0 156.5 14t150 42t104.5 42.5t85 40.5v-112q-246 -131 -496 -131q-145 0 -278 49.5t-237 138.5
t-166 226t-62 300q0 116 31.5 218.5t85.5 180t125.5 139.5t153.5 101t166.5 59.5t166.5 20.5q243 0 496 -117z" />
    <glyph glyph-name="D" unicode="D" horiz-adv-x="1492" 
d="M164 1397h424q98 0 145 -1.5t115.5 -10t123.5 -28.5t115 -54q159 -92 243.5 -250.5t84.5 -347.5q0 -114 -32 -226t-108.5 -218.5t-187.5 -164.5q-67 -35 -122.5 -55.5t-122 -29t-112 -10t-142.5 -1.5h-424v1397zM600 1307h-328v-1219h328q140 0 228 16.5t198 79.5
q124 72 196 214t72 304q0 65 -13 129.5t-42 133t-83.5 132t-129.5 111.5q-100 64 -187 81.5t-239 17.5z" />
    <glyph glyph-name="E" unicode="E" horiz-adv-x="1028" 
d="M926 1397v-90h-654v-557h637v-91h-637v-571h670v-88h-778v1397h762z" />
    <glyph glyph-name="F" unicode="F" horiz-adv-x="921" 
d="M881 1397v-90h-611v-531h551v-90h-551v-686h-106v1397h717z" />
    <glyph glyph-name="G" unicode="G" horiz-adv-x="1435" 
d="M1307 1296v-122q-222 139 -500 139q-116 0 -224 -42t-194 -118.5t-138 -195.5t-52 -261q0 -139 52 -257t137.5 -195.5t193 -120.5t221.5 -43q198 0 422 88v377h-295v92h403v-537q-258 -118 -526 -118q-108 0 -214 32t-198.5 95t-163.5 149t-112 201t-41 243
q0 148 55.5 279.5t153 227t237.5 151t303 55.5q75 0 144 -10t137 -32.5t102 -36t97 -40.5z" />
    <glyph glyph-name="H" unicode="H" horiz-adv-x="1476" 
d="M1313 1397v-1397h-109v662h-934v-662h-106v1397h106v-643h934v643h109z" />
    <glyph glyph-name="I" unicode="I" horiz-adv-x="438" 
d="M274 1397v-1397h-110v1397h110z" />
    <glyph glyph-name="J" unicode="J" horiz-adv-x="425" 
d="M279 1397v-1374q0 -50 -2.5 -87.5t-13 -91t-29.5 -92.5t-56 -77t-88 -60q-29 -12 -54 -15t-116 -8l-12 107q28 -8 51 -8q43 0 76.5 13t55.5 31t37 49.5t23 57.5t12 66.5t4.5 64t0.5 62.5v1362h111z" />
    <glyph glyph-name="K" unicode="K" horiz-adv-x="1132" 
d="M1077 1397l-665 -697l731 -700h-139l-734 700v-700h-106v1397h106v-697l672 697h135z" />
    <glyph glyph-name="L" unicode="L" horiz-adv-x="962" 
d="M270 1397v-1309h693v-88h-799v1397h106z" />
    <glyph glyph-name="M" unicode="M" horiz-adv-x="1605" 
d="M1442 1397v-1397h-109v1239l-530 -653l-533 653v-1239h-106v1397h106l533 -649l530 649h109z" />
    <glyph glyph-name="N" unicode="N" horiz-adv-x="1587" 
d="M1423 1397v-1397h-90l-1061 1229v-1229h-108v1397h100l1051 -1221v1221h108z" />
    <glyph glyph-name="O" unicode="O" horiz-adv-x="1636" 
d="M1559 705q0 -154 -59 -289.5t-159.5 -230t-236.5 -149t-287 -54.5q-206 0 -375.5 95.5t-266.5 260t-97 362.5q0 142 53.5 271.5t148 228t235 157t304.5 58.5q162 0 302 -58t235 -155.5t149 -226.5t54 -270zM1438 705q0 119 -45.5 229t-125.5 193.5t-196.5 133.5
t-249.5 50q-175 0 -317.5 -82t-222.5 -223t-80 -310q0 -164 78 -304t219.5 -224t316.5 -84q121 0 233 44t199 123t139 197t52 257z" />
    <glyph glyph-name="P" unicode="P" horiz-adv-x="1032" 
d="M164 1397h282q160 0 236 -10.5t145 -49.5q82 -45 128 -124.5t46 -182.5q0 -107 -50 -193.5t-130 -125.5q-83 -38 -155 -48t-205 -10h-191v-653h-106v1397zM451 1309h-181v-566h197q113 0 183.5 12.5t129.5 49.5q46 30 73.5 92.5t27.5 128.5t-27 125t-76 94
q-48 33 -118 48.5t-209 15.5z" />
    <glyph glyph-name="Q" unicode="Q" horiz-adv-x="1638" 
d="M1501 -152l-123 -141q-202 26 -358 100q-1 1 -18.5 9.5t-35.5 18.5t-47 27t-56.5 34.5t-59.5 41.5t-60 48q-195 17 -348.5 120t-235 258.5t-81.5 331.5q0 143 55 274.5t150.5 229.5t235.5 156.5t300 58.5q163 0 303.5 -57.5t235.5 -155.5t149 -228t54 -274
q0 -195 -95.5 -358t-253.5 -256q-128 -75 -311 -100q85 -57 165.5 -95t139.5 -52t86.5 -17.5t48.5 -3.5q65 0 136 51zM1440 698q0 129 -48 244t-130.5 197t-197.5 130t-243 48q-169 0 -312.5 -82.5t-226.5 -225t-83 -311.5q0 -161 77.5 -301t220 -226.5t318.5 -86.5
q120 0 232.5 44.5t199.5 122.5t140 195t53 252z" />
    <glyph glyph-name="R" unicode="R" horiz-adv-x="1202" 
d="M164 1397h276q129 0 199 -8t135 -33q89 -36 150 -121.5t61 -198.5q0 -243 -266 -340q58 -37 123 -126.5t315 -473.5l66 -96h-129l-269 422q-37 59 -85.5 118.5t-86.5 86.5q-29 20 -67.5 30t-69 11.5t-94.5 1.5h-150v-670h-108v1397zM449 1307h-177v-545h150
q125 0 191.5 9t121.5 36q56 27 91.5 91.5t35.5 137.5q0 72 -35.5 134.5t-93.5 91.5q-88 45 -284 45z" />
    <glyph glyph-name="S" unicode="S" horiz-adv-x="942" 
d="M817 1327v-119q-100 58 -167.5 84.5t-147.5 26.5q-72 0 -130.5 -25t-93 -65t-53 -86t-18.5 -92q0 -37 10 -69.5t24 -56t40.5 -45.5t48.5 -36.5t60 -31t61.5 -25t66.5 -23.5q58 -21 101.5 -40.5t94.5 -53.5t83.5 -74t54.5 -99t22 -130q0 -89 -35.5 -163.5t-94 -122
t-130 -73.5t-145.5 -26q-178 0 -358 122v127q104 -74 184.5 -110.5t169.5 -36.5q72 0 130.5 25.5t94 66.5t54 89t18.5 97q0 54 -20 99.5t-48 75.5t-71 56t-75 39t-73 27q-86 29 -141 54t-72.5 37t-38.5 30q-127 108 -127 267q0 70 29 136t79.5 117.5t126 83t161.5 31.5
q165 0 325 -88z" />
    <glyph glyph-name="T" unicode="T" horiz-adv-x="1173" 
d="M1165 1397v-90h-522v-1307h-111v1307h-524v90h1157z" />
    <glyph glyph-name="U" unicode="U" horiz-adv-x="1429" 
d="M1298 1397v-705q0 -165 -19 -265.5t-79 -193.5q-69 -108 -191 -179.5t-288 -71.5q-94 0 -183.5 24t-173 81.5t-131.5 141.5q-48 82 -71 163t-27 137.5t-4 162.5v705h107v-725q0 -240 75 -369q56 -96 156.5 -158.5t243.5 -62.5q128 0 239 57.5t162 159.5q45 87 61.5 174
t16.5 199v725h106z" />
    <glyph glyph-name="V" unicode="V" horiz-adv-x="1216" 
d="M1210 1397l-583 -1407h-35l-588 1407h111l495 -1182l492 1182h108z" />
    <glyph glyph-name="W" unicode="W" horiz-adv-x="2111" 
d="M2114 1397l-558 -1407h-32l-469 1175l-465 -1175h-33l-559 1407h111l462 -1159l467 1159h35l465 -1159l467 1159h109z" />
    <glyph glyph-name="X" unicode="X" horiz-adv-x="1406" 
d="M1374 1397l-600 -682l635 -715h-139l-565 639l-568 -639h-137l637 715l-604 682h135l537 -602l536 602h133z" />
    <glyph glyph-name="Y" unicode="Y" horiz-adv-x="1196" 
d="M1196 1397l-547 -647v-750h-108v750l-541 647h131l465 -553l467 553h133z" />
    <glyph glyph-name="Z" unicode="Z" horiz-adv-x="1300" 
d="M1243 1397v-37l-1046 -1272h1054v-88h-1233v31l1049 1278h-1001v88h1177z" />
    <glyph glyph-name="bracketleft" unicode="[" horiz-adv-x="618" 
d="M604 1397v-99h-362v-1654h362v-97h-463v1850h463z" />
    <glyph glyph-name="backslash" unicode="\" horiz-adv-x="575" 
d="M465 -18l-449 1433h95l450 -1433h-96z" />
    <glyph glyph-name="bracketright" unicode="]" horiz-adv-x="618" 
d="M14 -453v97h363v1654h-363v99h463v-1850h-463z" />
    <glyph glyph-name="asciicircum" unicode="^" horiz-adv-x="1343" 
d="M287 825l-62 54l447 536l448 -536l-65 -54l-383 461z" />
    <glyph glyph-name="underscore" unicode="_" 
d="M-12 -154h1048v-102h-1048v102z" />
    <glyph glyph-name="grave" unicode="`" horiz-adv-x="681" 
d="M-4 1386h166l215 -319h-70z" />
    <glyph glyph-name="a" unicode="a" horiz-adv-x="851" 
d="M846 160v-82q-135 -96 -184 -96q-39 0 -51 25.5t-17 88.5q-145 -114 -289 -114q-102 0 -176 67t-74 164q0 62 24 113t60 84.5t89 59.5t100 40t104.5 23.5t91 12.5t70.5 5v117q0 182 -203 182q-78 0 -140 -26t-142 -85v101q47 28 73.5 42.5t92 35t128.5 20.5
q64 0 129.5 -20.5t102.5 -61.5t47 -84t10 -131v-471q0 -76 2 -82q5 -10 19 -10q19 0 61 28t72 54zM594 182v289q-171 -6 -252 -39q-79 -32 -132.5 -87t-53.5 -132q0 -74 58.5 -113t123.5 -39q125 0 256 121z" />
    <glyph glyph-name="b" unicode="b" horiz-adv-x="1040" 
d="M127 51v1346h98v-609q38 34 61.5 52t68 45t95 40t107.5 13q61 0 119 -17t111 -53t93 -88t63.5 -127t23.5 -164q0 -229 -139.5 -368t-374.5 -139q-158 0 -326 69zM225 678v-557q120 -45 228 -45q181 0 295 115t114 288q0 94 -35.5 177.5t-109.5 139.5t-172 56
q-56 0 -107.5 -17t-94 -48.5t-66 -54t-52.5 -54.5z" />
    <glyph glyph-name="c" unicode="c" horiz-adv-x="837" 
d="M768 893v-109q-47 21 -71.5 30.5t-73.5 20.5t-97 11q-85 0 -152.5 -33.5t-108.5 -90t-62 -124.5t-21 -141q0 -74 20.5 -140.5t61.5 -122t111 -88t162 -32.5q117 0 247 57v-102q-143 -47 -262 -47q-57 0 -115 14t-118 48t-106 85t-75.5 133t-29.5 184q0 120 38.5 216.5
t102.5 155.5t141.5 89.5t161.5 30.5q104 0 246 -45z" />
    <glyph glyph-name="d" unicode="d" horiz-adv-x="1034" 
d="M909 1397v-1397h-98v72q-36 -25 -64.5 -41t-86 -32.5t-121.5 -16.5q-89 0 -172.5 33.5t-148.5 94t-104.5 152t-39.5 199.5q0 210 134 343.5t331 133.5q58 0 113.5 -13t86.5 -26t72 -35v533h98zM811 162v594q-40 26 -65 40t-83.5 32t-119.5 18q-164 0 -262.5 -110
t-98.5 -269q0 -175 112.5 -284t268.5 -109q58 0 109.5 15.5t78.5 31.5t60 41z" />
    <glyph glyph-name="e" unicode="e" horiz-adv-x="976" 
d="M903 496h-721q-4 -105 27 -188.5t84.5 -133t117.5 -75t132 -25.5q62 0 118 14t101.5 40t70 44t54.5 43v-111q-154 -122 -355 -122q-109 0 -198 41.5t-144.5 111t-85.5 156t-30 180.5q0 124 49.5 229t147.5 171.5t225 66.5q73 0 136.5 -21.5t107.5 -57.5t74.5 -76
t49.5 -85q35 -79 39 -202zM193 573h593q-18 90 -55 148q-36 60 -98 94.5t-137 34.5q-102 0 -190 -72t-113 -205z" />
    <glyph glyph-name="f" unicode="f" horiz-adv-x="598" 
d="M680 1376v-92q-105 33 -164 33q-56 0 -97.5 -16.5t-65.5 -42.5t-38.5 -65t-19 -76t-4.5 -83v-114h178v-82h-178v-838h-98v838h-170v82h170v114q0 75 15 136t38 99.5t55 67.5t61 43.5t62 23t52 10t36 1.5q34 0 68.5 -7t50.5 -13t49 -19z" />
    <glyph glyph-name="g" unicode="g" horiz-adv-x="854" 
d="M834 920v-82h-209q26 -25 39.5 -40t38.5 -48.5t37 -74t12 -87.5q0 -12 -0.5 -23.5t-6 -38.5t-14.5 -50t-28.5 -54t-46.5 -55.5t-70 -48t-97 -37.5q-133 -36 -170.5 -48.5t-58.5 -29.5q-33 -26 -33 -64q0 -31 21.5 -51.5t61 -29t68.5 -11.5t71 -4q105 -3 159 -12t109 -39
q49 -26 81.5 -78.5t32.5 -116.5q0 -124 -107 -196t-304 -72q-82 0 -149 13t-108 32t-71 46t-44 49.5t-22 48.5t-9 36.5t-1 20.5q0 23 5.5 45.5t23 51.5t45.5 52.5t78.5 44t116.5 31.5q-150 39 -150 133q0 31 12.5 54t42.5 41.5t54.5 28.5t74.5 28q-22 8 -35 13.5t-41.5 19.5
t-47 28.5t-42.5 39t-38 52t-24.5 66.5t-10.5 84q0 93 45 172t119 112q46 22 95 33t81.5 13t89.5 2h324zM410 838q-100 0 -172 -71.5t-72 -172.5t71.5 -173.5t172.5 -72.5t173 72.5t72 173.5t-72.5 172.5t-172.5 71.5zM739 -211q0 33 -13 59.5t-31.5 43.5t-48 29t-53 17.5
t-57.5 8.5t-50.5 3.5t-41.5 0.5q-93 0 -144 -9t-97 -32q-21 -9 -39 -22.5t-36.5 -43t-18.5 -65.5q0 -34 15.5 -62t37.5 -45t55.5 -29.5t60.5 -18.5t62 -9t50.5 -3.5t35.5 -0.5q157 0 235 52.5t78 125.5z" />
    <glyph glyph-name="h" unicode="h" horiz-adv-x="1003" 
d="M225 1397v-645q16 25 27.5 42t40 47t58.5 48.5t77.5 33.5t101.5 15q90 0 171 -39.5t120 -116.5q36 -72 44.5 -130t8.5 -177v-475h-100v483q0 87 -7.5 136t-31.5 94q-28 56 -83 92.5t-136 36.5q-117 0 -201 -76q-29 -25 -47.5 -53t-42.5 -78v-635h-96v1397h96z" />
    <glyph glyph-name="i" unicode="i" horiz-adv-x="382" 
d="M240 1397v-168h-97v168h97zM240 920v-920h-97v920h97z" />
    <glyph glyph-name="j" unicode="j" horiz-adv-x="374" 
d="M238 1397v-168h-99v168h99zM238 920v-957q0 -50 -2 -88t-8.5 -84t-18 -80t-32 -68t-48.5 -56.5t-69 -38t-93 -19.5l-28 82q33 3 60 11.5t46.5 18.5t34.5 29.5t25 34.5t16.5 44t10 47t5.5 55t2 56.5v61.5v951h99z" />
    <glyph glyph-name="k" unicode="k" horiz-adv-x="901" 
d="M219 1397v-1397h-98v1397h98zM870 920l-499 -437l583 -483h-141l-580 483l508 437h129z" />
    <glyph glyph-name="l" unicode="l" horiz-adv-x="385" 
d="M242 1397v-1397h-99v1397h99z" />
    <glyph glyph-name="m" unicode="m" horiz-adv-x="1579" 
d="M219 920v-162q17 26 30 43t42 46t58 46.5t74 31t95 13.5t93 -11.5t73.5 -33.5t52 -42.5t38.5 -50.5t24 -45t16 -38q72 121 150 171t172 50q83 0 154 -38.5t106 -102.5q39 -72 49 -131.5t10 -171.5v-494h-98v485q0 163 -43 242q-29 51 -82 84t-113 33q-28 0 -61.5 -10
t-73.5 -32t-79.5 -67.5t-67.5 -107.5v-627h-99v471q0 124 -13 179t-40 95q-32 45 -81.5 72t-108.5 27q-44 0 -85 -15.5t-67.5 -34t-55 -52t-39.5 -50t-30 -47.5v-645h-96v920h96z" />
    <glyph glyph-name="n" unicode="n" horiz-adv-x="1003" 
d="M225 920v-160q17 23 21.5 29t25.5 31t34 35.5t39.5 30t51 28.5t58.5 16.5t71 7.5q81 0 157.5 -34t117.5 -95q44 -65 58.5 -137.5t14.5 -173.5v-498h-98v489q0 99 -14 154.5t-43 95.5q-33 47 -87.5 76t-117.5 29q-122 0 -223 -101q-37 -41 -66 -98v-645h-98v920h98z" />
    <glyph glyph-name="o" unicode="o" horiz-adv-x="1083" 
d="M543 938q140 0 247.5 -65.5t163.5 -173.5t56 -240q0 -144 -67.5 -255t-172.5 -166.5t-227 -55.5t-227.5 55.5t-173.5 166.5t-68 255q0 130 55 238t163.5 174.5t250.5 66.5zM543 846q-65 0 -128 -24.5t-116 -70.5t-86 -121.5t-33 -168.5q0 -171 105 -280t258 -109
t257.5 109t104.5 280q0 91 -32 166t-84 121.5t-115.5 72t-130.5 25.5z" />
    <glyph glyph-name="p" unicode="p" horiz-adv-x="1032" 
d="M227 920v-52q43 20 70.5 31.5t88 25t122.5 13.5q192 0 321 -134t129 -341q0 -112 -41 -205.5t-107 -152.5t-146 -91t-162 -32q-134 0 -275 69v-522h-98v1391h98zM227 774v-627q37 -21 62.5 -33t80.5 -26t113 -14q87 0 158 30.5t116 83t69 121t24 146.5q0 120 -54.5 210.5
t-139.5 134.5t-187 44q-52 0 -100.5 -12t-74.5 -24t-67 -34z" />
    <glyph glyph-name="q" unicode="q" horiz-adv-x="1042" 
d="M913 920v-1391h-98v524q-155 -71 -305 -71q-82 0 -158.5 29t-139 84t-100.5 145t-38 202q0 109 36.5 203t98.5 157.5t144.5 99.5t172.5 36q64 0 125 -15t92 -29.5t72 -37.5v64h98zM815 152v608q-130 86 -268 86q-71 0 -131.5 -24t-103 -64.5t-73 -93.5t-45 -111
t-14.5 -117q0 -43 8.5 -87.5t33.5 -96t63 -90t102.5 -64.5t147.5 -26q63 0 123.5 15.5t86.5 28t70 36.5z" />
    <glyph glyph-name="r" unicode="r" horiz-adv-x="763" 
d="M764 829l-57 -92q-34 30 -55 46.5t-59 35.5t-69 19q-73 0 -151 -74t-146 -186v-578h-98v920h98v-242q172 260 328 260q39 0 84 -21.5t67 -38.5t58 -49z" />
    <glyph glyph-name="s" unicode="s" horiz-adv-x="712" 
d="M621 860v-106q-135 94 -252 94q-89 0 -144 -47.5t-55 -108.5q0 -30 15 -57t35 -44.5t54 -35t56.5 -26.5t58.5 -21q28 -10 41.5 -15.5t45.5 -20.5t50.5 -27.5t44.5 -35t40.5 -46.5t25 -57t10.5 -70q0 -100 -81 -177t-218 -77q-138 0 -276 84v96q50 -26 78 -39.5t90 -31
t118 -17.5q90 0 140.5 45t50.5 108q0 24 -7 44.5t-15.5 35.5t-30 31.5t-36 26t-49 24.5t-53 22.5t-63.5 24.5q-29 11 -46.5 19t-54 30.5t-58.5 46.5t-40 64.5t-18 87.5q0 44 18.5 87.5t54 81.5t94 61.5t130.5 23.5q114 0 246 -78z" />
    <glyph glyph-name="t" unicode="t" horiz-adv-x="624" 
d="M295 1225v-305h258v-82h-258v-564q0 -69 2.5 -91t15.5 -44q35 -59 121 -59q71 0 166 43v-94q-101 -47 -190 -47q-62 0 -116 30t-77 80q-14 33 -17 66t-3 116v564h-248v82h248v219l67 86h31z" />
    <glyph glyph-name="u" unicode="u" horiz-adv-x="1003" 
d="M866 920v-920h-98v152q-26 -32 -47.5 -54t-61 -52.5t-91.5 -47t-113 -16.5q-85 0 -163.5 39.5t-115.5 105.5q-36 61 -46.5 124t-10.5 150v519h98v-519q0 -84 7 -132t30 -89q33 -60 91.5 -86t119.5 -26q134 0 233 96q32 34 70 112v644h98z" />
    <glyph glyph-name="v" unicode="v" horiz-adv-x="874" 
d="M874 920l-395 -938h-61l-418 938h100l346 -775l332 775h96z" />
    <glyph glyph-name="w" unicode="w" horiz-adv-x="1449" 
d="M1450 920l-397 -938h-47l-283 747l-285 -747h-45l-393 938h96l314 -750l288 750h54l280 -750l320 750h98z" />
    <glyph glyph-name="x" unicode="x" horiz-adv-x="980" 
d="M956 920l-403 -449l434 -471h-125l-370 406l-369 -406h-111l420 471l-420 449h127l353 -381l350 381h114z" />
    <glyph glyph-name="y" unicode="y" horiz-adv-x="841" 
d="M854 920l-688 -1391h-100l321 649l-387 742h100l336 -644l318 644h100z" />
    <glyph glyph-name="z" unicode="z" horiz-adv-x="817" 
d="M788 920v-37l-604 -791h604v-92h-768v31l609 794h-570v95h729z" />
    <glyph glyph-name="braceleft" unicode="{" horiz-adv-x="681" 
d="M100 397v131q45 1 79.5 17.5t54.5 45.5t33 58.5t18 70.5t6.5 67t1.5 61q0 246 8.5 322t48.5 130q27 35 58 57t65.5 30t57 9.5t55.5 0.5v-113q-44 -1 -69.5 -4.5t-48 -17.5t-33 -33.5t-18 -60.5t-9.5 -90t-2 -130q0 -133 -4 -186t-17 -94q-16 -50 -38 -87t-49.5 -60.5
t-44.5 -34t-44 -23.5q66 -34 92 -58q28 -25 47 -61q39 -72 48.5 -137.5t9.5 -202.5q0 -251 24 -304t156 -60v-111q-166 -3 -229.5 80.5t-63.5 259.5q0 245 -4.5 312.5t-28.5 117.5q-17 34 -36 55t-44 29.5t-38.5 10.5t-41.5 3z" />
    <glyph glyph-name="bar" unicode="|" horiz-adv-x="448" 
d="M172 -471v1886h102v-1886h-102z" />
    <glyph glyph-name="braceright" unicode="}" horiz-adv-x="681" 
d="M584 528v-131q-45 -1 -79.5 -17.5t-55 -45.5t-33.5 -59t-18.5 -70.5t-7 -66.5t-1.5 -60q0 -247 -8.5 -323t-48.5 -130q-27 -35 -57.5 -57t-65 -29.5t-56 -9t-55.5 -0.5v113q43 1 68.5 4.5t47.5 17t32.5 33t18 60.5t9.5 90t2 130q0 130 5 184t18 97q15 50 36.5 87t49 60
t45 34t45.5 24q-30 13 -50 24t-46.5 36t-44.5 59q-39 72 -48.5 137.5t-9.5 202.5q0 252 -24 304t-154 58v113q163 3 228 -80t65 -258q0 -224 1.5 -273t10.5 -96q7 -38 20.5 -66.5t32 -45.5t33.5 -27.5t37.5 -15t31.5 -5.5t26 -2z" />
    <glyph glyph-name="asciitilde" unicode="~" horiz-adv-x="1351" 
d="M139 596v111q162 120 287 120q89 0 270 -86q71 -33 120 -50t69 -20t43 -3q44 0 97 21.5t89 44.5t98 67v-111q-160 -121 -280 -121q-39 0 -87.5 13t-78.5 25.5t-86 37.5q-122 57 -168.5 71.5t-85.5 14.5q-67 0 -126.5 -30.5t-160.5 -104.5z" />
    <glyph glyph-name="uni00A0" unicode="&#xa0;" horiz-adv-x="512" 
 />
    <glyph glyph-name="exclamdown" unicode="&#xa1;" horiz-adv-x="362" 
d="M248 -453h-131l35 1004h57l20 -336zM248 750h-131v194h131v-194z" />
    <glyph glyph-name="cent" unicode="&#xa2;" horiz-adv-x="854" 
d="M840 1311l-138 -389q9 -2 70 -25v-109q-65 32 -102 41l-256 -727q80 -22 127 -22q106 0 252 57v-96q-127 -59 -258 -59q-74 0 -154 22l-139 -387h-90l151 424q-29 18 -49 32.5t-55 50.5t-56.5 75.5t-39 104t-17.5 140.5q0 103 28 188.5t72.5 142t102.5 95.5t116 56.5
t115 17.5q50 0 98 -6l134 373h88zM336 141l254 709q-75 3 -121 -6q-139 -28 -209 -136t-70 -249q0 -57 11.5 -106.5t26 -80.5t38.5 -61t36.5 -41.5t33.5 -28.5z" />
    <glyph glyph-name="sterling" unicode="&#xa3;" horiz-adv-x="1130" 
d="M1038 1397l49 -97q-65 21 -114 21t-94 -14t-80.5 -36t-70 -58.5t-59 -70t-50 -83t-41.5 -85.5t-35 -89.5t-28 -82.5t-23 -77h217v-96h-246l-137 -520q147 14 215 14q64 0 102 -5t164 -28q35 -6 92 -6q108 0 203 51v-108q-31 -14 -45.5 -20t-59 -15.5t-92.5 -9.5
q-52 0 -254 34q-60 9 -137 9q-137 0 -321 -35l172 639h-172v96h198q36 117 57.5 181t63.5 157t88 154q150 198 340 198q46 0 98 -18z" />
    <glyph glyph-name="currency" unicode="&#xa4;" horiz-adv-x="1130" 
d="M973 1171l63 -67l-129 -129q99 -123 99 -277q0 -97 -48 -198q-5 -12 -12 -24t-12 -19t-14 -19t-13 -18l129 -127l-63 -66l-131 127q-125 -96 -281 -96q-152 0 -274 96l-127 -127l-66 66l125 127q-19 27 -29 43t-29 53.5t-28.5 84t-9.5 99.5q0 66 18.5 126t35.5 87.5
t42 61.5l-125 129l66 67l127 -131q33 23 51 33.5t56.5 30t81.5 28.5t91 9q64 0 124 -20t85.5 -36t65.5 -45zM565 1044q-144 0 -246 -100.5t-102 -245.5q0 -143 102 -244.5t246 -101.5q143 0 244.5 102t101.5 244q0 145 -102 245.5t-244 100.5z" />
    <glyph glyph-name="yen" unicode="&#xa5;" horiz-adv-x="1130" 
d="M0 1466h147l424 -729l418 729h141l-430 -729h367v-92h-422l-12 -22v-136h434v-92h-434v-395h-131v395h-439v92h439v136l-13 22h-426v92h371z" />
    <glyph glyph-name="brokenbar" unicode="&#xa6;" horiz-adv-x="448" 
d="M172 664v751h102v-751h-102zM172 -471v752h102v-752h-102z" />
    <glyph glyph-name="section" unicode="&#xa7;" horiz-adv-x="811" 
d="M690 1190h-104q-8 38 -28 65.5t-40 40.5t-46.5 20t-38 8t-23.5 1q-86 0 -137.5 -55t-51.5 -117q0 -49 16 -90.5t74 -109t166 -158.5q159 -135 220 -230.5t61 -189.5q0 -53 -15 -102t-46 -94t-52 -70.5t-59 -65.5q100 -116 100 -244q0 -74 -28.5 -129t-74 -84t-93 -43
t-95.5 -14q-129 0 -205 76q-24 24 -38.5 52t-18.5 45t-10 48h102q27 -131 172 -131q93 0 142 55.5t49 124.5t-53 143t-181 187q-50 44 -72 63.5t-62 58.5t-58 61t-44 57.5t-36.5 63.5t-19.5 64.5t-9 73.5q0 87 44.5 165t127.5 161q-30 38 -48 65.5t-36 78.5t-18 104
q0 125 83.5 197.5t207.5 72.5q47 0 86.5 -10t66 -24.5t48.5 -37.5t33.5 -41t21.5 -44t13 -37.5t7 -30.5zM289 834q-26 -25 -43 -44.5t-41.5 -54t-37.5 -76t-13 -86.5q0 -77 41 -139.5t133 -146.5q13 -13 96.5 -87.5t99.5 -90.5q135 132 135 258q0 46 -19 95t-52 87
q-26 28 -168 168q-112 98 -131 117z" />
    <glyph glyph-name="dieresis" unicode="&#xa8;" horiz-adv-x="681" 
d="M158 1303q37 0 62.5 -26t25.5 -63t-25.5 -63.5t-62.5 -26.5t-62.5 26.5t-25.5 63.5t25.5 63t62.5 26zM524 1303q37 0 63.5 -26t26.5 -63t-26.5 -63.5t-63.5 -26.5q-35 0 -61.5 26.5t-26.5 63.5q0 36 26 62.5t62 26.5z" />
    <glyph glyph-name="copyright" unicode="&#xa9;" horiz-adv-x="1642" 
d="M1153 848l-96 -27q-73 166 -226 166q-27 0 -58 -6.5t-72 -27.5t-73 -55t-54.5 -96t-22.5 -143q0 -168 79 -261t191 -93q48 0 88 15.5t63.5 34t46 52t30.5 52t22 51.5l90 -33q-16 -44 -23.5 -62.5t-32.5 -56.5t-58 -65q-45 -38 -105.5 -58t-116.5 -20q-90 0 -164.5 38.5
t-121 101.5t-72 140t-25.5 158q0 75 24 147t70 133t122.5 98.5t172.5 37.5q104 0 183 -52t139 -169zM821 1415q154 0 295 -60t244 -162t164 -243.5t61 -298.5q0 -155 -60.5 -296t-163 -243.5t-244 -163.5t-296.5 -61t-296.5 60.5t-244 163t-163 244t-60.5 296.5
q0 157 61 299t164 244t244 161.5t295 59.5zM821 1323q-135 0 -259 -52.5t-213.5 -142t-143 -214.5t-53.5 -263q0 -136 53 -260t142 -213.5t213 -142.5t261 -53q109 0 212 34t185.5 96t144.5 144t96 184t34 211q0 184 -91 339t-245.5 244t-335.5 89z" />
    <glyph glyph-name="ordfeminine" unicode="&#xaa;" horiz-adv-x="575" 
d="M573 971v-74q-59 -35 -85 -47t-48 -12q-48 0 -53 59l-9 -6q-9 -6 -12 -7.5t-13 -7t-15 -8t-16 -7.5t-18.5 -7.5t-19.5 -6t-22 -5t-22.5 -3t-24.5 -1.5q-71 0 -121.5 42t-50.5 103q0 51 31 90.5t72 59.5t95.5 33t86 16t59.5 4v63q0 103 -117 103q-51 0 -90 -17t-104 -61
v80q109 61 203 61q111 0 167 -61q27 -34 27 -119v-279q0 -38 16 -38q15 0 84 53zM387 965v161q-75 -2 -129 -17t-79.5 -38t-36.5 -45t-11 -45q0 -38 30.5 -60t74.5 -22q71 0 151 66z" />
    <glyph glyph-name="guillemotleft" unicode="&#xab;" 
d="M549 14h-123l-387 459l387 459h123l-385 -459zM985 14h-121l-387 459l387 459h121l-387 -459z" />
    <glyph glyph-name="logicalnot" unicode="&#xac;" horiz-adv-x="1351" 
d="M139 893v94h1073v-575h-94v481h-979z" />
    <glyph glyph-name="uni00AD" unicode="&#xad;" horiz-adv-x="638" 
d="M563 510v-96h-485v96h485z" />
    <glyph glyph-name="registered" unicode="&#xae;" horiz-adv-x="1642" 
d="M821 1415q154 0 295 -60t244 -162t164 -243.5t61 -298.5q0 -155 -60.5 -296t-163 -243.5t-244 -163.5t-296.5 -61t-296.5 60.5t-244 163t-163 244t-60.5 296.5q0 157 61 299t164 244t244 161.5t295 59.5zM821 1323q-135 0 -259 -52.5t-213.5 -142t-143 -214.5t-53.5 -263
q0 -136 53 -260t142 -213.5t213 -142.5t261 -53q109 0 212 34t185.5 96t144.5 144t96 184t34 211q0 184 -91 339t-245.5 244t-335.5 89zM512 1047h334q75 0 130.5 -20.5t81.5 -46.5t41 -61.5t17 -53t2 -34.5q0 -57 -27 -106.5t-73 -77.5q-42 -27 -137 -43q38 -14 59 -25.5
t45 -33t46.5 -60.5t50 -94.5t67.5 -148.5h-121q-38 84 -60.5 130t-50.5 91.5t-49.5 65t-54 36.5t-67.5 21t-87 4h-47v-348h-100v805zM612 965v-291h133q58 0 97.5 4.5t79 19t59.5 46t20 79.5q0 38 -12.5 65t-32 42t-53 23t-64 10t-77.5 2h-150z" />
    <glyph glyph-name="macron" unicode="&#xaf;" horiz-adv-x="681" 
d="M614 1276v-105h-546v105h546z" />
    <glyph glyph-name="degree" unicode="&#xb0;" horiz-adv-x="811" 
d="M119 1128q0 119 83.5 203t203.5 84t203 -84t83 -203t-83 -202.5t-203 -83.5q-121 0 -204 84t-83 202zM201 1128q0 -84 59.5 -143t145.5 -59q85 0 144.5 58.5t59.5 143.5q0 86 -59.5 145.5t-144.5 59.5q-86 0 -145.5 -60t-59.5 -145z" />
    <glyph glyph-name="plusminus" unicode="&#xb1;" horiz-adv-x="1351" 
d="M629 162v489h-490v94h490v490h94v-490h489v-94h-489v-489h-94zM139 -23v93h1073v-93h-1073z" />
    <glyph glyph-name="two.superior" unicode="&#xb2;" horiz-adv-x="661" 
d="M240 623h376v-64h-559q37 30 75 63.5t99.5 95.5t106.5 119.5t79 126t34 123.5q0 65 -53.5 105.5t-121.5 40.5q-37 0 -72 -13.5t-57.5 -28.5t-68.5 -50v84q104 69 205 69q112 0 183 -63.5t71 -145.5q0 -45 -18.5 -95t-41.5 -89t-70.5 -96t-77 -88.5t-89.5 -93.5z" />
    <glyph glyph-name="three.superior" unicode="&#xb3;" horiz-adv-x="641" 
d="M59 588v65q104 -43 195 -43q81 0 131.5 39.5t50.5 108.5q0 82 -61 117.5t-154 33.5v64q61 0 104.5 14t63.5 36.5t28.5 42t8.5 38.5q0 62 -54 95.5t-122 33.5q-87 0 -182 -59v69q73 51 186 51q115 0 185.5 -53.5t70.5 -132.5q0 -115 -139 -164q149 -49 149 -184
q0 -54 -25.5 -96.5t-65 -66.5t-82.5 -36t-85 -12q-112 0 -203 39z" />
    <glyph glyph-name="acute" unicode="&#xb4;" horiz-adv-x="681" 
d="M686 1386l-311 -319h-68l213 319h166z" />
    <glyph glyph-name="mu" unicode="&#xb5;" horiz-adv-x="1050" 
d="M776 920h98v-775q0 -59 35 -59q39 0 117 43v-88q-43 -25 -98 -42t-82 -17q-70 0 -70 94v61q-98 -155 -252 -155q-69 0 -128.5 28.5t-93 61.5t-75.5 86v-629h-100v1391h100v-637q24 -44 49 -77t60 -65t80.5 -49.5t99.5 -17.5q53 0 96 15.5t69.5 38.5t46 57.5t28.5 63
t14 66t5.5 54.5t0.5 41v510z" />
    <glyph glyph-name="paragraph" unicode="&#xb6;" horiz-adv-x="1323" 
d="M1268 1397v-137h-197v-1735h-129v1735h-266v-1735h-129v1030q-91 0 -165 21t-121.5 58t-81.5 80.5t-51 94t-24.5 90.5t-7.5 78q0 186 126 303t353 117h693z" />
    <glyph glyph-name="periodcentered" unicode="&#xb7;" horiz-adv-x="575" 
d="M289 817q45 0 76.5 -31.5t31.5 -78.5q0 -45 -32.5 -77t-75.5 -32q-46 0 -78.5 32.5t-32.5 76.5q0 45 32 77.5t79 32.5z" />
    <glyph glyph-name="cedilla" unicode="&#xb8;" horiz-adv-x="681" 
d="M406 16l-25 -88q21 -6 31 -9t31.5 -14t33 -23t21.5 -34t10 -49q0 -66 -52 -111.5t-151 -45.5q-25 0 -88 10l10 65q40 -4 64 -4q137 0 137 80q0 18 -6 32t-20 22t-23.5 13.5t-29.5 8t-25.5 3t-22.5 1.5l45 143h60z" />
    <glyph glyph-name="one.superior" unicode="&#xb9;" horiz-adv-x="638" 
d="M362 1286v-727h-86v727h86z" />
    <glyph glyph-name="ordmasculine" unicode="&#xba;" horiz-adv-x="724" 
d="M674 1135q0 -73 -27.5 -131.5t-73 -93.5t-101 -53.5t-114.5 -18.5q-132 0 -219.5 81.5t-87.5 208.5q0 126 88 206.5t223 80.5q75 0 136.5 -25.5t98.5 -67t57 -90t20 -97.5zM584 1128q0 97 -65.5 158.5t-158.5 61.5q-86 0 -151.5 -57.5t-65.5 -162.5t62.5 -164t154.5 -59
q96 0 160 62t64 161z" />
    <glyph glyph-name="guillemotright" unicode="&#xbb;" 
d="M475 932h123l387 -459l-387 -459h-123l385 459zM39 932h121l387 -459l-387 -459h-121l387 459z" />
    <glyph glyph-name="onequarter" unicode="&#xbc;" horiz-adv-x="1705" 
d="M1534 737v-405h115v-58h-115v-274h-86v274h-375v27l420 436h41zM1448 332v268l-258 -268h258zM379 1407v-727h-86v727h86zM1432 1415l-1078 -1470h-80l1078 1470h80z" />
    <glyph glyph-name="onehalf" unicode="&#xbd;" horiz-adv-x="1705" 
d="M375 1407v-727h-86v727h86zM1391 1415l-1078 -1470h-80l1078 1470h80zM1255 63h377v-63h-561q46 37 100.5 87.5t126.5 127.5t119 161.5t47 151.5q0 66 -52.5 107t-119.5 41q-37 0 -72.5 -14t-58.5 -29.5t-67 -50.5v84q99 71 204 71q111 0 182.5 -64t71.5 -145
q0 -38 -10.5 -76.5t-36 -81.5t-46.5 -74.5t-64 -80.5t-66 -73.5t-74 -78.5z" />
    <glyph glyph-name="threequarters" unicode="&#xbe;" horiz-adv-x="1705" 
d="M76 709v65q1 0 15 -6t21 -8t23 -7.5t29 -8.5t30.5 -6.5t36.5 -5t39 -1.5q81 0 132 39.5t51 108.5q0 82 -61 117.5t-154 33.5v64q62 0 105.5 14t63 36.5t27.5 42t8 38.5q0 62 -54 95.5t-122 33.5q-85 0 -182 -60v70q73 51 186 51q115 0 185.5 -53.5t70.5 -132.5
q0 -115 -137 -164q148 -50 148 -184q0 -54 -25 -96.5t-64.5 -66.5t-83 -36t-85.5 -12q-112 0 -203 39zM1432 1415l-1078 -1470h-80l1078 1470h80zM1534 737v-405h115v-58h-115v-274h-86v274h-375v27l420 436h41zM1448 332v268l-258 -268h258z" />
    <glyph glyph-name="questiondown" unicode="&#xbf;" horiz-adv-x="575" 
d="M270 584l37 28q80 -91 80 -188q0 -65 -23.5 -116t-109.5 -193q-107 -170 -107 -299q0 -76 44.5 -133.5t111.5 -57.5q101 0 164 109h20l-49 -162q-71 -43 -139 -43q-110 0 -183 79t-73 212q0 77 29 157.5t71 143.5q111 167 138.5 219t27.5 113q0 25 -5.5 48t-11.5 36.5
t-22 46.5zM231 745v199h134v-199h-134z" />
    <glyph glyph-name="Agrave" unicode="&#xc0;" horiz-adv-x="1366" 
d="M713 1407l645 -1407h-113l-221 483h-682l-221 -483h-113l641 1407h64zM981 575l-299 656l-301 -656h600zM598 1753l250 -262h-100l-400 262h250z" />
    <glyph glyph-name="Aacute" unicode="&#xc1;" horiz-adv-x="1366" 
d="M713 1407l645 -1407h-113l-221 483h-682l-221 -483h-113l641 1407h64zM981 575l-299 656l-301 -656h600zM768 1753h250l-400 -262h-100z" />
    <glyph glyph-name="Acircumflex" unicode="&#xc2;" horiz-adv-x="1366" 
d="M713 1407l645 -1407h-113l-221 483h-682l-221 -483h-113l641 1407h64zM981 575l-299 656l-301 -656h600zM1020 1491h-105l-233 180l-227 -180h-109l254 281h160z" />
    <glyph glyph-name="Atilde" unicode="&#xc3;" horiz-adv-x="1366" 
d="M713 1407l645 -1407h-113l-221 483h-682l-221 -483h-113l641 1407h64zM981 575l-299 656l-301 -656h600zM428 1507h-84q-4 101 21 154q19 42 60.5 66t86.5 24q83 0 242 -80q92 -45 123 -45q34 0 46 28t17 101h84q0 -3 -0.5 -17.5t-0.5 -17.5t-0.5 -15.5t-1 -16t-1.5 -14
t-2 -15.5t-2.5 -13.5t-3 -14.5l-3.5 -14t-5 -15q-20 -48 -59.5 -70.5t-76.5 -22.5q-89 0 -245 76q-94 45 -127 45q-21 0 -34.5 -8t-20 -27.5t-9 -37t-4.5 -50.5z" />
    <glyph glyph-name="Adieresis" unicode="&#xc4;" horiz-adv-x="1366" 
d="M713 1407l645 -1407h-113l-221 483h-682l-221 -483h-113l641 1407h64zM981 575l-299 656l-301 -656h600zM489 1722q37 0 64 -26.5t27 -63.5q0 -36 -27 -62t-64 -26t-62.5 25.5t-25.5 62.5t25.5 63.5t62.5 26.5zM877 1720q37 0 62.5 -26.5t25.5 -63.5q0 -36 -26 -62
t-62 -26q-37 0 -63 25.5t-26 62.5q0 38 26.5 64t62.5 26z" />
    <glyph glyph-name="Aring" unicode="&#xc5;" horiz-adv-x="1366" 
d="M713 1407l645 -1407h-113l-221 483h-682l-221 -483h-113l641 1407h64zM981 575l-299 656l-301 -656h600zM684 1919q88 0 150.5 -62.5t62.5 -150.5q0 -89 -62.5 -152t-150.5 -63t-151.5 62.5t-63.5 152.5q0 89 63 151t152 62zM680 1855q-62 0 -107 -43.5t-45 -105.5
q0 -64 45 -108t107 -44q63 0 107 44.5t44 107.5q0 62 -44 105.5t-107 43.5z" />
    <glyph glyph-name="AE" unicode="&#xc6;" horiz-adv-x="1771" 
d="M1675 1397v-88h-655v-559h641v-91h-641v-569h674v-90h-785v659h-409l-410 -659h-119l873 1397h831zM909 750v573l-350 -573h350z" />
    <glyph glyph-name="Ccedilla" unicode="&#xc7;" horiz-adv-x="1388" 
d="M1317 225v-112q-251 -131 -496 -131l-16 -60q59 -9 98.5 -28.5t56 -45t22 -43.5t5.5 -36q0 -29 -12.5 -57t-41 -56.5t-85.5 -46t-135 -17.5q-40 0 -142 11l13 78q102 -7 127 -7q20 0 39.5 2t56 9t58.5 27.5t22 51.5q0 47 -49.5 64.5t-141.5 19.5l39 138q-299 35 -478 231
t-179 479q0 116 31.5 218.5t85.5 180t125.5 139.5t153.5 101t166.5 59.5t166.5 20.5q243 0 496 -117v-118q-52 27 -90.5 44.5t-102 41t-135 35.5t-146.5 12q-183 0 -326.5 -78.5t-222.5 -218.5t-79 -318q0 -138 49 -254t132.5 -194t195 -121t235.5 -43q238 0 504 139z" />
    <glyph glyph-name="Egrave" unicode="&#xc8;" horiz-adv-x="1028" 
d="M926 1397v-90h-654v-557h637v-91h-637v-571h670v-88h-778v1397h762zM449 1753l249 -262h-100l-399 262h250z" />
    <glyph glyph-name="Eacute" unicode="&#xc9;" horiz-adv-x="1028" 
d="M926 1397v-90h-654v-557h637v-91h-637v-571h670v-88h-778v1397h762zM670 1753h250l-400 -262h-100z" />
    <glyph glyph-name="Ecircumflex" unicode="&#xca;" horiz-adv-x="1028" 
d="M926 1397v-90h-654v-557h637v-91h-637v-571h670v-88h-778v1397h762zM870 1491h-104l-234 180l-227 -180h-108l254 281h159z" />
    <glyph glyph-name="Edieresis" unicode="&#xcb;" horiz-adv-x="1028" 
d="M926 1397v-90h-654v-557h637v-91h-637v-571h670v-88h-778v1397h762zM340 1722q37 0 63.5 -26.5t26.5 -63.5t-26.5 -62.5t-63.5 -25.5t-62.5 25.5t-25.5 62.5t25.5 63.5t62.5 26.5zM727 1720q37 0 62.5 -26.5t25.5 -63.5q0 -36 -26 -62t-62 -26q-37 0 -62.5 25.5
t-25.5 62.5q0 38 26 64t62 26z" />
    <glyph glyph-name="Igrave" unicode="&#xcc;" horiz-adv-x="438" 
d="M274 1397v-1397h-110v1397h110zM135 1753l250 -262h-100l-400 262h250z" />
    <glyph glyph-name="Iacute" unicode="&#xcd;" horiz-adv-x="438" 
d="M274 1397v-1397h-110v1397h110zM305 1753h250l-399 -262h-101z" />
    <glyph glyph-name="Icircumflex" unicode="&#xce;" horiz-adv-x="438" 
d="M274 1397v-1397h-110v1397h110zM557 1491h-104l-234 180l-227 -180h-109l254 281h160z" />
    <glyph glyph-name="Idieresis" unicode="&#xcf;" horiz-adv-x="438" 
d="M274 1397v-1397h-110v1397h110zM27 1722q37 0 63.5 -26.5t26.5 -63.5t-26.5 -62.5t-63.5 -25.5t-62.5 25.5t-25.5 62.5t25.5 63.5t62.5 26.5zM414 1720q37 0 62.5 -26.5t25.5 -63.5q0 -36 -26 -62t-62 -26q-37 0 -62.5 25.5t-25.5 62.5q0 38 26 64t62 26z" />
    <glyph glyph-name="Eth" unicode="&#xd0;" horiz-adv-x="1515" 
d="M162 655h-162v86h162v656h424q98 0 145 -1.5t115.5 -10t123.5 -28.5t115 -54q159 -92 243.5 -250.5t84.5 -347.5q0 -114 -32 -226t-108.5 -218.5t-187.5 -164.5q-67 -35 -122.5 -55.5t-122 -29t-112 -10t-142.5 -1.5h-424v655zM723 655h-453v-567h328q140 0 228 16.5
t198 79.5q124 72 196 214t72 304q0 65 -13 129.5t-42 133t-83.5 132t-129.5 111.5q-100 64 -187 81.5t-239 17.5h-328v-566h453v-86z" />
    <glyph glyph-name="Ntilde" unicode="&#xd1;" horiz-adv-x="1587" 
d="M1423 1397v-1397h-90l-1061 1229v-1229h-108v1397h100l1051 -1221v1221h108zM539 1507h-84q-4 32 -0.5 75.5t20.5 78.5q19 42 61 66t87 24q82 0 241 -80q92 -45 123 -45q35 0 47 28.5t17 100.5h84q-3 -105 -21 -153q-20 -48 -59 -70.5t-76 -22.5q-90 0 -246 76
q-94 45 -127 45q-21 0 -34.5 -8t-20 -27.5t-8.5 -36.5t-4 -51z" />
    <glyph glyph-name="Ograve" unicode="&#xd2;" horiz-adv-x="1636" 
d="M1559 705q0 -154 -59 -289.5t-159.5 -230t-236.5 -149t-287 -54.5q-206 0 -375.5 95.5t-266.5 260t-97 362.5q0 142 53.5 271.5t148 228t235 157t304.5 58.5q162 0 302 -58t235 -155.5t149 -226.5t54 -270zM1438 705q0 119 -45.5 229t-125.5 193.5t-196.5 133.5
t-249.5 50q-175 0 -317.5 -82t-222.5 -223t-80 -310q0 -164 78 -304t219.5 -224t316.5 -84q121 0 233 44t199 123t139 197t52 257zM754 1753l250 -262h-101l-399 262h250z" />
    <glyph glyph-name="Oacute" unicode="&#xd3;" horiz-adv-x="1636" 
d="M1559 705q0 -154 -59 -289.5t-159.5 -230t-236.5 -149t-287 -54.5q-206 0 -375.5 95.5t-266.5 260t-97 362.5q0 142 53.5 271.5t148 228t235 157t304.5 58.5q162 0 302 -58t235 -155.5t149 -226.5t54 -270zM1438 705q0 119 -45.5 229t-125.5 193.5t-196.5 133.5
t-249.5 50q-175 0 -317.5 -82t-222.5 -223t-80 -310q0 -164 78 -304t219.5 -224t316.5 -84q121 0 233 44t199 123t139 197t52 257zM903 1753h250l-399 -262h-101z" />
    <glyph glyph-name="Ocircumflex" unicode="&#xd4;" horiz-adv-x="1636" 
d="M1559 705q0 -154 -59 -289.5t-159.5 -230t-236.5 -149t-287 -54.5q-206 0 -375.5 95.5t-266.5 260t-97 362.5q0 142 53.5 271.5t148 228t235 157t304.5 58.5q162 0 302 -58t235 -155.5t149 -226.5t54 -270zM1438 705q0 119 -45.5 229t-125.5 193.5t-196.5 133.5
t-249.5 50q-175 0 -317.5 -82t-222.5 -223t-80 -310q0 -164 78 -304t219.5 -224t316.5 -84q121 0 233 44t199 123t139 197t52 257zM1155 1491h-104l-234 180l-227 -180h-109l254 281h160z" />
    <glyph glyph-name="Otilde" unicode="&#xd5;" horiz-adv-x="1636" 
d="M1559 705q0 -154 -59 -289.5t-159.5 -230t-236.5 -149t-287 -54.5q-206 0 -375.5 95.5t-266.5 260t-97 362.5q0 142 53.5 271.5t148 228t235 157t304.5 58.5q162 0 302 -58t235 -155.5t149 -226.5t54 -270zM1438 705q0 119 -45.5 229t-125.5 193.5t-196.5 133.5
t-249.5 50q-175 0 -317.5 -82t-222.5 -223t-80 -310q0 -164 78 -304t219.5 -224t316.5 -84q121 0 233 44t199 123t139 197t52 257zM563 1507h-84q-4 101 21 154q19 42 60.5 66t86.5 24q83 0 242 -80q92 -45 123 -45q34 0 46 28t17 101h84q0 -3 -0.5 -17.5t-0.5 -17.5
t-0.5 -15.5t-1 -16t-1.5 -14t-2 -15.5t-2.5 -13.5t-3 -14.5l-3.5 -14t-5 -15q-20 -48 -59 -70.5t-76 -22.5q-90 0 -246 76q-94 45 -127 45q-21 0 -34.5 -8t-20 -27.5t-9 -37t-4.5 -50.5z" />
    <glyph glyph-name="Odieresis" unicode="&#xd6;" horiz-adv-x="1636" 
d="M1559 705q0 -154 -59 -289.5t-159.5 -230t-236.5 -149t-287 -54.5q-206 0 -375.5 95.5t-266.5 260t-97 362.5q0 142 53.5 271.5t148 228t235 157t304.5 58.5q162 0 302 -58t235 -155.5t149 -226.5t54 -270zM1438 705q0 119 -45.5 229t-125.5 193.5t-196.5 133.5
t-249.5 50q-175 0 -317.5 -82t-222.5 -223t-80 -310q0 -164 78 -304t219.5 -224t316.5 -84q121 0 233 44t199 123t139 197t52 257zM625 1722q37 0 63.5 -26.5t26.5 -63.5t-26.5 -62.5t-63.5 -25.5t-62.5 25.5t-25.5 62.5t25.5 63.5t62.5 26.5zM1012 1720q37 0 62.5 -26.5
t25.5 -63.5q0 -36 -26 -62t-62 -26q-37 0 -62.5 25.5t-25.5 62.5q0 38 26 64t62 26z" />
    <glyph glyph-name="multiply" unicode="&#xd7;" horiz-adv-x="1351" 
d="M264 352l346 346l-346 346l66 66l346 -346l346 346l65 -66l-346 -346l346 -346l-65 -65l-346 346l-346 -346z" />
    <glyph glyph-name="Oslash" unicode="&#xd8;" horiz-adv-x="1640" 
d="M1481 1356l-131 -146q27 -28 46 -49.5t53.5 -73t56.5 -102t39.5 -127.5t17.5 -160q0 -152 -59.5 -286t-160 -228t-236 -148t-284.5 -54q-237 0 -452 137l-127 -142l-78 60l133 143q-82 82 -125 156q-96 175 -96 360q0 107 31.5 210.5t95 195.5t151 162t209 110.5
t260.5 40.5q87 0 163 -14.5t134 -41.5t87 -44t65 -43l131 135zM1274 1124l-830 -923q170 -121 373 -121q139 0 258 52t199 138.5t125 198t45 229.5t-44 228t-126 198zM373 264l829 924q-161 127 -377 127q-136 0 -254 -51.5t-198.5 -137t-126 -198t-45.5 -234.5
q0 -164 75 -305q36 -64 97 -125z" />
    <glyph glyph-name="Ugrave" unicode="&#xd9;" horiz-adv-x="1429" 
d="M1298 1397v-705q0 -165 -19 -265.5t-79 -193.5q-69 -108 -191 -179.5t-288 -71.5q-94 0 -183.5 24t-173 81.5t-131.5 141.5q-48 82 -71 163t-27 137.5t-4 162.5v705h107v-725q0 -240 75 -369q56 -96 156.5 -158.5t243.5 -62.5q128 0 239 57.5t162 159.5q45 87 61.5 174
t16.5 199v725h106zM631 1753l250 -262h-101l-399 262h250z" />
    <glyph glyph-name="Uacute" unicode="&#xda;" horiz-adv-x="1429" 
d="M1298 1397v-705q0 -165 -19 -265.5t-79 -193.5q-69 -108 -191 -179.5t-288 -71.5q-94 0 -183.5 24t-173 81.5t-131.5 141.5q-48 82 -71 163t-27 137.5t-4 162.5v705h107v-725q0 -240 75 -369q56 -96 156.5 -158.5t243.5 -62.5q128 0 239 57.5t162 159.5q45 87 61.5 174
t16.5 199v725h106zM801 1753h250l-400 -262h-100z" />
    <glyph glyph-name="Ucircumflex" unicode="&#xdb;" horiz-adv-x="1429" 
d="M1298 1397v-705q0 -165 -19 -265.5t-79 -193.5q-69 -108 -191 -179.5t-288 -71.5q-94 0 -183.5 24t-173 81.5t-131.5 141.5q-48 82 -71 163t-27 137.5t-4 162.5v705h107v-725q0 -240 75 -369q56 -96 156.5 -158.5t243.5 -62.5q128 0 239 57.5t162 159.5q45 87 61.5 174
t16.5 199v725h106zM1053 1491h-105l-233 180l-228 -180h-108l254 281h160z" />
    <glyph glyph-name="Udieresis" unicode="&#xdc;" horiz-adv-x="1429" 
d="M1298 1397v-705q0 -165 -19 -265.5t-79 -193.5q-69 -108 -191 -179.5t-288 -71.5q-94 0 -183.5 24t-173 81.5t-131.5 141.5q-48 82 -71 163t-27 137.5t-4 162.5v705h107v-725q0 -240 75 -369q56 -96 156.5 -158.5t243.5 -62.5q128 0 239 57.5t162 159.5q45 87 61.5 174
t16.5 199v725h106zM522 1722q37 0 63.5 -26.5t26.5 -63.5t-26.5 -62.5t-63.5 -25.5t-62.5 25.5t-25.5 62.5t25.5 63.5t62.5 26.5zM909 1720q37 0 62.5 -26.5t25.5 -63.5q0 -36 -26 -62t-62 -26q-37 0 -62.5 25.5t-25.5 62.5q0 38 26 64t62 26z" />
    <glyph glyph-name="Yacute" unicode="&#xdd;" horiz-adv-x="1193" 
d="M1196 1397l-547 -647v-750h-108v750l-541 647h131l465 -553l467 553h133zM743 1753h250l-399 -262h-100z" />
    <glyph glyph-name="Thorn" unicode="&#xde;" horiz-adv-x="1044" 
d="M162 1397h106v-326h176q158 0 234.5 -10.5t146.5 -48.5q82 -47 128 -127t46 -183q0 -107 -50 -193.5t-130 -123.5q-82 -38 -154 -47.5t-206 -9.5h-191v-328h-106v1397zM449 981h-181v-565h197q114 0 184 12.5t129 50.5q46 30 73.5 91.5t27.5 129.5q0 66 -27.5 125.5
t-75.5 92.5q-46 33 -116.5 48t-210.5 15z" />
    <glyph glyph-name="germandbls" unicode="&#xdf;" 
d="M446 0v102q73 -26 125 -26q125 0 196 92t71 235q0 151 -77 234.5t-202 91.5v92q45 0 81 13.5t58.5 33t38.5 47.5t23.5 50.5t12 49t5 37t0.5 19.5q0 125 -76 193.5t-192 68.5q-82 0 -147.5 -30.5t-96.5 -94.5q-29 -64 -36 -121.5t-7 -193.5v-893h-96v893q0 157 12.5 237.5
t61.5 147.5q53 73 136.5 105t168.5 32q164 0 268.5 -95t104.5 -243q0 -131 -91 -235q-35 -39 -94 -66q22 -9 35 -15t42 -22.5t48 -33.5t44 -47.5t40 -64t26 -82.5t11 -105q0 -177 -100.5 -300.5t-266.5 -123.5q-53 0 -127 18z" />
    <glyph glyph-name="agrave" unicode="&#xe0;" horiz-adv-x="851" 
d="M846 160v-82q-135 -96 -184 -96q-39 0 -51 25.5t-17 88.5q-145 -114 -289 -114q-102 0 -176 67t-74 164q0 62 24 113t60 84.5t89 59.5t100 40t104.5 23.5t91 12.5t70.5 5v117q0 182 -203 182q-78 0 -140 -26t-142 -85v101q47 28 73.5 42.5t92 35t128.5 20.5
q64 0 129.5 -20.5t102.5 -61.5t47 -84t10 -131v-471q0 -76 2 -82q5 -10 19 -10q19 0 61 28t72 54zM594 182v289q-171 -6 -252 -39q-79 -32 -132.5 -87t-53.5 -132q0 -74 58.5 -113t123.5 -39q125 0 256 121zM35 1386h166l215 -319h-70z" />
    <glyph glyph-name="aacute" unicode="&#xe1;" horiz-adv-x="851" 
d="M846 160v-82q-135 -96 -184 -96q-39 0 -51 25.5t-17 88.5q-145 -114 -289 -114q-102 0 -176 67t-74 164q0 62 24 113t60 84.5t89 59.5t100 40t104.5 23.5t91 12.5t70.5 5v117q0 182 -203 182q-78 0 -140 -26t-142 -85v101q47 28 73.5 42.5t92 35t128.5 20.5
q64 0 129.5 -20.5t102.5 -61.5t47 -84t10 -131v-471q0 -76 2 -82q5 -10 19 -10q19 0 61 28t72 54zM594 182v289q-171 -6 -252 -39q-79 -32 -132.5 -87t-53.5 -132q0 -74 58.5 -113t123.5 -39q125 0 256 121zM766 1386l-311 -319h-68l213 319h166z" />
    <glyph glyph-name="acircumflex" unicode="&#xe2;" horiz-adv-x="851" 
d="M846 160v-82q-135 -96 -184 -96q-39 0 -51 25.5t-17 88.5q-145 -114 -289 -114q-102 0 -176 67t-74 164q0 62 24 113t60 84.5t89 59.5t100 40t104.5 23.5t91 12.5t70.5 5v117q0 182 -203 182q-78 0 -140 -26t-142 -85v101q47 28 73.5 42.5t92 35t128.5 20.5
q64 0 129.5 -20.5t102.5 -61.5t47 -84t10 -131v-471q0 -76 2 -82q5 -10 19 -10q19 0 61 28t72 54zM594 182v289q-171 -6 -252 -39q-79 -32 -132.5 -87t-53.5 -132q0 -74 58.5 -113t123.5 -39q125 0 256 121zM444 1384l218 -335h-78l-201 223l-207 -223h-78l221 335h125z" />
    <glyph glyph-name="atilde" unicode="&#xe3;" horiz-adv-x="851" 
d="M846 160v-82q-135 -96 -184 -96q-39 0 -51 25.5t-17 88.5q-145 -114 -289 -114q-102 0 -176 67t-74 164q0 62 24 113t60 84.5t89 59.5t100 40t104.5 23.5t91 12.5t70.5 5v117q0 182 -203 182q-78 0 -140 -26t-142 -85v101q47 28 73.5 42.5t92 35t128.5 20.5
q64 0 129.5 -20.5t102.5 -61.5t47 -84t10 -131v-471q0 -76 2 -82q5 -10 19 -10q19 0 61 28t72 54zM594 182v289q-171 -6 -252 -39q-79 -32 -132.5 -87t-53.5 -132q0 -74 58.5 -113t123.5 -39q125 0 256 121zM111 1122h-66q16 195 164 195q40 0 81 -10.5t116 -40.5
q111 -45 155 -45q27 0 46 9.5t28 27t12.5 30t5.5 29.5h62q1 -52 -15.5 -91.5t-38 -58.5t-49 -30.5t-41.5 -14t-22 -2.5q-48 0 -170 45q-104 37 -132 45.5t-50 8.5q-39 0 -60 -27.5t-26 -69.5z" />
    <glyph glyph-name="adieresis" unicode="&#xe4;" horiz-adv-x="851" 
d="M846 160v-82q-135 -96 -184 -96q-39 0 -51 25.5t-17 88.5q-145 -114 -289 -114q-102 0 -176 67t-74 164q0 62 24 113t60 84.5t89 59.5t100 40t104.5 23.5t91 12.5t70.5 5v117q0 182 -203 182q-78 0 -140 -26t-142 -85v101q47 28 73.5 42.5t92 35t128.5 20.5
q64 0 129.5 -20.5t102.5 -61.5t47 -84t10 -131v-471q0 -76 2 -82q5 -10 19 -10q19 0 61 28t72 54zM594 182v289q-171 -6 -252 -39q-79 -32 -132.5 -87t-53.5 -132q0 -74 58.5 -113t123.5 -39q125 0 256 121zM197 1303q37 0 62.5 -26t25.5 -63t-25.5 -63.5t-62.5 -26.5
t-62.5 26.5t-25.5 63.5t25.5 63t62.5 26zM563 1303q37 0 63.5 -26t26.5 -63t-26.5 -63.5t-63.5 -26.5q-35 0 -61.5 26.5t-26.5 63.5q0 36 26.5 62.5t61.5 26.5z" />
    <glyph glyph-name="aring" unicode="&#xe5;" horiz-adv-x="851" 
d="M846 160v-82q-135 -96 -184 -96q-39 0 -51 25.5t-17 88.5q-145 -114 -289 -114q-102 0 -176 67t-74 164q0 62 24 113t60 84.5t89 59.5t100 40t104.5 23.5t91 12.5t70.5 5v117q0 182 -203 182q-78 0 -140 -26t-142 -85v101q47 28 73.5 42.5t92 35t128.5 20.5
q64 0 129.5 -20.5t102.5 -61.5t47 -84t10 -131v-471q0 -76 2 -82q5 -10 19 -10q19 0 61 28t72 54zM594 182v289q-171 -6 -252 -39q-79 -32 -132.5 -87t-53.5 -132q0 -74 58.5 -113t123.5 -39q125 0 256 121zM381 1391q72 0 124 -52t52 -127q0 -72 -51.5 -124t-124.5 -52
t-125.5 52t-52.5 124q0 74 52.5 126.5t125.5 52.5zM381 1335q-51 0 -86 -35t-35 -86q0 -50 35 -85t86 -35q49 0 84 35t35 85q0 51 -34.5 86t-84.5 35z" />
    <glyph glyph-name="ae" unicode="&#xe6;" horiz-adv-x="1353" 
d="M1278 498h-594v-76q0 -140 27 -193q20 -43 49.5 -74t62.5 -47t63 -23t60 -7q167 0 332 121v-113q-168 -104 -342 -104q-171 0 -291 143q-97 -70 -178 -106.5t-168 -36.5q-58 0 -105.5 21.5t-77 56t-45.5 75.5t-16 84q0 44 14.5 82.5t37.5 68t63 56t80.5 46.5t100 39.5
t112 34t125.5 32.5q0 104 -10 149q-11 49 -46 78.5t-65 37t-61 7.5q-141 0 -308 -117v103q145 102 322 102q58 0 102 -13.5t73 -40t42 -43t29 -44.5q21 28 37 45t48.5 43t76 39.5t96.5 13.5q40 0 81 -10t85 -33t82.5 -66.5t62.5 -103.5q38 -92 43 -227zM684 578h485
q-8 90 -43 151q-29 52 -83 84.5t-121 32.5q-98 0 -166.5 -74t-71.5 -194zM588 182v316q-55 -15 -85 -23.5t-83 -25.5t-84 -31.5t-70 -37t-60.5 -45.5t-36.5 -53.5t-15 -64.5q0 -64 48 -107.5t122 -43.5q113 0 264 116z" />
    <glyph glyph-name="ccedilla" unicode="&#xe7;" horiz-adv-x="837" 
d="M786 131v-102q-142 -45 -245 -47l-33 -68q58 0 100 -25q27 -16 44.5 -45t17.5 -63q0 -21 -6 -42t-28.5 -48t-59.5 -46t-106.5 -30t-162.5 -6l15 76q20 1 25.5 1t27.5 1t32 2.5t30.5 4t31 6l27 9t25.5 12.5t18.5 16t13.5 20.5t4 25.5q0 24 -14.5 39.5t-42.5 21.5
t-49.5 7.5t-55.5 1.5l64 133q-172 28 -275.5 145t-103.5 324q0 217 129 350t317 133q49 0 99 -8.5t74.5 -15t70.5 -21.5v-109q-45 20 -69.5 29.5t-75.5 21t-101 11.5q-156 0 -248 -112t-92 -279q0 -76 22 -143.5t64 -121t111 -85t156 -31.5q119 0 249 57z" />
    <glyph glyph-name="egrave" unicode="&#xe8;" horiz-adv-x="976" 
d="M903 496h-721q-4 -105 27 -188.5t84.5 -133t117.5 -75t132 -25.5q62 0 118 14t101.5 40t70 44t54.5 43v-111q-154 -122 -355 -122q-109 0 -198 41.5t-144.5 111t-85.5 156t-30 180.5q0 124 49.5 229t147.5 171.5t225 66.5q73 0 136.5 -21.5t107.5 -57.5t74.5 -76
t49.5 -85q35 -79 39 -202zM193 573h593q-18 90 -55 148q-36 60 -98 94.5t-137 34.5q-102 0 -190 -72t-113 -205zM209 1386h166l215 -319h-70z" />
    <glyph glyph-name="eacute" unicode="&#xe9;" horiz-adv-x="976" 
d="M903 496h-721q-4 -105 27 -188.5t84.5 -133t117.5 -75t132 -25.5q62 0 118 14t101.5 40t70 44t54.5 43v-111q-154 -122 -355 -122q-109 0 -198 41.5t-144.5 111t-85.5 156t-30 180.5q0 124 49.5 229t147.5 171.5t225 66.5q73 0 136.5 -21.5t107.5 -57.5t74.5 -76
t49.5 -85q35 -79 39 -202zM193 573h593q-18 90 -55 148q-36 60 -98 94.5t-137 34.5q-102 0 -190 -72t-113 -205zM838 1386l-312 -319h-67l213 319h166z" />
    <glyph glyph-name="ecircumflex" unicode="&#xea;" horiz-adv-x="976" 
d="M903 496h-721q-4 -105 27 -188.5t84.5 -133t117.5 -75t132 -25.5q62 0 118 14t101.5 40t70 44t54.5 43v-111q-154 -122 -355 -122q-109 0 -198 41.5t-144.5 111t-85.5 156t-30 180.5q0 124 49.5 229t147.5 171.5t225 66.5q73 0 136.5 -21.5t107.5 -57.5t74.5 -76
t49.5 -85q35 -79 39 -202zM193 573h593q-18 90 -55 148q-36 60 -98 94.5t-137 34.5q-102 0 -190 -72t-113 -205zM567 1384l217 -335h-77l-201 223l-207 -223h-78l221 335h125z" />
    <glyph glyph-name="edieresis" unicode="&#xeb;" horiz-adv-x="976" 
d="M903 496h-721q-4 -105 27 -188.5t84.5 -133t117.5 -75t132 -25.5q62 0 118 14t101.5 40t70 44t54.5 43v-111q-154 -122 -355 -122q-109 0 -198 41.5t-144.5 111t-85.5 156t-30 180.5q0 124 49.5 229t147.5 171.5t225 66.5q73 0 136.5 -21.5t107.5 -57.5t74.5 -76
t49.5 -85q35 -79 39 -202zM193 573h593q-18 90 -55 148q-36 60 -98 94.5t-137 34.5q-102 0 -190 -72t-113 -205zM319 1303q37 0 63 -26t26 -63t-26 -63.5t-63 -26.5t-62.5 26.5t-25.5 63.5t25.5 63t62.5 26zM686 1303q37 0 63.5 -26t26.5 -63t-26.5 -63.5t-63.5 -26.5
q-35 0 -61.5 26.5t-26.5 63.5q0 36 26 62.5t62 26.5z" />
    <glyph glyph-name="igrave" unicode="&#xec;" horiz-adv-x="382" 
d="M240 920v-920h-97v920h97zM-154 1386h166l215 -319h-69z" />
    <glyph glyph-name="iacute" unicode="&#xed;" horiz-adv-x="382" 
d="M240 920v-920h-97v920h97zM537 1386l-312 -319h-67l213 319h166z" />
    <glyph glyph-name="icircumflex" unicode="&#xee;" horiz-adv-x="382" 
d="M240 920v-920h-97v920h97zM256 1384l217 -335h-78l-200 223l-207 -223h-78l221 335h125z" />
    <glyph glyph-name="idieresis" unicode="&#xef;" horiz-adv-x="382" 
d="M240 920v-920h-97v920h97zM8 1303q37 0 62.5 -26t25.5 -63t-25.5 -63.5t-62.5 -26.5t-62.5 26.5t-25.5 63.5t25.5 63t62.5 26zM375 1303q37 0 63.5 -26t26.5 -63t-26.5 -63.5t-63.5 -26.5q-35 0 -61.5 26.5t-26.5 63.5q0 36 26.5 62.5t61.5 26.5z" />
    <glyph glyph-name="eth" unicode="&#xf0;" horiz-adv-x="1153" 
d="M659 1266l164 80l33 -66l-131 -61q45 -35 73.5 -61t71.5 -77t80 -114q127 -216 127 -453q0 -131 -40.5 -234.5t-111 -167.5t-161 -97t-195.5 -33q-112 0 -206.5 41.5t-154.5 109t-93 151t-33 169.5q0 69 19.5 137.5t61 131.5t99 111t140 76.5t178.5 28.5q61 0 116 -12.5
t89 -27t71.5 -41.5t51.5 -40t40 -39q-57 137 -120.5 218.5t-188.5 174.5l-229 -110l-33 63l194 95q-73 40 -116.5 58.5t-126.5 45.5l39 74q88 -26 143 -50t149 -81zM977 463q0 100 -36 178t-94.5 123t-126 67.5t-138.5 22.5q-118 0 -212 -57t-143 -148.5t-49 -197.5
q0 -164 114 -272.5t292 -108.5q173 0 283 104t110 289z" />
    <glyph glyph-name="ntilde" unicode="&#xf1;" horiz-adv-x="1003" 
d="M225 920v-160q17 23 21.5 29t25.5 31t34 35.5t39.5 30t51 28.5t58.5 16.5t71 7.5q81 0 157.5 -34t117.5 -95q44 -65 58.5 -137.5t14.5 -173.5v-498h-98v489q0 99 -14 154.5t-43 95.5q-33 47 -87.5 76t-117.5 29q-122 0 -223 -101q-37 -41 -66 -98v-645h-98v920h98z
M233 1122h-65q16 195 164 195q40 0 80 -10.5t116 -40.5q111 -45 156 -45q27 0 46 9.5t28 27t12.5 30t5.5 29.5h62q1 -52 -15.5 -91.5t-38 -58.5t-49 -30.5t-41.5 -14t-22 -2.5q-48 0 -170 45q-103 37 -132 45.5t-51 8.5q-39 0 -60 -27.5t-26 -69.5z" />
    <glyph glyph-name="ograve" unicode="&#xf2;" horiz-adv-x="1083" 
d="M543 938q140 0 247.5 -65.5t163.5 -173.5t56 -240q0 -144 -67.5 -255t-172.5 -166.5t-227 -55.5t-227.5 55.5t-173.5 166.5t-68 255q0 130 55 238t163.5 174.5t250.5 66.5zM543 846q-65 0 -128 -24.5t-116 -70.5t-86 -121.5t-33 -168.5q0 -171 105 -280t258 -109
t257.5 109t104.5 280q0 91 -32 166t-84 121.5t-115.5 72t-130.5 25.5zM250 1386h166l215 -319h-70z" />
    <glyph glyph-name="oacute" unicode="&#xf3;" horiz-adv-x="1083" 
d="M543 938q140 0 247.5 -65.5t163.5 -173.5t56 -240q0 -144 -67.5 -255t-172.5 -166.5t-227 -55.5t-227.5 55.5t-173.5 166.5t-68 255q0 130 55 238t163.5 174.5t250.5 66.5zM543 846q-65 0 -128 -24.5t-116 -70.5t-86 -121.5t-33 -168.5q0 -171 105 -280t258 -109
t257.5 109t104.5 280q0 91 -32 166t-84 121.5t-115.5 72t-130.5 25.5zM858 1386l-311 -319h-68l213 319h166z" />
    <glyph glyph-name="ocircumflex" unicode="&#xf4;" horiz-adv-x="1083" 
d="M543 938q140 0 247.5 -65.5t163.5 -173.5t56 -240q0 -144 -67.5 -255t-172.5 -166.5t-227 -55.5t-227.5 55.5t-173.5 166.5t-68 255q0 130 55 238t163.5 174.5t250.5 66.5zM543 846q-65 0 -128 -24.5t-116 -70.5t-86 -121.5t-33 -168.5q0 -171 105 -280t258 -109
t257.5 109t104.5 280q0 91 -32 166t-84 121.5t-115.5 72t-130.5 25.5zM629 1384l217 -335h-78l-201 223l-207 -223h-77l221 335h125z" />
    <glyph glyph-name="otilde" unicode="&#xf5;" horiz-adv-x="1083" 
d="M543 938q140 0 247.5 -65.5t163.5 -173.5t56 -240q0 -144 -67.5 -255t-172.5 -166.5t-227 -55.5t-227.5 55.5t-173.5 166.5t-68 255q0 130 55 238t163.5 174.5t250.5 66.5zM543 846q-65 0 -128 -24.5t-116 -70.5t-86 -121.5t-33 -168.5q0 -171 105 -280t258 -109
t257.5 109t104.5 280q0 91 -32 166t-84 121.5t-115.5 72t-130.5 25.5zM295 1122h-66q16 195 164 195q40 0 81 -10.5t116 -40.5q111 -45 155 -45q81 0 93 96h61q1 -52 -15.5 -91.5t-38 -58.5t-49 -30.5t-41.5 -14t-22 -2.5q-48 0 -170 45q-104 37 -132 45.5t-50 8.5
q-39 0 -60 -27.5t-26 -69.5z" />
    <glyph glyph-name="odieresis" unicode="&#xf6;" horiz-adv-x="1083" 
d="M543 938q140 0 247.5 -65.5t163.5 -173.5t56 -240q0 -144 -67.5 -255t-172.5 -166.5t-227 -55.5t-227.5 55.5t-173.5 166.5t-68 255q0 130 55 238t163.5 174.5t250.5 66.5zM543 846q-65 0 -128 -24.5t-116 -70.5t-86 -121.5t-33 -168.5q0 -171 105 -280t258 -109
t257.5 109t104.5 280q0 91 -32 166t-84 121.5t-115.5 72t-130.5 25.5zM381 1303q37 0 62.5 -26t25.5 -63t-25.5 -63.5t-62.5 -26.5t-62.5 26.5t-25.5 63.5t25.5 63t62.5 26zM748 1303q37 0 63.5 -26t26.5 -63t-26.5 -63.5t-63.5 -26.5q-36 0 -62.5 27t-26.5 63t26.5 62.5
t62.5 26.5z" />
    <glyph glyph-name="divide" unicode="&#xf7;" horiz-adv-x="1351" 
d="M678 1118q33 0 55.5 -23.5t22.5 -56.5q0 -31 -22.5 -54t-55.5 -23q-34 0 -57 22.5t-23 54.5q0 33 23.5 56.5t56.5 23.5zM678 428q32 0 55 -23t23 -55q0 -31 -23 -54.5t-55 -23.5t-55 23t-23 55q0 33 23.5 55.5t54.5 22.5zM139 651v94h1073v-94h-1073z" />
    <glyph glyph-name="oslash" unicode="&#xf8;" horiz-adv-x="1085" 
d="M995 920l-106 -127q123 -125 123 -330q0 -140 -63 -251t-169.5 -170.5t-236.5 -59.5q-70 0 -133.5 18t-90.5 33t-61 39l-117 -133l-67 61l121 131q-119 148 -119 330q0 91 30 175t86 152t147.5 109t203.5 41q156 0 280 -88l109 121zM262 209l500 569l-14 8
q-13 9 -18.5 12t-21.5 11.5t-26.5 12.5t-28.5 10.5t-34 9.5t-36.5 5.5t-41.5 2.5q-68 0 -131.5 -24.5t-114.5 -71t-82 -122t-31 -169.5q0 -152 80 -254zM823 717l-499 -572q97 -69 217 -69q160 0 263 111t103 270q0 151 -84 260z" />
    <glyph glyph-name="ugrave" unicode="&#xf9;" horiz-adv-x="1003" 
d="M866 920v-920h-98v152q-26 -32 -47.5 -54t-61 -52.5t-91.5 -47t-113 -16.5q-85 0 -163.5 39.5t-115.5 105.5q-36 61 -46.5 124t-10.5 150v519h98v-519q0 -84 7 -132t30 -89q33 -60 91.5 -86t119.5 -26q134 0 233 96q32 34 70 112v644h98zM188 1386h166l215 -319h-69z" />
    <glyph glyph-name="uacute" unicode="&#xfa;" horiz-adv-x="1003" 
d="M866 920v-920h-98v152q-26 -32 -47.5 -54t-61 -52.5t-91.5 -47t-113 -16.5q-85 0 -163.5 39.5t-115.5 105.5q-36 61 -46.5 124t-10.5 150v519h98v-519q0 -84 7 -132t30 -89q33 -60 91.5 -86t119.5 -26q134 0 233 96q32 34 70 112v644h98zM848 1386l-311 -319h-68l213 319
h166z" />
    <glyph glyph-name="ucircumflex" unicode="&#xfb;" horiz-adv-x="1003" 
d="M866 920v-920h-98v152q-26 -32 -47.5 -54t-61 -52.5t-91.5 -47t-113 -16.5q-85 0 -163.5 39.5t-115.5 105.5q-36 61 -46.5 124t-10.5 150v519h98v-519q0 -84 7 -132t30 -89q33 -60 91.5 -86t119.5 -26q134 0 233 96q32 34 70 112v644h98zM567 1384l217 -335h-77l-201 223
l-207 -223h-78l221 335h125z" />
    <glyph glyph-name="udieresis" unicode="&#xfc;" horiz-adv-x="1003" 
d="M866 920v-920h-98v152q-26 -32 -47.5 -54t-61 -52.5t-91.5 -47t-113 -16.5q-85 0 -163.5 39.5t-115.5 105.5q-36 61 -46.5 124t-10.5 150v519h98v-519q0 -84 7 -132t30 -89q33 -60 91.5 -86t119.5 -26q134 0 233 96q32 34 70 112v644h98zM319 1303q37 0 63 -26t26 -63
t-26 -63.5t-63 -26.5t-62.5 26.5t-25.5 63.5t25.5 63t62.5 26zM686 1303q37 0 63.5 -26t26.5 -63t-26.5 -63.5t-63.5 -26.5q-35 0 -61.5 26.5t-26.5 63.5q0 36 26 62.5t62 26.5z" />
    <glyph glyph-name="yacute" unicode="&#xfd;" horiz-adv-x="841" 
d="M854 920l-688 -1391h-100l321 649l-387 742h100l336 -644l318 644h100zM760 1386l-311 -319h-68l213 319h166z" />
    <glyph glyph-name="thorn" unicode="&#xfe;" horiz-adv-x="1044" 
d="M227 1397v-529q43 20 70.5 31.5t88 25t122.5 13.5q192 0 321 -134t129 -341q0 -112 -41 -205.5t-107 -152.5t-146 -91t-162 -32q-134 0 -275 69v-522h-98v1868h98zM227 774v-627q37 -21 62.5 -33t80.5 -26t113 -14q87 0 158 30.5t116 83t69 121t24 146.5
q0 120 -54.5 210.5t-139.5 134.5t-187 44q-52 0 -100.5 -12t-74.5 -24t-67 -34z" />
    <glyph glyph-name="ydieresis" unicode="&#xff;" horiz-adv-x="841" 
d="M854 920l-688 -1391h-100l321 649l-387 742h100l336 -644l318 644h100zM252 1303q37 0 62.5 -26t25.5 -63t-25.5 -63.5t-62.5 -26.5t-62.5 26.5t-25.5 63.5t25.5 63t62.5 26zM618 1303q37 0 64 -26t27 -63t-27 -63.5t-64 -26.5q-35 0 -61.5 26.5t-26.5 63.5q0 36 26 62.5
t62 26.5z" />
    <glyph glyph-name="Amacron" unicode="&#x100;" horiz-adv-x="1366" 
d="M713 1407l645 -1407h-113l-221 483h-682l-221 -483h-113l641 1407h64zM981 575l-299 656l-301 -656h600zM1010 1681v-102h-654v102h654z" />
    <glyph glyph-name="amacron" unicode="&#x101;" horiz-adv-x="851" 
d="M846 160v-82q-135 -96 -184 -96q-39 0 -51 25.5t-17 88.5q-145 -114 -289 -114q-102 0 -176 67t-74 164q0 62 24 113t60 84.5t89 59.5t100 40t104.5 23.5t91 12.5t70.5 5v117q0 182 -203 182q-78 0 -140 -26t-142 -85v101q47 28 73.5 42.5t92 35t128.5 20.5
q64 0 129.5 -20.5t102.5 -61.5t47 -84t10 -131v-471q0 -76 2 -82q5 -10 19 -10q19 0 61 28t72 54zM594 182v289q-171 -6 -252 -39q-79 -32 -132.5 -87t-53.5 -132q0 -74 58.5 -113t123.5 -39q125 0 256 121zM653 1276v-105h-547v105h547z" />
    <glyph glyph-name="Abreve" unicode="&#x102;" horiz-adv-x="1366" 
d="M713 1407l645 -1407h-113l-221 483h-682l-221 -483h-113l641 1407h64zM981 575l-299 656l-301 -656h600zM344 1722h102q43 -56 105.5 -88t132.5 -32q69 0 130 31.5t101 88.5h107q-28 -81 -76 -127q-107 -104 -262 -104q-78 0 -149 29.5t-121 81.5q-44 49 -70 120z" />
    <glyph glyph-name="abreve" unicode="&#x103;" horiz-adv-x="851" 
d="M846 160v-82q-135 -96 -184 -96q-39 0 -51 25.5t-17 88.5q-145 -114 -289 -114q-102 0 -176 67t-74 164q0 62 24 113t60 84.5t89 59.5t100 40t104.5 23.5t91 12.5t70.5 5v117q0 182 -203 182q-78 0 -140 -26t-142 -85v101q47 28 73.5 42.5t92 35t128.5 20.5
q64 0 129.5 -20.5t102.5 -61.5t47 -84t10 -131v-471q0 -76 2 -82q5 -10 19 -10q19 0 61 28t72 54zM594 182v289q-171 -6 -252 -39q-79 -32 -132.5 -87t-53.5 -132q0 -74 58.5 -113t123.5 -39q125 0 256 121zM102 1325h82q34 -73 86.5 -107t110.5 -34q44 0 80 14.5t61.5 43
t35 42.5t24.5 41h77q-87 -233 -276 -233q-37 0 -71 10t-58.5 24t-47.5 37t-37.5 41.5t-29.5 45t-21.5 40.5t-15.5 35z" />
    <glyph glyph-name="Aogonek" unicode="&#x104;" horiz-adv-x="1366" 
d="M1245 0l-221 483h-682l-221 -483h-113l641 1407h64l645 -1407h-25q-56 -53 -77 -88t-21 -74q0 -13 1.5 -25t12 -35t28.5 -38t56 -24.5t90 -4.5v-86q-58 -12 -94 -12q-98 0 -154.5 55t-56.5 133q0 118 127 199zM381 575h600l-299 656z" />
    <glyph glyph-name="aogonek" unicode="&#x105;" horiz-adv-x="851" 
d="M791 -260v-78q-63 -10 -84 -10q-90 0 -141.5 49.5t-51.5 122.5q0 99 104 174q-18 20 -24 98q-145 -114 -289 -114q-102 0 -176 67t-74 164q0 62 24 113t60 84.5t89 59.5t100 40t104.5 23.5t91 12.5t70.5 5v117q0 182 -203 182q-78 0 -140 -26t-142 -85v101
q47 28 73.5 42.5t92 35t128.5 20.5q64 0 129.5 -20.5t102.5 -61.5t47 -84t10 -131v-471q0 -76 2 -82q5 -10 19 -10q19 0 61 28t72 54v-82q-74 -52 -146 -90q-29 -14 -54 -55t-25 -83q0 -46 33 -77.5t85 -34.5q25 -2 52 2zM594 182v289q-171 -6 -252 -39q-79 -32 -132.5 -87
t-53.5 -132q0 -74 58.5 -113t123.5 -39q125 0 256 121z" />
    <glyph glyph-name="Cacute" unicode="&#x106;" horiz-adv-x="1388" 
d="M1303 1298v-118q-58 29 -94 45.5t-101.5 40.5t-135.5 35.5t-145 11.5q-138 0 -255 -46.5t-198.5 -127.5t-127 -195t-45.5 -246q0 -178 80 -318t221.5 -217t318.5 -77q79 0 156.5 14t150 42t104.5 42.5t85 40.5v-112q-246 -131 -496 -131q-145 0 -278 49.5t-237 138.5
t-166 226t-62 300q0 116 31.5 218.5t85.5 180t125.5 139.5t153.5 101t166.5 59.5t166.5 20.5q243 0 496 -117zM838 1753h249l-399 -262h-100z" />
    <glyph glyph-name="cacute" unicode="&#x107;" horiz-adv-x="837" 
d="M768 893v-109q-47 21 -71.5 30.5t-73.5 20.5t-97 11q-85 0 -152.5 -33.5t-108.5 -90t-62 -124.5t-21 -141q0 -74 20.5 -140.5t61.5 -122t111 -88t162 -32.5q117 0 247 57v-102q-143 -47 -262 -47q-57 0 -115 14t-118 48t-106 85t-75.5 133t-29.5 184q0 120 38.5 216.5
t102.5 155.5t141.5 89.5t161.5 30.5q104 0 246 -45zM825 1386l-311 -319h-68l213 319h166z" />
    <glyph glyph-name="Ccircumflex" unicode="&#x108;" horiz-adv-x="1386" 
d="M1325 1298v-118q-58 29 -94 45t-101 40.5t-135 36t-145 11.5q-184 0 -327 -79t-221.5 -219t-78.5 -317q0 -178 80.5 -318t222 -217t318.5 -77q79 0 156 14t149.5 42t104 42t85.5 41v-112q-246 -131 -495 -131q-115 0 -224 30.5t-203 92t-165 146t-111.5 199.5t-40.5 246
q0 116 31.5 218.5t85.5 180t125.5 139.5t153.5 101t166.5 59.5t166.5 20.5q243 0 496 -117zM1133 1491h-105l-233 180l-228 -180h-108l254 281h159z" />
    <glyph glyph-name="ccircumflex" unicode="&#x109;" horiz-adv-x="837" 
d="M768 893v-109q-47 21 -71.5 30.5t-73.5 20.5t-97 11q-85 0 -152.5 -33.5t-108.5 -90t-62 -124.5t-21 -141q0 -74 20.5 -140.5t61.5 -122t111 -88t162 -32.5q117 0 247 57v-102q-143 -47 -262 -47q-57 0 -115 14t-118 48t-106 85t-75.5 133t-29.5 184q0 120 38.5 216.5
t102.5 155.5t141.5 89.5t161.5 30.5q104 0 246 -45zM565 1384l217 -335h-77l-201 223l-207 -223h-78l221 335h125z" />
    <glyph glyph-name="Cdotaccent" unicode="&#x10a;" horiz-adv-x="1386" 
d="M1325 1298v-118q-58 29 -94 45t-101 40.5t-135 36t-145 11.5q-184 0 -327 -79t-221.5 -219t-78.5 -317q0 -178 80.5 -318t222 -217t318.5 -77q79 0 156 14t149.5 42t104 42t85.5 41v-112q-246 -131 -495 -131q-115 0 -224 30.5t-203 92t-165 146t-111.5 199.5t-40.5 246
q0 116 31.5 218.5t85.5 180t125.5 139.5t153.5 101t166.5 59.5t166.5 20.5q243 0 496 -117zM786 1718q36 0 62 -26t26 -62t-26 -62t-62 -26q-38 0 -63 26t-25 62q0 37 25.5 62.5t62.5 25.5z" />
    <glyph glyph-name="cdotaccent" unicode="&#x10b;" horiz-adv-x="854" 
d="M776 893v-109q-48 21 -71.5 30.5t-72.5 20.5t-97 11q-85 0 -153 -33.5t-108.5 -90t-62 -124.5t-21.5 -141q0 -74 20.5 -140.5t61.5 -122t111 -88t162 -32.5q118 0 248 57v-102q-143 -47 -263 -47q-57 0 -115 14t-118 48t-106 85t-75.5 133t-29.5 184q0 120 38.5 216.5
t102.5 155.5t141.5 89.5t161.5 30.5q104 0 246 -45zM489 1303q36 0 62.5 -26.5t26.5 -62.5q0 -37 -26 -63.5t-63 -26.5t-63.5 26.5t-26.5 63.5t26.5 63t63.5 26z" />
    <glyph glyph-name="Ccaron" unicode="&#x10c;" horiz-adv-x="1388" 
d="M1303 1298v-118q-58 29 -94 45.5t-101.5 40.5t-135.5 35.5t-145 11.5q-138 0 -255 -46.5t-198.5 -127.5t-127 -195t-45.5 -246q0 -178 80 -318t221.5 -217t318.5 -77q79 0 156.5 14t150 42t104.5 42.5t85 40.5v-112q-246 -131 -496 -131q-145 0 -278 49.5t-237 138.5
t-166 226t-62 300q0 116 31.5 218.5t85.5 180t125.5 139.5t153.5 101t166.5 59.5t166.5 20.5q243 0 496 -117zM1100 1772l-260 -281h-160l-254 281h109l227 -181l233 181h105z" />
    <glyph glyph-name="ccaron" unicode="&#x10d;" horiz-adv-x="837" 
d="M768 893v-109q-47 21 -71.5 30.5t-73.5 20.5t-97 11q-85 0 -152.5 -33.5t-108.5 -90t-62 -124.5t-21 -141q0 -74 20.5 -140.5t61.5 -122t111 -88t162 -32.5q117 0 247 57v-102q-143 -47 -262 -47q-57 0 -115 14t-118 48t-106 85t-75.5 133t-29.5 184q0 120 38.5 216.5
t102.5 155.5t141.5 89.5t161.5 30.5q104 0 246 -45zM565 1049h-125l-221 335h78l207 -227l201 227h77z" />
    <glyph glyph-name="Dcaron" unicode="&#x10e;" horiz-adv-x="1490" 
d="M162 1397h424q98 0 145 -1.5t115.5 -10t123.5 -28.5t115 -54q159 -92 243.5 -250.5t84.5 -347.5q0 -114 -32 -226t-108.5 -218.5t-187.5 -164.5q-67 -35 -122.5 -55.5t-122 -29t-112 -10t-142.5 -1.5h-424v1397zM598 1307h-328v-1219h328q140 0 228 16.5t198 79.5
q124 72 196 214t72 304q0 65 -13 129.5t-42 133t-83.5 132t-129.5 111.5q-100 64 -187 81.5t-239 17.5zM1034 1772l-260 -281h-160l-254 281h109l227 -181l234 181h104z" />
    <glyph glyph-name="dcaron" unicode="&#x10f;" horiz-adv-x="1052" 
d="M909 1397v-1397h-98v72q-36 -25 -64.5 -41t-86 -32.5t-121.5 -16.5q-89 0 -172.5 33.5t-148.5 94t-104.5 152t-39.5 199.5q0 210 134 343.5t331 133.5q58 0 113.5 -13t86.5 -26t72 -35v533h98zM811 162v594q-40 26 -65 40t-83.5 32t-119.5 18q-164 0 -262.5 -110
t-98.5 -269q0 -175 112.5 -284t268.5 -109q58 0 109.5 15.5t78.5 31.5t60 41zM1141 1415v-119q0 -219 -133 -315v70q14 27 19.5 39t14 50t7.5 81h-41v194h133z" />
    <glyph glyph-name="Dcroat" unicode="&#x110;" horiz-adv-x="1490" 
d="M162 655h-162v86h162v656h424q98 0 145 -1.5t115.5 -10t123.5 -28.5t115 -54q159 -92 243.5 -250.5t84.5 -347.5q0 -114 -32 -226t-108.5 -218.5t-187.5 -164.5q-67 -35 -122.5 -55.5t-122 -29t-112 -10t-142.5 -1.5h-424v655zM723 655h-453v-567h328q140 0 228 16.5
t198 79.5q124 72 196 214t72 304q0 65 -13 129.5t-42 133t-83.5 132t-129.5 111.5q-100 64 -187 81.5t-239 17.5h-328v-566h453v-86z" />
    <glyph glyph-name="dcroat" unicode="&#x111;" horiz-adv-x="1034" 
d="M909 1196h125v-82h-125v-1114h-98v72q-36 -25 -64.5 -41t-86 -32.5t-121.5 -16.5q-89 0 -172.5 33.5t-148.5 94t-104.5 152t-39.5 199.5q0 210 134 343.5t331 133.5q58 0 113.5 -13t86.5 -26t72 -35v250h-313v82h313v201h98v-201zM811 162v594q-40 26 -65 40t-83.5 32
t-119.5 18q-164 0 -262.5 -110t-98.5 -269q0 -175 112.5 -284t268.5 -109q58 0 109.5 15.5t78.5 31.5t60 41z" />
    <glyph glyph-name="Emacron" unicode="&#x112;" horiz-adv-x="1028" 
d="M926 1397v-90h-654v-557h637v-91h-637v-571h670v-88h-778v1397h762zM860 1681v-102h-653v102h653z" />
    <glyph glyph-name="emacron" unicode="&#x113;" horiz-adv-x="976" 
d="M903 496h-721q-4 -105 27 -188.5t84.5 -133t117.5 -75t132 -25.5q62 0 118 14t101.5 40t70 44t54.5 43v-111q-154 -122 -355 -122q-109 0 -198 41.5t-144.5 111t-85.5 156t-30 180.5q0 124 49.5 229t147.5 171.5t225 66.5q73 0 136.5 -21.5t107.5 -57.5t74.5 -76
t49.5 -85q35 -79 39 -202zM193 573h593q-18 90 -55 148q-36 60 -98 94.5t-137 34.5q-102 0 -190 -72t-113 -205zM786 1276v-105h-546v105h546z" />
    <glyph glyph-name="Ebreve" unicode="&#x114;" horiz-adv-x="1028" 
d="M926 1397v-90h-654v-557h637v-91h-637v-571h670v-88h-778v1397h762zM205 1722h102q45 -57 105 -88q66 -32 133 -32q69 0 130 31.5t101 88.5h107q-28 -81 -76 -127q-107 -104 -262 -104q-78 0 -149.5 29.5t-121.5 81.5q-43 47 -69 120z" />
    <glyph glyph-name="ebreve" unicode="&#x115;" horiz-adv-x="980" 
d="M911 496h-721q-4 -105 27 -188.5t84.5 -133t117.5 -75t132 -25.5q62 0 118 14t101.5 40t70 44t54.5 43v-111q-154 -122 -354 -122q-109 0 -198 41.5t-145 111t-86 156t-30 180.5q0 124 49.5 229t147.5 171.5t225 66.5q73 0 136.5 -21.5t107.5 -57.5t74.5 -76t49.5 -85
q35 -79 39 -202zM201 573h594q-17 88 -56 148q-36 60 -98 94.5t-137 34.5q-102 0 -190 -72t-113 -205zM223 1325h82q34 -73 86.5 -107t110.5 -34q36 0 68 12t50 24.5t38.5 38.5t25.5 34.5t18 31.5h78q-87 -233 -276 -233q-37 0 -71 10t-58.5 24t-47.5 37t-37.5 41.5
t-29.5 45t-21.5 40.5t-15.5 35z" />
    <glyph glyph-name="Edotaccent" unicode="&#x116;" horiz-adv-x="1028" 
d="M926 1397v-90h-654v-557h637v-91h-637v-571h670v-88h-778v1397h762zM535 1718q36 0 62 -26t26 -62t-26 -62t-62 -26q-38 0 -63.5 26t-25.5 62q0 37 26 62.5t63 25.5z" />
    <glyph glyph-name="edotaccent" unicode="&#x117;" horiz-adv-x="976" 
d="M903 496h-721q-4 -105 27 -188.5t84.5 -133t117.5 -75t132 -25.5q62 0 118 14t101.5 40t70 44t54.5 43v-111q-154 -122 -355 -122q-109 0 -198 41.5t-144.5 111t-85.5 156t-30 180.5q0 124 49.5 229t147.5 171.5t225 66.5q73 0 136.5 -21.5t107.5 -57.5t74.5 -76
t49.5 -85q35 -79 39 -202zM193 573h593q-18 90 -55 148q-36 60 -98 94.5t-137 34.5q-102 0 -190 -72t-113 -205zM504 1303q36 0 62 -26.5t26 -62.5q0 -37 -25.5 -63.5t-62.5 -26.5t-63.5 26.5t-26.5 63.5t26.5 63t63.5 26z" />
    <glyph glyph-name="Eogonek" unicode="&#x118;" horiz-adv-x="1028" 
d="M942 -289v-86q-58 -12 -94 -12q-99 0 -155 55t-56 133q0 117 125 199h-598v1397h762v-90h-654v-557h637v-91h-637v-571h670v-88h-92q-31 -31 -46 -48t-32.5 -51.5t-17.5 -68.5q0 -50 37 -85t94 -38q27 -2 57 2z" />
    <glyph glyph-name="eogonek" unicode="&#x119;" horiz-adv-x="976" 
d="M653 -260v-78q-67 -10 -84 -10q-90 0 -141 48.5t-51 119.5q0 40 16.5 75t31.5 50.5t38 35.5q4 3 6 5q-84 12 -152.5 46.5t-112.5 82t-74 107.5t-43 120.5t-13 122.5q0 129 50 236t147.5 172t224.5 65q73 0 136.5 -21.5t107.5 -57.5t74.5 -76t49.5 -85q35 -79 39 -202
h-721q-4 -105 27 -188.5t84.5 -133t117.5 -75t132 -25.5q62 0 118 14t101.5 40t70 44t54.5 43v-111q-28 -21 -47.5 -33t-62.5 -34.5t-100.5 -36t-125.5 -18.5q-36 -37 -52 -64.5t-16 -62.5q0 -12 1.5 -23t11 -31.5t26 -34t50.5 -22.5t81 -4zM193 573h593q-18 90 -55 148
q-36 60 -98 94.5t-137 34.5q-102 0 -190 -72t-113 -205z" />
    <glyph glyph-name="Ecaron" unicode="&#x11a;" horiz-adv-x="1028" 
d="M926 1397v-90h-654v-557h637v-91h-637v-571h670v-88h-778v1397h762zM870 1772l-260 -281h-159l-254 281h108l227 -181l234 181h104z" />
    <glyph glyph-name="ecaron" unicode="&#x11b;" horiz-adv-x="976" 
d="M903 496h-721q-4 -105 27 -188.5t84.5 -133t117.5 -75t132 -25.5q62 0 118 14t101.5 40t70 44t54.5 43v-111q-154 -122 -355 -122q-109 0 -198 41.5t-144.5 111t-85.5 156t-30 180.5q0 124 49.5 229t147.5 171.5t225 66.5q73 0 136.5 -21.5t107.5 -57.5t74.5 -76
t49.5 -85q35 -79 39 -202zM193 573h593q-18 90 -55 148q-36 60 -98 94.5t-137 34.5q-102 0 -190 -72t-113 -205zM578 1049h-125l-222 335h78l207 -227l201 227h78z" />
    <glyph glyph-name="Gcircumflex" unicode="&#x11c;" horiz-adv-x="1435" 
d="M1307 1296v-122q-222 139 -500 139q-116 0 -224 -42t-194 -118.5t-138 -195.5t-52 -261q0 -139 52 -257t137.5 -195.5t193 -120.5t221.5 -43q198 0 422 88v377h-295v92h403v-537q-258 -118 -526 -118q-108 0 -214 32t-198.5 95t-163.5 149t-112 201t-41 243
q0 148 55.5 279.5t153 227t237.5 151t303 55.5q75 0 144 -10t137 -32.5t102 -36t97 -40.5zM1120 1491h-104l-234 180l-227 -180h-109l254 281h160z" />
    <glyph glyph-name="gcircumflex" unicode="&#x11d;" horiz-adv-x="854" 
d="M834 920v-82h-209q26 -25 39.5 -40t38.5 -48.5t37 -74t12 -87.5q0 -12 -0.5 -23.5t-6 -38.5t-14.5 -50t-28.5 -54t-46.5 -55.5t-70 -48t-97 -37.5q-133 -36 -170.5 -48.5t-58.5 -29.5q-33 -26 -33 -64q0 -31 21.5 -51.5t61 -29t68.5 -11.5t71 -4q105 -3 159 -12t109 -39
q49 -26 81.5 -78.5t32.5 -116.5q0 -124 -107 -196t-304 -72q-82 0 -149 13t-108 32t-71 46t-44 49.5t-22 48.5t-9 36.5t-1 20.5q0 23 5.5 45.5t23 51.5t45.5 52.5t78.5 44t116.5 31.5q-150 39 -150 133q0 31 12.5 54t42.5 41.5t54.5 28.5t74.5 28q-22 8 -35 13.5t-41.5 19.5
t-47 28.5t-42.5 39t-38 52t-24.5 66.5t-10.5 84q0 93 45 172t119 112q46 22 95 33t81.5 13t89.5 2h324zM410 838q-100 0 -172 -71.5t-72 -172.5t71.5 -173.5t172.5 -72.5t173 72.5t72 173.5t-72.5 172.5t-172.5 71.5zM739 -211q0 33 -13 59.5t-31.5 43.5t-48 29t-53 17.5
t-57.5 8.5t-50.5 3.5t-41.5 0.5q-93 0 -144 -9t-97 -32q-21 -9 -39 -22.5t-36.5 -43t-18.5 -65.5q0 -34 15.5 -62t37.5 -45t55.5 -29.5t60.5 -18.5t62 -9t50.5 -3.5t35.5 -0.5q157 0 235 52.5t78 125.5zM481 1384l217 -335h-77l-201 223l-207 -223h-78l221 335h125z" />
    <glyph glyph-name="Gbreve" unicode="&#x11e;" horiz-adv-x="1435" 
d="M1307 1296v-122q-222 139 -500 139q-116 0 -224 -42t-194 -118.5t-138 -195.5t-52 -261q0 -139 52 -257t137.5 -195.5t193 -120.5t221.5 -43q198 0 422 88v377h-295v92h403v-537q-258 -118 -526 -118q-108 0 -214 32t-198.5 95t-163.5 149t-112 201t-41 243
q0 148 55.5 279.5t153 227t237.5 151t303 55.5q75 0 144 -10t137 -32.5t102 -36t97 -40.5zM444 1722h103q43 -56 105 -88t132 -32q69 0 130.5 31.5t101.5 88.5h106q-28 -82 -75 -127q-107 -104 -263 -104q-78 0 -149 29.5t-121 81.5q-44 49 -70 120z" />
    <glyph glyph-name="gbreve" unicode="&#x11f;" horiz-adv-x="854" 
d="M834 920v-82h-209q26 -25 39.5 -40t38.5 -48.5t37 -74t12 -87.5q0 -12 -0.5 -23.5t-6 -38.5t-14.5 -50t-28.5 -54t-46.5 -55.5t-70 -48t-97 -37.5q-133 -36 -170.5 -48.5t-58.5 -29.5q-33 -26 -33 -64q0 -31 21.5 -51.5t61 -29t68.5 -11.5t71 -4q105 -3 159 -12t109 -39
q49 -26 81.5 -78.5t32.5 -116.5q0 -124 -107 -196t-304 -72q-82 0 -149 13t-108 32t-71 46t-44 49.5t-22 48.5t-9 36.5t-1 20.5q0 23 5.5 45.5t23 51.5t45.5 52.5t78.5 44t116.5 31.5q-150 39 -150 133q0 31 12.5 54t42.5 41.5t54.5 28.5t74.5 28q-22 8 -35 13.5t-41.5 19.5
t-47 28.5t-42.5 39t-38 52t-24.5 66.5t-10.5 84q0 93 45 172t119 112q46 22 95 33t81.5 13t89.5 2h324zM410 838q-100 0 -172 -71.5t-72 -172.5t71.5 -173.5t172.5 -72.5t173 72.5t72 173.5t-72.5 172.5t-172.5 71.5zM739 -211q0 33 -13 59.5t-31.5 43.5t-48 29t-53 17.5
t-57.5 8.5t-50.5 3.5t-41.5 0.5q-93 0 -144 -9t-97 -32q-21 -9 -39 -22.5t-36.5 -43t-18.5 -65.5q0 -34 15.5 -62t37.5 -45t55.5 -29.5t60.5 -18.5t62 -9t50.5 -3.5t35.5 -0.5q157 0 235 52.5t78 125.5zM170 1325h82q34 -73 86.5 -107t110.5 -34q36 0 68 12t50 24.5
t38.5 38.5t25.5 34.5t18 31.5h78q-87 -233 -276 -233q-37 0 -71 10t-58.5 24t-47.5 37t-37.5 41.5t-29.5 45t-21.5 40.5t-15.5 35z" />
    <glyph glyph-name="Gdotaccent" unicode="&#x120;" horiz-adv-x="1435" 
d="M1307 1296v-122q-222 139 -500 139q-116 0 -224 -42t-194 -118.5t-138 -195.5t-52 -261q0 -139 52 -257t137.5 -195.5t193 -120.5t221.5 -43q198 0 422 88v377h-295v92h403v-537q-258 -118 -526 -118q-108 0 -214 32t-198.5 95t-163.5 149t-112 201t-41 243
q0 148 55.5 279.5t153 227t237.5 151t303 55.5q75 0 144 -10t137 -32.5t102 -36t97 -40.5zM754 1718q36 0 62 -26t26 -62t-26 -62t-62 -26q-38 0 -63 26t-25 62q0 37 25.5 62.5t62.5 25.5z" />
    <glyph glyph-name="gdotaccent" unicode="&#x121;" horiz-adv-x="854" 
d="M834 920v-82h-209q26 -25 39.5 -40t38.5 -48.5t37 -74t12 -87.5q0 -12 -0.5 -23.5t-6 -38.5t-14.5 -50t-28.5 -54t-46.5 -55.5t-70 -48t-97 -37.5q-133 -36 -170.5 -48.5t-58.5 -29.5q-33 -26 -33 -64q0 -31 21.5 -51.5t61 -29t68.5 -11.5t71 -4q105 -3 159 -12t109 -39
q49 -26 81.5 -78.5t32.5 -116.5q0 -124 -107 -196t-304 -72q-82 0 -149 13t-108 32t-71 46t-44 49.5t-22 48.5t-9 36.5t-1 20.5q0 23 5.5 45.5t23 51.5t45.5 52.5t78.5 44t116.5 31.5q-150 39 -150 133q0 31 12.5 54t42.5 41.5t54.5 28.5t74.5 28q-22 8 -35 13.5t-41.5 19.5
t-47 28.5t-42.5 39t-38 52t-24.5 66.5t-10.5 84q0 93 45 172t119 112q46 22 95 33t81.5 13t89.5 2h324zM410 838q-100 0 -172 -71.5t-72 -172.5t71.5 -173.5t172.5 -72.5t173 72.5t72 173.5t-72.5 172.5t-172.5 71.5zM739 -211q0 33 -13 59.5t-31.5 43.5t-48 29t-53 17.5
t-57.5 8.5t-50.5 3.5t-41.5 0.5q-93 0 -144 -9t-97 -32q-21 -9 -39 -22.5t-36.5 -43t-18.5 -65.5q0 -34 15.5 -62t37.5 -45t55.5 -29.5t60.5 -18.5t62 -9t50.5 -3.5t35.5 -0.5q157 0 235 52.5t78 125.5zM418 1303q36 0 62 -26.5t26 -62.5q0 -37 -25.5 -63.5t-62.5 -26.5
t-63.5 26.5t-26.5 63.5t26.5 63t63.5 26z" />
    <glyph glyph-name="Gcommaaccent" unicode="&#x122;" horiz-adv-x="1435" 
d="M1307 1296v-122q-222 139 -500 139q-116 0 -224 -42t-194 -118.5t-138 -195.5t-52 -261q0 -139 52 -257t137.5 -195.5t193 -120.5t221.5 -43q198 0 422 88v377h-295v92h403v-537q-258 -118 -526 -118q-108 0 -214 32t-198.5 95t-163.5 149t-112 201t-41 243
q0 148 55.5 279.5t153 227t237.5 151t303 55.5q75 0 144 -10t137 -32.5t102 -36t97 -40.5zM559 -387l14 74q41 -6 80 -6q189 0 189 90q0 93 -236 82l15 73q27 2 77 2q19 0 33.5 -1t48 -4.5t58.5 -13t52 -25t41.5 -42.5t14.5 -63q0 -73 -66 -124.5t-208 -51.5q-58 0 -113 10z
" />
    <glyph glyph-name="gcommaaccent" unicode="&#x123;" horiz-adv-x="854" 
d="M834 920v-82h-209q26 -25 39.5 -40t38.5 -48.5t37 -74t12 -87.5q0 -12 -0.5 -23.5t-6 -38.5t-14.5 -50t-28.5 -54t-46.5 -55.5t-70 -48t-97 -37.5q-133 -36 -170.5 -48.5t-58.5 -29.5q-33 -26 -33 -64q0 -31 21.5 -51.5t61 -29t68.5 -11.5t71 -4q105 -3 159 -12t109 -39
q49 -26 81.5 -78.5t32.5 -116.5q0 -124 -107 -196t-304 -72q-82 0 -149 13t-108 32t-71 46t-44 49.5t-22 48.5t-9 36.5t-1 20.5q0 23 5.5 45.5t23 51.5t45.5 52.5t78.5 44t116.5 31.5q-150 39 -150 133q0 31 12.5 54t42.5 41.5t54.5 28.5t74.5 28q-22 8 -35 13.5t-41.5 19.5
t-47 28.5t-42.5 39t-38 52t-24.5 66.5t-10.5 84q0 93 45 172t119 112q46 22 95 33t81.5 13t89.5 2h324zM410 838q-100 0 -172 -71.5t-72 -172.5t71.5 -173.5t172.5 -72.5t173 72.5t72 173.5t-72.5 172.5t-172.5 71.5zM739 -211q0 33 -13 59.5t-31.5 43.5t-48 29t-53 17.5
t-57.5 8.5t-50.5 3.5t-41.5 0.5q-93 0 -144 -9t-97 -32q-21 -9 -39 -22.5t-36.5 -43t-18.5 -65.5q0 -34 15.5 -62t37.5 -45t55.5 -29.5t60.5 -18.5t62 -9t50.5 -3.5t35.5 -0.5q157 0 235 52.5t78 125.5zM408 1067v109q0 197 120 282v-63q-39 -66 -39 -152h39v-176h-120z" />
    <glyph glyph-name="Hcircumflex" unicode="&#x124;" horiz-adv-x="1472" 
d="M1311 1397v-1397h-109v662h-934v-662h-106v1397h106v-643h934v643h109zM1073 1491h-104l-234 180l-227 -180h-109l254 281h160z" />
    <glyph glyph-name="hcircumflex" unicode="&#x125;" horiz-adv-x="1003" 
d="M225 1397v-645q16 25 27.5 42t40 47t58.5 48.5t77.5 33.5t101.5 15q90 0 171 -39.5t120 -116.5q36 -72 44.5 -130t8.5 -177v-475h-100v483q0 87 -7.5 136t-31.5 94q-28 56 -83 92.5t-136 36.5q-117 0 -201 -76q-29 -25 -47.5 -53t-42.5 -78v-635h-96v1397h96zM567 1819
l217 -336h-77l-201 223l-207 -223h-78l221 336h125z" />
    <glyph glyph-name="Hbar" unicode="&#x126;" horiz-adv-x="1472" 
d="M1311 1118h162v-86h-162v-1032h-109v662h-934v-662h-106v1032h-162v86h162v279h106v-279h934v279h109v-279zM1202 1032h-934v-278h934v278z" />
    <glyph glyph-name="hbar" unicode="&#x127;" horiz-adv-x="1003" 
d="M225 1190h357v-82h-357v-356q16 25 27.5 42t40 47t58.5 48.5t77.5 33.5t101.5 15q90 0 171 -39.5t120 -116.5q36 -72 44.5 -130t8.5 -177v-475h-100v483q0 87 -7.5 136t-31.5 94q-28 56 -83 92.5t-136 36.5q-117 0 -201 -76q-29 -25 -47.5 -53t-42.5 -78v-635h-96v1108
h-129v82h129v207h96v-207z" />
    <glyph glyph-name="Itilde" unicode="&#x128;" horiz-adv-x="425" 
d="M268 1397v-1397h-110v1397h110zM-41 1507h-84q-4 101 21 154q19 42 60.5 66t86.5 24q83 0 242 -80q92 -45 123 -45q34 0 46 28t17 101h84q0 -3 -0.5 -17.5t-0.5 -17.5t-0.5 -15.5t-1 -16t-1.5 -14t-2 -15.5t-2.5 -13.5t-3 -14.5l-3.5 -14t-5 -15q-20 -48 -59.5 -70.5
t-76.5 -22.5q-89 0 -245 76q-94 45 -127 45q-21 0 -34.5 -8t-20 -27.5t-9 -37t-4.5 -50.5z" />
    <glyph glyph-name="itilde" unicode="&#x129;" horiz-adv-x="382" 
d="M240 920v-920h-97v920h97zM-78 1122h-65q16 195 163 195q40 0 81 -10.5t116 -40.5q111 -45 156 -45q27 0 46 9.5t28 27t12.5 30t5.5 29.5h61q1 -52 -15.5 -91.5t-38 -58.5t-49 -30.5t-41.5 -14t-22 -2.5q-48 0 -170 45q-104 37 -132 45.5t-50 8.5q-39 0 -60 -27.5
t-26 -69.5z" />
    <glyph glyph-name="Imacron" unicode="&#x12a;" horiz-adv-x="438" 
d="M274 1397v-1397h-110v1397h110zM547 1681v-102h-653v102h653z" />
    <glyph glyph-name="imacron" unicode="&#x12b;" horiz-adv-x="382" 
d="M240 920v-920h-97v920h97zM465 1276v-105h-547v105h547z" />
    <glyph glyph-name="Ibreve" unicode="&#x12c;" horiz-adv-x="438" 
d="M274 1397v-1397h-110v1397h110zM-111 1722h103q43 -56 105 -88t132 -32q69 0 130.5 31.5t101.5 88.5h106q-28 -82 -75 -127q-107 -104 -263 -104q-78 0 -149 29.5t-121 81.5q-44 49 -70 120z" />
    <glyph glyph-name="ibreve" unicode="&#x12d;" horiz-adv-x="382" 
d="M240 920v-920h-97v920h97zM-86 1325h82q34 -73 86.5 -107t110.5 -34q36 0 68 12t50 24.5t38.5 38.5t25.5 34.5t18 31.5h78q-87 -233 -276 -233q-37 0 -71 10t-58.5 24t-47.5 37t-37.5 41.5t-29.5 45t-21.5 40.5t-15.5 35z" />
    <glyph glyph-name="Iogonek" unicode="&#x12e;" horiz-adv-x="438" 
d="M344 -289v-86q-58 -12 -94 -12q-99 0 -155 55t-56 133q0 118 125 199v1397h110v-1397h-22q-56 -54 -76 -88.5t-20 -75.5q0 -11 1 -21.5t11 -34t28 -38.5t56.5 -25.5t91.5 -5.5z" />
    <glyph glyph-name="iogonek" unicode="&#x12f;" horiz-adv-x="382" 
d="M305 -260v-78q-62 -10 -84 -10q-92 0 -142 50t-50 116q0 113 114 182v920h97v-920h-17q-51 -47 -69.5 -78.5t-18.5 -68.5q0 -10 1 -19.5t10 -30.5t25.5 -35t51 -23t82.5 -5zM240 1397v-168h-97v168h97z" />
    <glyph glyph-name="Idotaccent" unicode="&#x130;" horiz-adv-x="438" 
d="M274 1397v-1397h-110v1397h110zM221 1718q36 0 62 -26t26 -62t-26 -62t-62 -26q-38 0 -63 26t-25 62q0 37 25.5 62.5t62.5 25.5z" />
    <glyph glyph-name="dotlessi" unicode="&#x131;" horiz-adv-x="382" 
d="M240 920v-920h-97v920h97z" />
    <glyph glyph-name="IJ" unicode="&#x132;" horiz-adv-x="854" 
d="M268 1397v-1397h-110v1397h110zM705 1397v-1374q0 -50 -2.5 -87.5t-13 -91t-29.5 -92.5t-56 -77t-88 -60q-27 -12 -52.5 -15t-115.5 -8l-14 107q28 -8 51 -8q43 0 77 12.5t55.5 31t37 50t23.5 58t12.5 66t5 64t0.5 62.5v1362h109z" />
    <glyph glyph-name="ij" unicode="&#x133;" horiz-adv-x="768" 
d="M242 1397v-164h-99v164h99zM242 920v-920h-99v920h99zM623 920v-865q-1 -73 -1.5 -105t-4 -89t-10.5 -86t-19.5 -68.5t-32 -67t-47.5 -51.5q-64 -56 -166 -59l-23 88q73 16 98.5 28t53.5 48q31 40 42 115t11 247v865h99zM623 1397v-164h-99v164h99z" />
    <glyph glyph-name="Jcircumflex" unicode="&#x134;" horiz-adv-x="425" 
d="M279 1397v-1374q0 -50 -2.5 -87.5t-13 -91t-29.5 -92.5t-56 -77t-88 -60q-29 -12 -54 -15t-116 -8l-12 107q28 -8 51 -8q43 0 76.5 13t55.5 31t37 49.5t23 57.5t12 66.5t4.5 64t0.5 62.5v1362h111zM551 1491h-105l-233 180l-227 -180h-109l254 281h160z" />
    <glyph glyph-name="jcircumflex" unicode="&#x135;" horiz-adv-x="382" 
d="M238 920v-957q0 -50 -2 -88t-8.5 -84t-18 -80t-32 -68t-48.5 -56.5t-69 -38t-93 -19.5l-28 82q33 3 60 11.5t46.5 18.5t34.5 29.5t25 34.5t16.5 44t10 47t5.5 55t2 56.5v61.5v951h99zM252 1384l219 -335h-80l-201 223l-204 -223h-80l223 335h123z" />
    <glyph glyph-name="Kcommaaccent" unicode="&#x136;" horiz-adv-x="1132" 
d="M1077 1397l-665 -697l731 -700h-139l-734 700v-700h-106v1397h106v-697l672 697h135zM358 -387l15 74q40 -6 80 -6q188 0 188 90q0 93 -235 82l14 73q27 2 78 2q19 0 33.5 -1t48 -4.5t58.5 -13t51.5 -25t41 -42.5t14.5 -63q0 -73 -66 -124.5t-208 -51.5q-58 0 -113 10z
" />
    <glyph glyph-name="kcommaaccent" unicode="&#x137;" horiz-adv-x="901" 
d="M219 1397v-1397h-98v1397h98zM870 920l-499 -437l583 -483h-141l-580 483l508 437h129zM313 -348l11 65q40 -4 61 -4q141 0 141 82q0 18 -6 31.5t-18.5 21.5t-22.5 13t-29 7.5t-27 3t-26 1.5l9 55q83 12 140.5 -24.5t57.5 -104.5q0 -62 -49 -109.5t-154 -47.5
q-46 0 -88 10z" />
    <glyph glyph-name="kgreenlandic" unicode="&#x138;" horiz-adv-x="874" 
d="M219 920v-920h-98v920h98zM870 920l-499 -437l583 -483h-141l-580 483l508 437h129z" />
    <glyph glyph-name="Lacute" unicode="&#x139;" horiz-adv-x="960" 
d="M268 1397v-1309h693v-88h-799v1397h106zM401 1753h250l-399 -262h-100z" />
    <glyph glyph-name="lacute" unicode="&#x13a;" horiz-adv-x="385" 
d="M242 1397v-1397h-99v1397h99zM539 1821l-312 -320h-67l213 320h166z" />
    <glyph glyph-name="Lcommaaccent" unicode="&#x13b;" horiz-adv-x="960" 
d="M268 1397v-1309h693v-88h-799v1397h106zM287 -387l14 74q41 -6 80 -6q188 0 188 90q0 93 -235 82l14 73q27 2 78 2q19 0 33.5 -1t48 -4.5t58.5 -13t52 -25t41.5 -42.5t14.5 -63q0 -72 -66.5 -124t-208.5 -52q-57 0 -112 10z" />
    <glyph glyph-name="lcommaaccent" unicode="&#x13c;" horiz-adv-x="385" 
d="M242 1397v-1397h-99v1397h99zM70 -348l10 65q40 -4 61 -4q142 0 142 82q0 18 -6 31.5t-18.5 21.5t-22.5 13t-29 7.5t-27 3t-26 1.5l8 55q83 12 140.5 -24.5t57.5 -104.5q0 -63 -48.5 -110t-153.5 -47q-46 0 -88 10z" />
    <glyph glyph-name="Lcaron" unicode="&#x13d;" horiz-adv-x="960" 
d="M268 1397v-1309h693v-88h-799v1397h106zM762 1397v-119q0 -219 -133 -315v69q14 27 19.5 39t14.5 50t9 81h-43v195h133z" />
    <glyph glyph-name="lcaron" unicode="&#x13e;" horiz-adv-x="385" 
d="M242 1397v-1397h-99v1397h99zM473 1415v-119q0 -219 -133 -315v70q14 27 19.5 39t14 50t7.5 81h-41v194h133z" />
    <glyph glyph-name="Ldot" unicode="&#x13f;" horiz-adv-x="960" 
d="M268 1397v-1309h693v-88h-799v1397h106zM596 791q37 0 63.5 -27t26.5 -64t-26.5 -62.5t-63.5 -25.5t-62.5 25.5t-25.5 62.5t26.5 64t61.5 27z" />
    <glyph glyph-name="ldot" unicode="&#x140;" horiz-adv-x="598" 
d="M242 1397v-1397h-101v1397h101zM487 786q36 0 62 -26t26 -62t-26 -62t-62 -26q-37 0 -63.5 25.5t-26.5 62.5t26.5 62.5t63.5 25.5z" />
    <glyph glyph-name="Lslash" unicode="&#x141;" horiz-adv-x="960" 
d="M268 719l344 280v-102l-344 -281v-528h693v-88h-799v528l-162 -133v103l162 133v766h106v-678z" />
    <glyph glyph-name="lslash" unicode="&#x142;" horiz-adv-x="382" 
d="M246 797l137 114v-102l-137 -115v-694h-99v610l-147 -125v103l147 127v682h99v-600z" />
    <glyph glyph-name="Nacute" unicode="&#x143;" horiz-adv-x="1587" 
d="M1423 1397v-1397h-90l-1061 1229v-1229h-108v1397h100l1051 -1221v1221h108zM940 1753h250l-399 -262h-101z" />
    <glyph glyph-name="nacute" unicode="&#x144;" horiz-adv-x="1003" 
d="M225 920v-160q17 23 21.5 29t25.5 31t34 35.5t39.5 30t51 28.5t58.5 16.5t71 7.5q81 0 157.5 -34t117.5 -95q44 -65 58.5 -137.5t14.5 -173.5v-498h-98v489q0 99 -14 154.5t-43 95.5q-33 47 -87.5 76t-117.5 29q-122 0 -223 -101q-37 -41 -66 -98v-645h-98v920h98z
M848 1386l-311 -319h-68l213 319h166z" />
    <glyph glyph-name="Ncommaaccent" unicode="&#x145;" horiz-adv-x="1583" 
d="M1423 1397v-1397h-90l-1061 1229v-1229h-108v1397h100l1051 -1221v1221h108zM600 -387l14 74q40 -6 80 -6q189 0 189 90q0 93 -236 82l15 73q27 2 77 2q19 0 33.5 -1t48 -4.5t58.5 -13t52 -25t41.5 -42.5t14.5 -63q0 -73 -66 -124.5t-208 -51.5q-58 0 -113 10z" />
    <glyph glyph-name="ncommaaccent" unicode="&#x146;" horiz-adv-x="1003" 
d="M225 920v-160q17 23 21.5 29t25.5 31t34 35.5t39.5 30t51 28.5t58.5 16.5t71 7.5q81 0 157.5 -34t117.5 -95q44 -65 58.5 -137.5t14.5 -173.5v-498h-98v489q0 99 -14 154.5t-43 95.5q-33 47 -87.5 76t-117.5 29q-122 0 -223 -101q-37 -41 -66 -98v-645h-98v920h98z
M379 -348l10 65q40 -4 62 -4q141 0 141 82q0 18 -6 31.5t-18.5 21.5t-22.5 13t-29 7.5t-27 3t-26 1.5l8 55q83 12 141 -24.5t58 -104.5q0 -62 -49 -109.5t-154 -47.5q-46 0 -88 10z" />
    <glyph glyph-name="Ncaron" unicode="&#x147;" horiz-adv-x="1587" 
d="M1423 1397v-1397h-90l-1061 1229v-1229h-108v1397h100l1051 -1221v1221h108zM1130 1772l-260 -281h-159l-254 281h108l228 -181l233 181h104z" />
    <glyph glyph-name="ncaron" unicode="&#x148;" horiz-adv-x="1003" 
d="M225 920v-160q17 23 21.5 29t25.5 31t34 35.5t39.5 30t51 28.5t58.5 16.5t71 7.5q81 0 157.5 -34t117.5 -95q44 -65 58.5 -137.5t14.5 -173.5v-498h-98v489q0 99 -14 154.5t-43 95.5q-33 47 -87.5 76t-117.5 29q-122 0 -223 -101q-37 -41 -66 -98v-645h-98v920h98z
M567 1049h-125l-221 335h78l207 -227l201 227h77z" />
    <glyph glyph-name="napostrophe" unicode="&#x149;" horiz-adv-x="1083" 
d="M307 920v-160q18 26 30.5 42t41.5 45t58 46t74.5 31t96.5 14q80 0 156 -34t117 -95q46 -65 60.5 -136.5t14.5 -174.5v-498h-100v489q0 100 -13.5 155t-41.5 95q-33 47 -87.5 76t-117.5 29q-62 0 -121 -28t-102 -73q-34 -36 -66 -98v-645h-98v920h98zM135 1397v-119
q0 -219 -135 -315v69q45 77 43 170h-43v195h135z" />
    <glyph glyph-name="Eng" unicode="&#x14a;" horiz-adv-x="1445" 
d="M1176 322v456q0 263 -120 398t-329 135q-168 0 -286 -77.5t-173 -229.5v-1004h-106v1397h106v-213q50 91 174.5 161t300.5 70q51 0 98 -5.5t103 -23t102.5 -45.5t92 -77t76.5 -113t50 -158t19 -209v-477q0 -65 -16 -121t-49.5 -103t-93 -74t-138.5 -27q-40 0 -84 8
l-12 108q31 -8 82 -8q116 0 159.5 58.5t43.5 173.5z" />
    <glyph glyph-name="eng" unicode="&#x14b;" horiz-adv-x="1003" 
d="M874 498v-535q0 -58 -3 -101.5t-12 -95.5t-27.5 -89.5t-47.5 -71t-75 -53t-107 -23.5l-27 82q59 5 98 27.5t59.5 49t30.5 88t11.5 105.5t1.5 142v466q0 99 -14 154.5t-43 95.5q-33 47 -87.5 76t-117.5 29q-122 0 -223 -101q-37 -41 -66 -98v-645h-98v920h98v-160
q17 23 21.5 29t25.5 31t34 35.5t39.5 30t51 28.5t58.5 16.5t71 7.5q81 0 157.5 -34t117.5 -95q44 -65 58.5 -137.5t14.5 -173.5z" />
    <glyph glyph-name="Omacron" unicode="&#x14c;" horiz-adv-x="1636" 
d="M1559 705q0 -154 -59 -289.5t-159.5 -230t-236.5 -149t-287 -54.5q-206 0 -375.5 95.5t-266.5 260t-97 362.5q0 142 53.5 271.5t148 228t235 157t304.5 58.5q162 0 302 -58t235 -155.5t149 -226.5t54 -270zM1438 705q0 119 -45.5 229t-125.5 193.5t-196.5 133.5
t-249.5 50q-175 0 -317.5 -82t-222.5 -223t-80 -310q0 -164 78 -304t219.5 -224t316.5 -84q121 0 233 44t199 123t139 197t52 257zM1165 1681v-102h-653v102h653z" />
    <glyph glyph-name="omacron" unicode="&#x14d;" horiz-adv-x="1083" 
d="M543 938q140 0 247.5 -65.5t163.5 -173.5t56 -240q0 -144 -67.5 -255t-172.5 -166.5t-227 -55.5t-227.5 55.5t-173.5 166.5t-68 255q0 130 55 238t163.5 174.5t250.5 66.5zM543 846q-65 0 -128 -24.5t-116 -70.5t-86 -121.5t-33 -168.5q0 -171 105 -280t258 -109
t257.5 109t104.5 280q0 91 -32 166t-84 121.5t-115.5 72t-130.5 25.5zM838 1276v-105h-547v105h547z" />
    <glyph glyph-name="Obreve" unicode="&#x14e;" horiz-adv-x="1685" 
d="M1583 705q0 -154 -59 -289.5t-159 -230t-236 -149t-287 -54.5q-206 0 -376 95.5t-267 260t-97 362.5q0 142 53.5 271.5t148.5 228t235.5 157t304.5 58.5q162 0 302 -58t234.5 -155.5t148.5 -226.5t54 -270zM1462 705q0 119 -45.5 229t-125 193.5t-196 133.5t-249.5 50
q-175 0 -317.5 -82t-223 -223t-80.5 -310q0 -123 46.5 -235t126.5 -195t195.5 -132.5t246.5 -49.5q121 0 233 44t198.5 123t138.5 197t52 257zM504 1722h102q43 -56 105.5 -88t132.5 -32q69 0 130 31.5t101 88.5h107q-28 -81 -76 -127q-107 -104 -262 -104
q-78 0 -149.5 29.5t-121.5 81.5q-43 47 -69 120z" />
    <glyph glyph-name="obreve" unicode="&#x14f;" horiz-adv-x="1110" 
d="M555 938q140 0 247.5 -65.5t163.5 -173.5t56 -240q0 -144 -67.5 -255t-172.5 -166.5t-227 -55.5t-227.5 55.5t-173.5 166.5t-68 255q0 130 55 238t163.5 174.5t250.5 66.5zM555 846q-65 0 -128 -24.5t-116 -70.5t-85.5 -121.5t-32.5 -168.5q0 -171 105 -280t257 -109
q153 0 258 109t105 280q0 91 -32 166t-84.5 121.5t-116 72t-130.5 25.5zM279 1325h81q34 -73 86.5 -107t110.5 -34q44 0 80 14.5t61.5 43t35 42.5t24.5 41h78q-87 -233 -277 -233q-51 0 -95.5 19t-72 42.5t-53.5 61.5t-36 58.5t-23 51.5z" />
    <glyph glyph-name="Ohungarumlaut" unicode="&#x150;" horiz-adv-x="1636" 
d="M1559 705q0 -154 -59 -289.5t-159.5 -230t-236.5 -149t-287 -54.5q-206 0 -375.5 95.5t-266.5 260t-97 362.5q0 142 53.5 271.5t148 228t235 157t304.5 58.5q162 0 302 -58t235 -155.5t149 -226.5t54 -270zM1438 705q0 119 -45.5 229t-125.5 193.5t-196.5 133.5
t-249.5 50q-175 0 -317.5 -82t-222.5 -223t-80 -310q0 -164 78 -304t219.5 -224t316.5 -84q121 0 233 44t199 123t139 197t52 257zM969 1753l-301 -262h-76l162 262h215zM1272 1753l-299 -262h-78l164 262h213z" />
    <glyph glyph-name="ohungarumlaut" unicode="&#x151;" horiz-adv-x="1083" 
d="M543 938q140 0 247.5 -65.5t163.5 -173.5t56 -240q0 -144 -67.5 -255t-172.5 -166.5t-227 -55.5t-227.5 55.5t-173.5 166.5t-68 255q0 130 55 238t163.5 174.5t250.5 66.5zM543 846q-65 0 -128 -24.5t-116 -70.5t-86 -121.5t-33 -168.5q0 -171 105 -280t258 -109
t257.5 109t104.5 280q0 91 -32 166t-84 121.5t-115.5 72t-130.5 25.5zM762 1386l-322 -317h-63l203 317h182zM1038 1386l-327 -317h-62l205 317h184z" />
    <glyph glyph-name="OE" unicode="&#x152;" horiz-adv-x="1828" 
d="M1737 1397v-92h-660v-560h645v-90h-645v-565h674v-90h-829q-96 0 -146.5 2.5t-128 13t-142.5 37.5t-130 72q-134 93 -215.5 240.5t-81.5 330.5q0 296 213 504q49 48 100.5 83t108.5 56t102.5 33.5t110.5 17.5t102.5 6t106.5 1h815zM969 90v1215q-118 2 -188.5 -2
t-143.5 -21q-64 -16 -125.5 -48.5t-119 -84.5t-100.5 -117.5t-69 -152.5t-26 -183q0 -192 96.5 -334.5t238.5 -207.5q67 -31 150.5 -46t140.5 -17t146 -1z" />
    <glyph glyph-name="oe" unicode="&#x153;" horiz-adv-x="1695" 
d="M1614 496h-635v-41q0 -44 11 -110.5t34 -121.5q30 -69 99 -106t143 -37q60 0 115 14t98.5 40t65 42t48.5 39v-113q-151 -120 -344 -120q-65 0 -119.5 17.5t-86.5 39t-61 57.5t-38.5 54t-23.5 47q-26 -33 -41 -50.5t-55 -54t-77 -56.5t-96.5 -37t-124.5 -17q-60 0 -121 16
t-121.5 53t-106.5 90.5t-74.5 135.5t-28.5 182q0 97 27 178t72.5 135.5t106 92.5t125.5 55.5t132 17.5q236 0 383 -197q44 75 92 115q99 82 223 82q21 0 46 -3.5t63.5 -15t73.5 -30t72 -52.5t64 -78.5t43.5 -112.5t16.5 -150zM979 586h520q-8 66 -33.5 116t-55 76.5
t-66 42.5t-61.5 20.5t-46 4.5q-68 0 -125.5 -33.5t-91.5 -91.5q-32 -50 -41 -135zM877 477q0 164 -86.5 266.5t-249.5 102.5q-115 0 -198.5 -54t-123 -139.5t-39.5 -189.5q0 -92 31 -168t81.5 -123t113 -72.5t129.5 -25.5q69 0 130 26t108.5 74.5t75.5 127t28 175.5z" />
    <glyph glyph-name="Racute" unicode="&#x154;" horiz-adv-x="1200" 
d="M162 1397h276q129 0 199 -8t135 -33q89 -36 150 -121.5t61 -198.5q0 -243 -266 -340q58 -37 123 -126.5t315 -473.5l66 -96h-129l-269 422q-37 59 -85.5 118.5t-86.5 86.5q-29 20 -67.5 30t-69 11.5t-94.5 1.5h-150v-670h-108v1397zM446 1307h-176v-545h150
q125 0 191.5 9t121.5 36q56 27 91.5 91.5t35.5 137.5q0 72 -35.5 134.5t-93.5 91.5q-88 45 -285 45zM610 1753h250l-399 -262h-101z" />
    <glyph glyph-name="racute" unicode="&#x155;" horiz-adv-x="763" 
d="M764 829l-57 -92q-34 30 -55 46.5t-59 35.5t-69 19q-73 0 -151 -74t-146 -186v-578h-98v920h98v-242q172 260 328 260q39 0 84 -21.5t67 -38.5t58 -49zM748 1386l-312 -319h-67l213 319h166z" />
    <glyph glyph-name="Rcommaaccent" unicode="&#x156;" horiz-adv-x="1200" 
d="M162 1397h276q129 0 199 -8t135 -33q89 -36 150 -121.5t61 -198.5q0 -243 -266 -340q58 -37 123 -126.5t315 -473.5l66 -96h-129l-269 422q-37 59 -85.5 118.5t-86.5 86.5q-29 20 -67.5 30t-69 11.5t-94.5 1.5h-150v-670h-108v1397zM446 1307h-176v-545h150
q125 0 191.5 9t121.5 36q56 27 91.5 91.5t35.5 137.5q0 72 -35.5 134.5t-93.5 91.5q-88 45 -285 45zM393 -387l15 74q41 -6 79 -6q189 0 189 90q0 93 -236 82l15 73q27 2 77 2q19 0 33.5 -1t48 -4.5t58.5 -13t52 -25t41.5 -42.5t14.5 -63q0 -73 -66 -124.5t-208 -51.5
q-58 0 -113 10z" />
    <glyph glyph-name="rcommaaccent" unicode="&#x157;" horiz-adv-x="763" 
d="M764 829l-57 -92q-34 30 -55 46.5t-59 35.5t-69 19q-73 0 -151 -74t-146 -186v-578h-98v920h98v-242q172 260 328 260q39 0 84 -21.5t67 -38.5t58 -49zM115 -348l10 65q40 -4 61 -4q142 0 142 82q0 18 -6 31.5t-18.5 21.5t-22.5 13t-29 7.5t-27 3t-26 1.5l8 55
q83 12 141 -24.5t58 -104.5q0 -62 -49 -109.5t-154 -47.5q-46 0 -88 10z" />
    <glyph glyph-name="Rcaron" unicode="&#x158;" horiz-adv-x="1200" 
d="M162 1397h276q129 0 199 -8t135 -33q89 -36 150 -121.5t61 -198.5q0 -243 -266 -340q58 -37 123 -126.5t315 -473.5l66 -96h-129l-269 422q-37 59 -85.5 118.5t-86.5 86.5q-29 20 -67.5 30t-69 11.5t-94.5 1.5h-150v-670h-108v1397zM446 1307h-176v-545h150
q125 0 191.5 9t121.5 36q56 27 91.5 91.5t35.5 137.5q0 72 -35.5 134.5t-93.5 91.5q-88 45 -285 45zM842 1772l-260 -281h-160l-254 281h108l228 -181l233 181h105z" />
    <glyph glyph-name="rcaron" unicode="&#x159;" horiz-adv-x="763" 
d="M764 829l-57 -92q-34 30 -55 46.5t-59 35.5t-69 19q-73 0 -151 -74t-146 -186v-578h-98v920h98v-242q172 260 328 260q39 0 84 -21.5t67 -38.5t58 -49zM467 1049h-125l-221 335h78l207 -227l200 227h78z" />
    <glyph glyph-name="Sacute" unicode="&#x15a;" horiz-adv-x="942" 
d="M817 1327v-119q-100 58 -167.5 84.5t-147.5 26.5q-72 0 -130.5 -25t-93 -65t-53 -86t-18.5 -92q0 -37 10 -69.5t24 -56t40.5 -45.5t48.5 -36.5t60 -31t61.5 -25t66.5 -23.5q58 -21 101.5 -40.5t94.5 -53.5t83.5 -74t54.5 -99t22 -130q0 -89 -35.5 -163.5t-94 -122
t-130 -73.5t-145.5 -26q-178 0 -358 122v127q104 -74 184.5 -110.5t169.5 -36.5q72 0 130.5 25.5t94 66.5t54 89t18.5 97q0 54 -20 99.5t-48 75.5t-71 56t-75 39t-73 27q-86 29 -141 54t-72.5 37t-38.5 30q-127 108 -127 267q0 70 29 136t79.5 117.5t126 83t161.5 31.5
q165 0 325 -88zM596 1753h250l-400 -262h-100z" />
    <glyph glyph-name="sacute" unicode="&#x15b;" horiz-adv-x="712" 
d="M621 860v-106q-135 94 -252 94q-89 0 -144 -47.5t-55 -108.5q0 -30 15 -57t35 -44.5t54 -35t56.5 -26.5t58.5 -21q28 -10 41.5 -15.5t45.5 -20.5t50.5 -27.5t44.5 -35t40.5 -46.5t25 -57t10.5 -70q0 -100 -81 -177t-218 -77q-138 0 -276 84v96q50 -26 78 -39.5t90 -31
t118 -17.5q90 0 140.5 45t50.5 108q0 24 -7 44.5t-15.5 35.5t-30 31.5t-36 26t-49 24.5t-53 22.5t-63.5 24.5q-29 11 -46.5 19t-54 30.5t-58.5 46.5t-40 64.5t-18 87.5q0 44 18.5 87.5t54 81.5t94 61.5t130.5 23.5q114 0 246 -78zM727 1386l-311 -319h-68l213 319h166z" />
    <glyph glyph-name="Scircumflex" unicode="&#x15c;" horiz-adv-x="942" 
d="M817 1327v-119q-100 58 -167.5 84.5t-147.5 26.5q-72 0 -130.5 -25t-93 -65t-53 -86t-18.5 -92q0 -37 10 -69.5t24 -56t40.5 -45.5t48.5 -36.5t60 -31t61.5 -25t66.5 -23.5q58 -21 101.5 -40.5t94.5 -53.5t83.5 -74t54.5 -99t22 -130q0 -89 -35.5 -163.5t-94 -122
t-130 -73.5t-145.5 -26q-178 0 -358 122v127q104 -74 184.5 -110.5t169.5 -36.5q72 0 130.5 25.5t94 66.5t54 89t18.5 97q0 54 -20 99.5t-48 75.5t-71 56t-75 39t-73 27q-86 29 -141 54t-72.5 37t-38.5 30q-127 108 -127 267q0 70 29 136t79.5 117.5t126 83t161.5 31.5
q165 0 325 -88zM838 1491h-105l-233 180l-228 -180h-108l254 281h160z" />
    <glyph glyph-name="scircumflex" unicode="&#x15d;" horiz-adv-x="712" 
d="M621 860v-106q-135 94 -252 94q-89 0 -144 -47.5t-55 -108.5q0 -30 15 -57t35 -44.5t54 -35t56.5 -26.5t58.5 -21q28 -10 41.5 -15.5t45.5 -20.5t50.5 -27.5t44.5 -35t40.5 -46.5t25 -57t10.5 -70q0 -100 -81 -177t-218 -77q-138 0 -276 84v96q50 -26 78 -39.5t90 -31
t118 -17.5q90 0 140.5 45t50.5 108q0 24 -7 44.5t-15.5 35.5t-30 31.5t-36 26t-49 24.5t-53 22.5t-63.5 24.5q-29 11 -46.5 19t-54 30.5t-58.5 46.5t-40 64.5t-18 87.5q0 44 18.5 87.5t54 81.5t94 61.5t130.5 23.5q114 0 246 -78zM446 1384l218 -335h-78l-201 223l-207 -223
h-78l222 335h124z" />
    <glyph glyph-name="uni015E" unicode="&#x15e;" horiz-adv-x="942" 
d="M508 -16l-19 -62q51 -8 88.5 -25t55 -34.5t27.5 -39.5t11 -32t1 -20q0 -76 -69 -127.5t-206 -51.5q-37 0 -139 11l12 78q102 -7 127 -7q20 0 39.5 2t56 9t58.5 27.5t22 51.5q0 25 -14.5 42t-42.5 25.5t-58.5 12t-74.5 4.5l39 136q-160 20 -311 120v127
q104 -74 184.5 -110.5t169.5 -36.5q72 0 130.5 25.5t94 66.5t54 89t18.5 97q0 54 -20 99.5t-48 75.5t-71 56t-75 39t-73 27q-86 29 -141 54t-72.5 37t-38.5 30q-127 108 -127 267q0 70 29 136t79.5 117.5t126 83t161.5 31.5q165 0 325 -88v-119q-100 58 -167.5 84.5
t-147.5 26.5q-72 0 -130.5 -25t-93 -65t-53 -86t-18.5 -92q0 -37 10 -69.5t24 -56t40.5 -45.5t48.5 -36.5t60 -31t61.5 -25t66.5 -23.5q58 -21 101.5 -40.5t94.5 -53.5t83.5 -74t54.5 -99t22 -130q0 -109 -53.5 -195t-135 -132.5t-177.5 -55.5z" />
    <glyph glyph-name="uni015F" unicode="&#x15f;" horiz-adv-x="712" 
d="M393 -16l-35 -70q45 -1 78.5 -15t49 -30t24 -38.5t9.5 -32t1 -17.5q0 -11 -1.5 -21.5t-9 -30.5t-21 -36.5t-40.5 -34.5t-64 -29.5t-95.5 -17.5t-130.5 -2l14 76q23 1 32 1t35.5 1.5t40.5 4.5t37.5 7.5t36.5 12t27 17t20.5 23.5t6.5 31q0 24 -14 39.5t-42 21.5t-49.5 7.5
t-56.5 1.5l63 131q-56 6 -108 22.5t-73 27.5t-56 32v96q50 -26 78 -39.5t90 -31t118 -17.5q90 0 140.5 45t50.5 108q0 24 -7 44.5t-15.5 35.5t-30 31.5t-36 26t-49 24.5t-53 22.5t-63.5 24.5q-29 11 -46.5 19t-54 30.5t-58.5 46.5t-40 64.5t-18 87.5q0 44 18.5 87.5t54 81.5
t94 61.5t130.5 23.5q114 0 246 -78v-106q-135 94 -252 94q-89 0 -144 -47.5t-55 -108.5q0 -30 15 -57t35 -44.5t54 -35t56.5 -26.5t58.5 -21q28 -10 41.5 -15.5t45.5 -20.5t50.5 -27.5t44.5 -35t40.5 -46.5t25 -57t10.5 -70q0 -55 -25.5 -107t-85.5 -94t-143 -51z" />
    <glyph glyph-name="Scaron" unicode="&#x160;" horiz-adv-x="942" 
d="M817 1327v-119q-100 58 -167.5 84.5t-147.5 26.5q-72 0 -130.5 -25t-93 -65t-53 -86t-18.5 -92q0 -37 10 -69.5t24 -56t40.5 -45.5t48.5 -36.5t60 -31t61.5 -25t66.5 -23.5q58 -21 101.5 -40.5t94.5 -53.5t83.5 -74t54.5 -99t22 -130q0 -89 -35.5 -163.5t-94 -122
t-130 -73.5t-145.5 -26q-178 0 -358 122v127q104 -74 184.5 -110.5t169.5 -36.5q72 0 130.5 25.5t94 66.5t54 89t18.5 97q0 54 -20 99.5t-48 75.5t-71 56t-75 39t-73 27q-86 29 -141 54t-72.5 37t-38.5 30q-127 108 -127 267q0 70 29 136t79.5 117.5t126 83t161.5 31.5
q165 0 325 -88zM838 1772l-260 -281h-160l-254 281h108l228 -181l233 181h105z" />
    <glyph glyph-name="scaron" unicode="&#x161;" horiz-adv-x="712" 
d="M621 860v-106q-135 94 -252 94q-89 0 -144 -47.5t-55 -108.5q0 -30 15 -57t35 -44.5t54 -35t56.5 -26.5t58.5 -21q28 -10 41.5 -15.5t45.5 -20.5t50.5 -27.5t44.5 -35t40.5 -46.5t25 -57t10.5 -70q0 -100 -81 -177t-218 -77q-138 0 -276 84v96q50 -26 78 -39.5t90 -31
t118 -17.5q90 0 140.5 45t50.5 108q0 24 -7 44.5t-15.5 35.5t-30 31.5t-36 26t-49 24.5t-53 22.5t-63.5 24.5q-29 11 -46.5 19t-54 30.5t-58.5 46.5t-40 64.5t-18 87.5q0 44 18.5 87.5t54 81.5t94 61.5t130.5 23.5q114 0 246 -78zM457 1049h-125l-221 335h77l207 -227
l201 227h78z" />
    <glyph glyph-name="Tcommaaccent" unicode="&#x162;" horiz-adv-x="1173" 
d="M1165 1397v-90h-522v-1307h-111v1307h-524v90h1157zM342 -387l14 74q41 -6 80 -6q189 0 189 90q0 93 -236 82l14 73q27 2 78 2q19 0 33.5 -1t48 -4.5t58.5 -13t52 -25t41.5 -42.5t14.5 -63q0 -73 -66 -124.5t-208 -51.5q-58 0 -113 10z" />
    <glyph glyph-name="tcommaaccent" unicode="&#x163;" horiz-adv-x="618" 
d="M307 1225v-305h258v-82h-258v-564q0 -67 3 -90t16 -45q35 -59 120 -59q71 0 166 43v-94q-101 -47 -190 -47q-62 0 -116 30t-77 80q-14 33 -17 66t-3 116v564h-248v82h248v219l67 86h31zM238 -348l10 65q40 -4 61 -4q142 0 142 82q0 18 -6 31.5t-18.5 21.5t-22.5 13
t-29 7.5t-27 3t-26 1.5l8 55q83 12 140.5 -24.5t57.5 -104.5q0 -63 -48.5 -110t-153.5 -47q-46 0 -88 10z" />
    <glyph glyph-name="Tcaron" unicode="&#x164;" horiz-adv-x="1173" 
d="M1165 1397v-90h-522v-1307h-111v1307h-524v90h1157zM924 1772l-260 -281h-160l-254 281h108l228 -181l233 181h105z" />
    <glyph glyph-name="tcaron" unicode="&#x165;" horiz-adv-x="831" 
d="M305 1225v-305h258v-82h-258v-564q0 -67 3 -90t16 -45q30 -59 120 -59q71 0 166 43v-94q-101 -47 -190 -47q-62 0 -116 30t-77 80q-14 33 -17 66t-3 116v564h-248v82h248v219l67 86h31zM772 1397v-119q0 -219 -133 -315v69q14 27 19.5 39t14 50t7.5 81h-41v195h133z" />
    <glyph glyph-name="Tbar" unicode="&#x166;" horiz-adv-x="1173" 
d="M643 743h471v-86h-471v-657h-111v657h-475v86h475v564h-524v90h1157v-90h-522v-564z" />
    <glyph glyph-name="tbar" unicode="&#x167;" horiz-adv-x="618" 
d="M307 610h285v-84h-285v-252q0 -67 3 -90t16 -45q35 -59 120 -59q71 0 166 43v-94q-101 -47 -190 -47q-62 0 -116 30t-77 80q-14 33 -17 66t-3 116v252h-248v84h248v228h-248v82h248v219l67 86h31v-305h258v-82h-258v-228z" />
    <glyph glyph-name="Utilde" unicode="&#x168;" horiz-adv-x="1429" 
d="M1298 1397v-705q0 -165 -19 -265.5t-79 -193.5q-69 -108 -191 -179.5t-288 -71.5q-94 0 -183.5 24t-173 81.5t-131.5 141.5q-48 82 -71 163t-27 137.5t-4 162.5v705h107v-725q0 -240 75 -369q56 -96 156.5 -158.5t243.5 -62.5q128 0 239 57.5t162 159.5q45 87 61.5 174
t16.5 199v725h106zM461 1507h-84q-4 32 -0.5 75.5t20.5 78.5q19 42 61 66t87 24q82 0 241 -80q92 -45 123 -45q35 0 47 28.5t17 100.5h84q-3 -105 -21 -153q-20 -48 -59 -70.5t-76 -22.5q-90 0 -246 76q-94 45 -127 45q-21 0 -34.5 -8t-20 -27.5t-8.5 -36.5t-4 -51z" />
    <glyph glyph-name="utilde" unicode="&#x169;" horiz-adv-x="1003" 
d="M866 920v-920h-98v152q-26 -32 -47.5 -54t-61 -52.5t-91.5 -47t-113 -16.5q-85 0 -163.5 39.5t-115.5 105.5q-36 61 -46.5 124t-10.5 150v519h98v-519q0 -84 7 -132t30 -89q33 -60 91.5 -86t119.5 -26q134 0 233 96q32 34 70 112v644h98zM233 1122h-65q16 195 164 195
q40 0 80 -10.5t116 -40.5q111 -45 156 -45q27 0 46 9.5t28 27t12.5 30t5.5 29.5h62q1 -52 -15.5 -91.5t-38 -58.5t-49 -30.5t-41.5 -14t-22 -2.5q-48 0 -170 45q-103 37 -132 45.5t-51 8.5q-39 0 -60 -27.5t-26 -69.5z" />
    <glyph glyph-name="Umacron" unicode="&#x16a;" horiz-adv-x="1429" 
d="M1298 1397v-705q0 -165 -19 -265.5t-79 -193.5q-69 -108 -191 -179.5t-288 -71.5q-94 0 -183.5 24t-173 81.5t-131.5 141.5q-48 82 -71 163t-27 137.5t-4 162.5v705h107v-725q0 -240 75 -369q56 -96 156.5 -158.5t243.5 -62.5q128 0 239 57.5t162 159.5q45 87 61.5 174
t16.5 199v725h106zM1042 1681v-102h-653v102h653z" />
    <glyph glyph-name="umacron" unicode="&#x16b;" horiz-adv-x="1003" 
d="M866 920v-920h-98v152q-26 -32 -47.5 -54t-61 -52.5t-91.5 -47t-113 -16.5q-85 0 -163.5 39.5t-115.5 105.5q-36 61 -46.5 124t-10.5 150v519h98v-519q0 -84 7 -132t30 -89q33 -60 91.5 -86t119.5 -26q134 0 233 96q32 34 70 112v644h98zM776 1276v-105h-547v105h547z
" />
    <glyph glyph-name="Ubreve" unicode="&#x16c;" horiz-adv-x="1429" 
d="M1298 1397v-705q0 -165 -19 -265.5t-79 -193.5q-69 -108 -191 -179.5t-288 -71.5q-94 0 -183.5 24t-173 81.5t-131.5 141.5q-48 82 -71 163t-27 137.5t-4 162.5v705h107v-725q0 -240 75 -369q56 -96 156.5 -158.5t243.5 -62.5q128 0 239 57.5t162 159.5q45 87 61.5 174
t16.5 199v725h106zM377 1722h102q43 -56 105.5 -88t132.5 -32q69 0 130 31.5t101 88.5h107q-28 -81 -76 -127q-107 -104 -262 -104q-78 0 -149.5 29.5t-121.5 81.5q-43 47 -69 120z" />
    <glyph glyph-name="ubreve" unicode="&#x16d;" horiz-adv-x="1003" 
d="M866 920v-920h-98v152q-26 -32 -47.5 -54t-61 -52.5t-91.5 -47t-113 -16.5q-85 0 -163.5 39.5t-115.5 105.5q-36 61 -46.5 124t-10.5 150v519h98v-519q0 -84 7 -132t30 -89q33 -60 91.5 -86t119.5 -26q134 0 233 96q32 34 70 112v644h98zM225 1325h82q34 -73 86.5 -107
t110.5 -34q44 0 80 14.5t61.5 43t35 42.5t24.5 41h77q-87 -233 -276 -233q-37 0 -71 10t-58.5 24t-47.5 37t-37.5 41.5t-29.5 45t-21.5 40.5t-15.5 35z" />
    <glyph glyph-name="Uring" unicode="&#x16e;" horiz-adv-x="1429" 
d="M1298 1397v-705q0 -165 -19 -265.5t-79 -193.5q-69 -108 -191 -179.5t-288 -71.5q-94 0 -183.5 24t-173 81.5t-131.5 141.5q-48 82 -71 163t-27 137.5t-4 162.5v705h107v-725q0 -240 75 -369q56 -96 156.5 -158.5t243.5 -62.5q128 0 239 57.5t162 159.5q45 87 61.5 174
t16.5 199v725h106zM717 1919q88 0 150.5 -62.5t62.5 -150.5q0 -89 -62.5 -152t-150.5 -63t-151.5 62.5t-63.5 152.5q0 89 63 151t152 62zM713 1855q-62 0 -107 -43.5t-45 -105.5q0 -64 45 -108t107 -44q63 0 107 44.5t44 107.5q0 62 -44 105.5t-107 43.5z" />
    <glyph glyph-name="uring" unicode="&#x16f;" horiz-adv-x="1003" 
d="M866 920v-920h-98v152q-26 -32 -47.5 -54t-61 -52.5t-91.5 -47t-113 -16.5q-85 0 -163.5 39.5t-115.5 105.5q-36 61 -46.5 124t-10.5 150v519h98v-519q0 -84 7 -132t30 -89q33 -60 91.5 -86t119.5 -26q134 0 233 96q32 34 70 112v644h98zM504 1391q72 0 124 -52t52 -127
q0 -72 -51.5 -124t-124.5 -52t-125.5 52t-52.5 124q0 74 52.5 126.5t125.5 52.5zM504 1335q-51 0 -86 -35t-35 -86q0 -50 35 -85t86 -35q49 0 84 35t35 85q0 51 -34.5 86t-84.5 35z" />
    <glyph glyph-name="Uhungarumlaut" unicode="&#x170;" horiz-adv-x="1429" 
d="M1298 1397v-705q0 -165 -19 -265.5t-79 -193.5q-69 -108 -191 -179.5t-288 -71.5q-94 0 -183.5 24t-173 81.5t-131.5 141.5q-48 82 -71 163t-27 137.5t-4 162.5v705h107v-725q0 -240 75 -369q56 -96 156.5 -158.5t243.5 -62.5q128 0 239 57.5t162 159.5q45 87 61.5 174
t16.5 199v725h106zM866 1753l-301 -262h-76l162 262h215zM1169 1753l-299 -262h-77l163 262h213z" />
    <glyph glyph-name="uhungarumlaut" unicode="&#x171;" horiz-adv-x="1003" 
d="M866 920v-920h-98v152q-26 -32 -47.5 -54t-61 -52.5t-91.5 -47t-113 -16.5q-85 0 -163.5 39.5t-115.5 105.5q-36 61 -46.5 124t-10.5 150v519h98v-519q0 -84 7 -132t30 -89q33 -60 91.5 -86t119.5 -26q134 0 233 96q32 34 70 112v644h98zM731 1386l-321 -317h-64l203 317
h182zM1008 1386l-328 -317h-62l205 317h185z" />
    <glyph glyph-name="Uogonek" unicode="&#x172;" horiz-adv-x="1429" 
d="M1106 -289v-86q-58 -12 -94 -12q-100 0 -156.5 55t-56.5 133q0 71 44 124t136 114q-121 -57 -258 -57q-146 0 -282 62t-206 185q-68 119 -85 213.5t-17 249.5v705h107v-725q0 -240 75 -369q56 -96 156.5 -158.5t243.5 -62.5q128 0 239 57.5t162 159.5q45 87 61.5 174
t16.5 199v725h106v-705q0 -88 -3.5 -144.5t-19 -131.5t-45 -135t-83 -132.5t-131.5 -146.5q-61 -59 -81 -94.5t-20 -71.5q0 -10 1.5 -21t11.5 -34t28 -38.5t57.5 -26t92.5 -5.5z" />
    <glyph glyph-name="uogonek" unicode="&#x173;" horiz-adv-x="1003" 
d="M930 -260v-78q-62 -10 -84 -10q-91 0 -141 50t-50 116q0 55 30.5 102.5t82.5 79.5v152q-26 -32 -47.5 -54t-61 -52.5t-91.5 -47t-113 -16.5q-85 0 -163.5 39.5t-115.5 105.5q-36 61 -46.5 124t-10.5 150v519h98v-519q0 -84 7 -132t30 -89q33 -60 91.5 -86t119.5 -26
q134 0 233 96q32 34 70 112v644h98v-920h-20q-86 -78 -86 -147q0 -10 1 -19.5t10 -30.5t25.5 -35t51 -23t82.5 -5z" />
    <glyph glyph-name="Wcircumflex" unicode="&#x174;" horiz-adv-x="2111" 
d="M2114 1397l-558 -1407h-32l-469 1175l-465 -1175h-33l-559 1407h111l462 -1159l467 1159h35l465 -1159l467 1159h109zM1393 1491h-105l-233 180l-228 -180h-108l254 281h160z" />
    <glyph glyph-name="wcircumflex" unicode="&#x175;" horiz-adv-x="1449" 
d="M1450 920l-397 -938h-47l-283 747l-285 -747h-45l-393 938h96l314 -750l288 750h54l280 -750l320 750h98zM791 1384l217 -335h-78l-201 223l-207 -223h-78l222 335h125z" />
    <glyph glyph-name="Ycircumflex" unicode="&#x176;" horiz-adv-x="1196" 
d="M1196 1397l-547 -647v-750h-108v750l-541 647h131l465 -553l467 553h133zM938 1491h-104l-234 180l-227 -180h-109l254 281h160z" />
    <glyph glyph-name="ycircumflex" unicode="&#x177;" horiz-adv-x="841" 
d="M854 920l-688 -1391h-100l321 649l-387 742h100l336 -644l318 644h100zM485 1384l217 -335h-77l-201 223l-207 -223h-78l221 335h125z" />
    <glyph glyph-name="Ydieresis" unicode="&#x178;" horiz-adv-x="1193" 
d="M1196 1397l-547 -647v-750h-108v750l-541 647h131l465 -553l467 553h133zM403 1722q37 0 64 -26.5t27 -63.5q0 -36 -27 -62t-64 -26t-62.5 25.5t-25.5 62.5t25.5 63.5t62.5 26.5zM791 1720q37 0 62.5 -26.5t25.5 -63.5q0 -36 -26 -62t-62 -26q-37 0 -63 25.5t-26 62.5
q0 38 26.5 64t62.5 26z" />
    <glyph glyph-name="Zacute" unicode="&#x179;" horiz-adv-x="1300" 
d="M1243 1397v-37l-1046 -1272h1054v-88h-1233v31l1049 1278h-1001v88h1177zM735 1753h250l-399 -262h-101z" />
    <glyph glyph-name="zacute" unicode="&#x17a;" horiz-adv-x="817" 
d="M788 920v-37l-604 -791h604v-92h-768v31l609 794h-570v95h729zM752 1386l-312 -319h-67l213 319h166z" />
    <glyph glyph-name="Zdotaccent" unicode="&#x17b;" horiz-adv-x="1300" 
d="M1243 1397v-37l-1046 -1272h1054v-88h-1233v31l1049 1278h-1001v88h1177zM651 1718q36 0 62 -26t26 -62t-26 -62t-62 -26q-38 0 -63 26t-25 62q0 37 25.5 62.5t62.5 25.5z" />
    <glyph glyph-name="zdotaccent" unicode="&#x17c;" horiz-adv-x="817" 
d="M788 920v-37l-604 -791h604v-92h-768v31l609 794h-570v95h729zM408 1303q36 0 62 -26.5t26 -62.5q0 -37 -25.5 -63.5t-62.5 -26.5t-64 26.5t-27 63.5t27 63t64 26z" />
    <glyph glyph-name="Zcaron" unicode="&#x17d;" horiz-adv-x="1300" 
d="M1243 1397v-37l-1046 -1272h1054v-88h-1233v31l1049 1278h-1001v88h1177zM987 1772l-260 -281h-160l-254 281h109l227 -181l234 181h104z" />
    <glyph glyph-name="zcaron" unicode="&#x17e;" horiz-adv-x="817" 
d="M788 920v-37l-604 -791h604v-92h-768v31l609 794h-570v95h729zM471 1049h-125l-221 335h78l207 -227l200 227h78z" />
    <glyph glyph-name="uni018f" unicode="&#x18f;" horiz-adv-x="1636" 
d="M78 700q0 36 2 54h1356q-9 112 -58.5 213t-128 177.5t-190.5 121.5t-238 45q-241 0 -497 -129v118q249 115 495 115q162 0 302 -58t235 -155.5t149 -226.5t54 -270q0 -154 -59 -289.5t-159.5 -230t-236.5 -149t-287 -54.5q-206 0 -375.5 95.5t-266.5 260t-97 362.5z
M815 84q116 0 224 41t193.5 114t140.5 183t63 240h-1235q7 -117 55.5 -222.5t128 -184t191.5 -125t239 -46.5z" />
    <glyph glyph-name="florin" unicode="&#x192;" horiz-adv-x="1130" 
d="M674 1061h225l-22 -90h-222l-247 -1141q-10 -47 -20.5 -80t-31.5 -69.5t-48.5 -58.5t-72 -37t-102.5 -15q-71 0 -180 31l22 100q90 -23 146 -23q120 0 149 101q12 52 49 221l211 971h-170l21 90h168l24 108q13 55 18.5 76.5t16.5 58.5t20 54t23 37.5t31 34.5
q73 61 178 61q63 0 184 -33l-20 -98q-85 20 -156 20q-18 0 -33 -2t-27.5 -8.5t-22 -10.5t-19 -17t-15.5 -19t-13 -25t-10.5 -26.5t-10 -32t-8.5 -33t-9 -37.5z" />
    <glyph glyph-name="AEacute" unicode="&#x1fc;" horiz-adv-x="1771" 
d="M1675 1397v-88h-655v-559h641v-91h-641v-569h674v-90h-785v659h-409l-410 -659h-119l873 1397h831zM909 750v573l-350 -573h350zM1380 1753h250l-399 -262h-101z" />
    <glyph glyph-name="aeacute" unicode="&#x1fd;" horiz-adv-x="1366" 
d="M1290 498h-594v-76q0 -140 27 -193q20 -43 49.5 -74t62.5 -47t63 -23t60 -7q167 0 332 121v-113q-168 -104 -342 -104q-171 0 -291 143q-97 -70 -178 -106.5t-168 -36.5q-112 0 -177.5 72.5t-65.5 164.5q0 44 14 82.5t37.5 68t63 56t80 46.5t100 39.5t112 34t125.5 32.5
q0 104 -10 149q-11 49 -46 78.5t-65 37t-61 7.5q-140 0 -307 -117v103q145 102 321 102q58 0 102 -13.5t73 -40t42 -43t29 -44.5q21 28 37 45t48.5 43t76 39.5t96.5 13.5q40 0 81 -10t85 -33t82.5 -66.5t62.5 -103.5q38 -92 43 -227zM696 578h486q-8 90 -43 151
q-29 52 -83.5 84.5t-121.5 32.5q-98 0 -166.5 -74t-71.5 -194zM600 182v316q-55 -15 -85 -23.5t-83 -25.5t-84 -31.5t-70 -37t-60.5 -45.5t-36.5 -53.5t-15 -64.5q0 -64 48 -107.5t122 -43.5q113 0 264 116zM1028 1386l-311 -319h-68l213 319h166z" />
    <glyph glyph-name="Oslashacute" unicode="&#x1fe;" horiz-adv-x="1640" 
d="M1481 1356l-131 -146q27 -28 46 -49.5t53.5 -73t56.5 -102t39.5 -127.5t17.5 -160q0 -152 -59.5 -286t-160 -228t-236 -148t-284.5 -54q-237 0 -452 137l-127 -142l-78 60l133 143q-82 82 -125 156q-96 175 -96 360q0 107 31.5 210.5t95 195.5t151 162t209 110.5
t260.5 40.5q87 0 163 -14.5t134 -41.5t87 -44t65 -43l131 135zM1274 1124l-830 -923q170 -121 373 -121q139 0 258 52t199 138.5t125 198t45 229.5t-44 228t-126 198zM373 264l829 924q-161 127 -377 127q-136 0 -254 -51.5t-198.5 -137t-126 -198t-45.5 -234.5
q0 -164 75 -305q36 -64 97 -125zM905 1753h250l-399 -262h-101z" />
    <glyph glyph-name="oslashacute" unicode="&#x1ff;" horiz-adv-x="1085" 
d="M995 920l-106 -127q123 -125 123 -330q0 -140 -63 -251t-169.5 -170.5t-236.5 -59.5q-70 0 -133.5 18t-90.5 33t-61 39l-117 -133l-67 61l121 131q-119 148 -119 330q0 91 30 175t86 152t147.5 109t203.5 41q156 0 280 -88l109 121zM262 209l500 569l-14 8
q-13 9 -18.5 12t-21.5 11.5t-26.5 12.5t-28.5 10.5t-34 9.5t-36.5 5.5t-41.5 2.5q-68 0 -131.5 -24.5t-114.5 -71t-82 -122t-31 -169.5q0 -152 80 -254zM823 717l-499 -572q97 -69 217 -69q160 0 263 111t103 270q0 151 -84 260zM889 1386l-311 -319h-68l213 319h166z" />
    <glyph glyph-name="uni0218" unicode="&#x218;" horiz-adv-x="942" 
d="M817 1327v-119q-100 58 -167.5 84.5t-147.5 26.5q-72 0 -130.5 -25t-93 -65t-53 -86t-18.5 -92q0 -37 10 -69.5t24 -56t40.5 -45.5t48.5 -36.5t60 -31t61.5 -25t66.5 -23.5q58 -21 101.5 -40.5t94.5 -53.5t83.5 -74t54.5 -99t22 -130q0 -89 -35.5 -163.5t-94 -122
t-130 -73.5t-145.5 -26q-178 0 -358 122v127q104 -74 184.5 -110.5t169.5 -36.5q72 0 130.5 25.5t94 66.5t54 89t18.5 97q0 54 -20 99.5t-48 75.5t-71 56t-75 39t-73 27q-86 29 -141 54t-72.5 37t-38.5 30q-127 108 -127 267q0 70 29 136t79.5 117.5t126 83t161.5 31.5
q165 0 325 -88zM236 -387l14 74q41 -6 80 -6q188 0 188 90q0 93 -235 82l14 73q27 2 78 2q19 0 33.5 -1t48 -4.5t58.5 -13t52 -25t41.5 -42.5t14.5 -63q0 -72 -66.5 -124t-208.5 -52q-57 0 -112 10z" />
    <glyph glyph-name="uni0219" unicode="&#x219;" horiz-adv-x="712" 
d="M621 860v-106q-135 94 -252 94q-89 0 -144 -47.5t-55 -108.5q0 -30 15 -57t35 -44.5t54 -35t56.5 -26.5t58.5 -21q28 -10 41.5 -15.5t45.5 -20.5t50.5 -27.5t44.5 -35t40.5 -46.5t25 -57t10.5 -70q0 -100 -81 -177t-218 -77q-138 0 -276 84v96q50 -26 78 -39.5t90 -31
t118 -17.5q90 0 140.5 45t50.5 108q0 24 -7 44.5t-15.5 35.5t-30 31.5t-36 26t-49 24.5t-53 22.5t-63.5 24.5q-29 11 -46.5 19t-54 30.5t-58.5 46.5t-40 64.5t-18 87.5q0 44 18.5 87.5t54 81.5t94 61.5t130.5 23.5q114 0 246 -78zM195 -348l10 65q40 -4 61 -4q142 0 142 82
q0 18 -6 31.5t-18.5 21.5t-22.5 13t-29 7.5t-27 3t-26 1.5l8 55q83 12 140.5 -24.5t57.5 -104.5q0 -63 -48.5 -110t-153.5 -47q-46 0 -88 10z" />
    <glyph glyph-name="uni021A" unicode="&#x21a;" horiz-adv-x="1173" 
d="M1165 1397v-90h-522v-1307h-111v1307h-524v90h1157zM342 -387l14 74q41 -6 80 -6q189 0 189 90q0 93 -236 82l14 73q27 2 78 2q19 0 33.5 -1t48 -4.5t58.5 -13t52 -25t41.5 -42.5t14.5 -63q0 -73 -66 -124.5t-208 -51.5q-58 0 -113 10z" />
    <glyph glyph-name="uni021B" unicode="&#x21b;" horiz-adv-x="618" 
d="M307 1225v-305h258v-82h-258v-564q0 -67 3 -90t16 -45q35 -59 120 -59q71 0 166 43v-94q-101 -47 -190 -47q-62 0 -116 30t-77 80q-14 33 -17 66t-3 116v564h-248v82h248v219l67 86h31zM238 -348l10 65q40 -4 61 -4q142 0 142 82q0 18 -6 31.5t-18.5 21.5t-22.5 13
t-29 7.5t-27 3t-26 1.5l8 55q83 12 140.5 -24.5t57.5 -104.5q0 -63 -48.5 -110t-153.5 -47q-46 0 -88 10z" />
    <glyph glyph-name="uni0259" unicode="&#x259;" horiz-adv-x="964" 
d="M74 573h696q-2 38 -26.5 85t-64 90t-98.5 72.5t-122 29.5q-42 0 -79.5 -6.5t-59.5 -12t-51 -23.5t-36 -22.5t-34 -28.5l-27 -24v111q49 34 79.5 51.5t87.5 32t130 14.5q166 0 284 -117t130 -321q10 -196 -66 -332q-106 -190 -346 -190q-71 0 -133 21.5t-107 58t-76 76
t-53 83.5q-22 45 -30 142t2 210zM778 496h-606q-14 -177 64 -297q36 -60 98 -94.5t137 -34.5q141 0 221 100q56 71 74 147.5t12 178.5z" />
    <glyph glyph-name="circumflex" unicode="&#x2c6;" horiz-adv-x="681" 
d="M406 1384l217 -335h-78l-201 223l-207 -223h-78l222 335h125z" />
    <glyph glyph-name="caron" unicode="&#x2c7;" horiz-adv-x="681" 
d="M406 1049h-125l-222 335h78l207 -227l201 227h78z" />
    <glyph glyph-name="uni02C9" unicode="&#x2c9;" horiz-adv-x="681" 
d="M614 1276v-105h-546v105h546z" />
    <glyph glyph-name="breve" unicode="&#x2d8;" horiz-adv-x="681" 
d="M63 1325h82q34 -73 86.5 -107t110.5 -34q44 0 80 14.5t61.5 43t35 42.5t24.5 41h78q-87 -233 -277 -233q-37 0 -71 10t-58.5 24t-47.5 37t-37.5 41.5t-29.5 45t-21.5 40.5t-15.5 35z" />
    <glyph glyph-name="dotaccent" unicode="&#x2d9;" horiz-adv-x="681" 
d="M342 1303q36 0 62 -26.5t26 -62.5q0 -37 -25.5 -63.5t-62.5 -26.5t-63.5 26.5t-26.5 63.5t26.5 63t63.5 26z" />
    <glyph glyph-name="ring" unicode="&#x2da;" horiz-adv-x="681" 
d="M342 1391q72 0 124 -52t52 -127q0 -72 -51.5 -124t-124.5 -52t-125.5 52t-52.5 124q0 74 52.5 126.5t125.5 52.5zM342 1335q-51 0 -86 -35t-35 -86q0 -50 35 -85t86 -35q49 0 84 35t35 85q0 51 -34.5 86t-84.5 35z" />
    <glyph glyph-name="ogonek" unicode="&#x2db;" horiz-adv-x="681" 
d="M475 -260v-78q-63 -10 -84 -10q-89 0 -139.5 49t-50.5 119q0 124 149 200h64q-66 -65 -87.5 -95t-21.5 -72q0 -10 1 -19.5t10 -30.5t25.5 -35t51 -23t82.5 -5z" />
    <glyph glyph-name="tilde" unicode="&#x2dc;" horiz-adv-x="681" 
d="M72 1122h-66q16 195 164 195q40 0 81 -10.5t116 -40.5q111 -45 155 -45q27 0 46 9.5t28 27t12.5 30t5.5 29.5h62q1 -52 -15.5 -91.5t-38 -58.5t-49 -30.5t-41.5 -14t-22 -2.5q-48 0 -170 45q-104 37 -132 45.5t-50 8.5q-39 0 -60 -27.5t-26 -69.5z" />
    <glyph glyph-name="hungarumlaut" unicode="&#x2dd;" horiz-adv-x="681" 
d="M528 1386l-321 -317h-64l203 317h182zM805 1386l-328 -317h-61l205 317h184z" />
    <glyph glyph-name="uni03A9" unicode="&#x3a9;" horiz-adv-x="1372" 
d="M1262 0h-416v88q46 41 82.5 80t82 103.5t75 133t50.5 165.5t21 204q0 171 -52.5 304t-160.5 211.5t-256 78.5q-144 0 -254 -77t-168.5 -211t-58.5 -304q0 -104 19.5 -198t49.5 -163t74 -134t83.5 -107.5t88.5 -85.5v-88h-418v88h304q-42 36 -79.5 77.5t-80.5 107
t-74 137.5t-51.5 169.5t-20.5 202.5q0 190 73 344t207.5 243t305.5 89q176 0 307 -85t199 -237t68 -352q0 -119 -27.5 -230t-73.5 -198t-97 -152.5t-108 -115.5h306v-88z" />
    <glyph glyph-name="uni03BC" unicode="&#x3bc;" horiz-adv-x="1050" 
d="M776 920h98v-775q0 -59 35 -59q39 0 117 43v-88q-43 -25 -98 -42t-82 -17q-70 0 -70 94v61q-98 -155 -252 -155q-69 0 -128.5 28.5t-93 61.5t-75.5 86v-629h-100v1391h100v-637q24 -44 49 -77t60 -65t80.5 -49.5t99.5 -17.5q53 0 96 15.5t69.5 38.5t46 57.5t28.5 63
t14 66t5.5 54.5t0.5 41v510z" />
    <glyph glyph-name="pi" unicode="&#x3c0;" horiz-adv-x="1204" 
d="M1128 10q-39 -22 -106 -22q-108 0 -160.5 67.5t-52.5 175.5v705h-420v-676q0 -155 -24 -260h-105q27 111 27 260v676q-44 -2 -103 -14t-98 -29q-9 25 -33 84q110 47 258 47h815v-88h-213v-696q0 -164 129 -164q27 0 62 14q20 -68 24 -80z" />
    <glyph glyph-name="Wgrave" unicode="&#x1e80;" horiz-adv-x="2111" 
d="M2114 1397l-558 -1407h-32l-469 1175l-465 -1175h-33l-559 1407h111l462 -1159l467 1159h35l465 -1159l467 1159h109zM971 1753l250 -262h-101l-399 262h250z" />
    <glyph glyph-name="wgrave" unicode="&#x1e81;" horiz-adv-x="1449" 
d="M1450 920l-397 -938h-47l-283 747l-285 -747h-45l-393 938h96l314 -750l288 750h54l280 -750l320 750h98zM381 1386h166l215 -319h-70z" />
    <glyph glyph-name="Wacute" unicode="&#x1e82;" horiz-adv-x="2111" 
d="M2114 1397l-558 -1407h-32l-469 1175l-465 -1175h-33l-559 1407h111l462 -1159l467 1159h35l465 -1159l467 1159h109zM1141 1753h250l-400 -262h-100z" />
    <glyph glyph-name="wacute" unicode="&#x1e83;" horiz-adv-x="1449" 
d="M1450 920l-397 -938h-47l-283 747l-285 -747h-45l-393 938h96l314 -750l288 750h54l280 -750l320 750h98zM1071 1386l-311 -319h-68l213 319h166z" />
    <glyph glyph-name="Wdieresis" unicode="&#x1e84;" horiz-adv-x="2111" 
d="M2114 1397l-558 -1407h-32l-469 1175l-465 -1175h-33l-559 1407h111l462 -1159l467 1159h35l465 -1159l467 1159h109zM862 1722q37 0 63.5 -26.5t26.5 -63.5t-26.5 -62.5t-63.5 -25.5t-62.5 25.5t-25.5 62.5t25.5 63.5t62.5 26.5zM1249 1720q37 0 62.5 -26.5t25.5 -63.5
q0 -36 -26 -62t-62 -26q-37 0 -62.5 25.5t-25.5 62.5q0 38 26 64t62 26z" />
    <glyph glyph-name="wdieresis" unicode="&#x1e85;" horiz-adv-x="1449" 
d="M1450 920l-397 -938h-47l-283 747l-285 -747h-45l-393 938h96l314 -750l288 750h54l280 -750l320 750h98zM543 1303q37 0 62.5 -26t25.5 -63t-25.5 -63.5t-62.5 -26.5t-62.5 26.5t-25.5 63.5t25.5 63t62.5 26zM909 1303q37 0 63.5 -26t26.5 -63t-26.5 -63.5t-63.5 -26.5
q-35 0 -61.5 26.5t-26.5 63.5q0 36 26.5 62.5t61.5 26.5z" />
    <glyph glyph-name="Ygrave" unicode="&#x1ef2;" horiz-adv-x="1193" 
d="M1196 1397l-547 -647v-750h-108v750l-541 647h131l465 -553l467 553h133zM451 1753l249 -262h-100l-399 262h250z" />
    <glyph glyph-name="ygrave" unicode="&#x1ef3;" horiz-adv-x="841" 
d="M854 920l-688 -1391h-100l321 649l-387 742h100l336 -644l318 644h100zM70 1386h166l215 -319h-70z" />
    <glyph glyph-name="endash" unicode="&#x2013;" 
d="M1036 545v-66h-1048v66h1048z" />
    <glyph glyph-name="emdash" unicode="&#x2014;" horiz-adv-x="2048" 
d="M2060 545v-66h-2072v66h2072z" />
    <glyph glyph-name="quoteleft" unicode="&#x2018;" horiz-adv-x="362" 
d="M115 963v118q0 222 133 316v-70q-43 -78 -41 -168h41v-196h-133z" />
    <glyph glyph-name="quoteright" unicode="&#x2019;" horiz-adv-x="362" 
d="M248 1397v-119q0 -219 -133 -315v69q14 27 19.5 39t14.5 50t9 81h-43v195h133z" />
    <glyph glyph-name="quotesinglbase" unicode="&#x201a;" horiz-adv-x="362" 
d="M248 197v-121q0 -220 -133 -316v72q43 78 43 168h-43v197h133z" />
    <glyph glyph-name="quotedblleft" unicode="&#x201c;" horiz-adv-x="811" 
d="M563 963v118q0 222 133 316v-70q-45 -73 -43 -168h43v-196h-133zM115 963v118q0 222 133 316v-70q-43 -78 -41 -168h41v-196h-133z" />
    <glyph glyph-name="quotedblright" unicode="&#x201d;" horiz-adv-x="811" 
d="M248 1397v-119q0 -219 -133 -315v69q45 77 43 170h-43v195h133zM696 1397v-119q0 -219 -135 -315v69q45 77 43 170h-43v195h135z" />
    <glyph glyph-name="quotedblbase" unicode="&#x201e;" horiz-adv-x="811" 
d="M252 195v-119q0 -220 -133 -316v70q14 27 19.5 39t14 50t7.5 81h-41v195h133zM692 195v-119q0 -220 -133 -316v70q14 27 19.5 39t14 50t7.5 81h-41v195h133z" />
    <glyph glyph-name="dagger" unicode="&#x2020;" horiz-adv-x="1003" 
d="M567 1415l-37 -579l420 26v-112l-420 26l37 -1247h-135l37 1247l-418 -26v112l418 -26l-37 579h135z" />
    <glyph glyph-name="daggerdbl" unicode="&#x2021;" horiz-adv-x="980" 
d="M557 1415l-37 -518l408 23v-107l-408 29l29 -371l-29 -371l408 27v-111l-408 31l37 -518h-131l39 518l-412 -31v111l412 -27l-29 371l29 371l-412 -29v107l412 -23l-39 518h131z" />
    <glyph glyph-name="bullet" unicode="&#x2022;" 
d="M512 948q102 0 176 -73t74 -177t-73.5 -176.5t-176.5 -72.5q-102 0 -176 73t-74 176q0 105 74 177.5t176 72.5z" />
    <glyph glyph-name="ellipsis" unicode="&#x2026;" horiz-adv-x="2048" 
d="M408 199v-199h-134v199h134zM1092 199v-199h-136v199h136zM1774 199v-199h-134v199h134z" />
    <glyph glyph-name="perthousand" unicode="&#x2030;" horiz-adv-x="2154" 
d="M1294 1415l-1126 -1433h-100l1126 1433h100zM362 1327q-99 0 -170 -70.5t-71 -171.5q0 -100 70.5 -170.5t170.5 -70.5t171 70.5t71 170.5q0 101 -71 171.5t-171 70.5zM1034 551q-100 0 -170.5 -70.5t-70.5 -171.5q0 -100 70.5 -170.5t170.5 -70.5t171 70.5t71 170.5
q0 101 -71 171.5t-171 70.5zM362 1415q136 0 233 -96.5t97 -231.5q0 -136 -96.5 -232.5t-233.5 -96.5q-136 0 -232.5 96t-96.5 233q0 136 97 232t232 96zM1034 639q136 0 233 -96.5t97 -231.5q0 -136 -96.5 -232.5t-233.5 -96.5q-136 0 -231.5 96t-95.5 233q0 136 96 232
t231 96zM1792 639q136 0 233 -96.5t97 -231.5q0 -136 -96.5 -232.5t-233.5 -96.5q-136 0 -233 96t-97 233q0 136 97 232t233 96zM1792 551q-100 0 -171 -70.5t-71 -171.5q0 -100 71 -170.5t171 -70.5t171 70.5t71 170.5q0 101 -71 171.5t-171 70.5z" />
    <glyph glyph-name="guilsinglleft" unicode="&#x2039;" horiz-adv-x="575" 
d="M543 14h-123l-387 459l387 459h123l-385 -459z" />
    <glyph glyph-name="guilsinglright" unicode="&#x203a;" horiz-adv-x="575" 
d="M33 932h123l387 -459l-387 -459h-123l385 459z" />
    <glyph glyph-name="fraction" unicode="&#x2044;" horiz-adv-x="276" 
d="M717 1415l-1077 -1470h-80l1077 1470h80z" />
    <glyph glyph-name="Euro" unicode="&#x20ac;" horiz-adv-x="1144" 
d="M1083 223v-112q-49 -33 -86 -55t-118 -48t-160 -26q-50 0 -103 10t-125 45t-130 92t-108 161.5t-69 241.5h-151l18 99h125q-5 56 0 131h-143l18 98h133q17 116 60.5 215.5t111 176t163.5 120t210 43.5q76 0 153 -19t117.5 -36.5t96.5 -46.5l-21 -105q-96 53 -174.5 79
t-167.5 26q-90 0 -165.5 -35.5t-128.5 -98t-88 -143.5t-50 -176h705l-19 -98h-696q-4 -53 0 -131h674l-19 -99h-645q33 -188 100 -280q128 -166 322 -166q92 0 177 35.5t183 101.5z" />
    <glyph glyph-name="afii61289" unicode="&#x2113;" horiz-adv-x="950" 
d="M778 115q-116 -140 -248 -140q-90 0 -143 56q-70 73 -70 227v277q-21 -23 -61 -71t-61 -71q-52 46 -62 58q31 37 92.5 109.5t91.5 109.5v497q0 161 56 242.5t157 81.5q86 0 130.5 -61t44.5 -136q0 -135 -58 -266.5t-166 -284.5q-25 -39 -61 -84v-415q0 -93 35 -137
t90 -44q50 0 93 30t89 81q8 -10 25.5 -29.5t25.5 -29.5zM606 1286q0 47 -19 82t-59 35q-51 0 -79.5 -54t-28.5 -190v-354q23 31 37 53q149 237 149 428z" />
    <glyph glyph-name="trademark" unicode="&#x2122;" horiz-adv-x="1921" 
d="M203 1397h635v-88h-267v-729h-102v729h-266v88zM932 1397h153l205 -654l211 654h156v-817h-92v729l-242 -729h-70l-229 729v-729h-92v817z" />
    <glyph glyph-name="Omega" unicode="&#x2126;" horiz-adv-x="1372" 
d="M1262 0h-416v88q46 41 82.5 80t82 103.5t75 133t50.5 165.5t21 204q0 171 -52.5 304t-160.5 211.5t-256 78.5q-144 0 -254 -77t-168.5 -211t-58.5 -304q0 -104 19.5 -198t49.5 -163t74 -134t83.5 -107.5t88.5 -85.5v-88h-418v88h304q-42 36 -79.5 77.5t-80.5 107
t-74 137.5t-51.5 169.5t-20.5 202.5q0 190 73 344t207.5 243t305.5 89q176 0 307 -85t199 -237t68 -352q0 -119 -27.5 -230t-73.5 -198t-97 -152.5t-108 -115.5h306v-88z" />
    <glyph glyph-name="estimated" unicode="&#x212e;" horiz-adv-x="1304" 
d="M1231 584h-899v-402q131 -131 317 -131q275 0 430 266q45 -28 74 -45q-98 -148 -214.5 -222.5t-289.5 -74.5q-169 0 -300 82.5t-199 220t-68 306.5q0 170 67.5 307t198.5 219t303 82q132 0 241 -47.5t181 -130t112.5 -192.5t45.5 -238zM973 659v324q-136 133 -324 133
q-192 0 -317 -131v-326h641z" />
    <glyph glyph-name="onethird" unicode="&#x2153;" horiz-adv-x="1579" 
d="M377 1407v-727h-86v727h86zM1343 1415l-1077 -1470h-80l1078 1470h79zM985 31v65q93 -45 195 -45q81 0 130.5 40t49.5 108q0 83 -60.5 118t-152.5 33v64q49 0 87.5 10t60 24.5t35 33.5t18 34t4.5 29q0 43 -28 73t-67 43t-83 13q-90 0 -183 -58v70l9 6q9 5 12.5 6.5t14 7
t18 8t20 7t24 6.5t26 5t30.5 4t33 1q115 0 186.5 -54.5t71.5 -133.5q0 -19 -5 -37.5t-18.5 -43t-43.5 -46.5t-73 -37q148 -46 148 -184q0 -54 -25 -96.5t-64.5 -66.5t-82 -36t-84.5 -12q-114 0 -203 41z" />
    <glyph glyph-name="twothirds" unicode="&#x2154;" horiz-adv-x="1599" 
d="M1382 1415l-1077 -1470h-80l1078 1470h79zM229 743h377v-63h-559q37 30 75 63.5t99 95.5t106.5 119.5t79 126t33.5 123.5q0 65 -53 105.5t-121 40.5q-53 0 -94 -21.5t-104 -70.5v84q67 45 122 59q40 10 82 10q111 0 182.5 -63.5t71.5 -145.5q0 -33 -10 -68.5t-22 -63.5
t-40.5 -69t-45 -63.5t-58.5 -68.5t-57.5 -63t-63.5 -67zM999 31v65q100 -45 195 -45q81 0 131.5 40t50.5 108q0 44 -18 75t-49.5 47t-67.5 23t-80 6v64q62 0 105.5 14.5t63.5 37t28 42t8 37.5q0 62 -54 95.5t-122 33.5q-89 0 -182 -58v70q84 51 186 51q115 0 185.5 -54.5
t70.5 -133.5q0 -115 -137 -164q147 -46 147 -184q0 -54 -25 -96.5t-64.5 -66.5t-83 -36t-85.5 -12q-110 0 -203 41z" />
    <glyph glyph-name="oneeighth" unicode="&#x215b;" horiz-adv-x="1579" 
d="M1374 379q119 -67 119 -178q0 -89 -71.5 -150t-174.5 -61q-101 0 -175.5 60t-74.5 147q0 26 7.5 53.5t36.5 65.5t77 63q-102 60 -102 162q0 75 65 135.5t162 60.5q95 0 164.5 -58t69.5 -138q0 -102 -103 -162zM1393 541q0 60 -46 95.5t-104 35.5q-62 0 -103.5 -39.5
t-41.5 -95.5q0 -58 44.5 -93.5t104.5 -35.5q63 0 104.5 38t41.5 95zM1407 205q0 63 -50.5 101t-113.5 38q-66 0 -112 -42t-46 -103q0 -62 49 -102t115 -40q67 0 112.5 41t45.5 107zM377 1407v-727h-86v727h86zM1356 1415l-1077 -1470h-80l1077 1470h80z" />
    <glyph glyph-name="threeeighths" unicode="&#x215c;" horiz-adv-x="1579" 
d="M1374 379q119 -67 119 -178q0 -89 -71.5 -150t-174.5 -61q-101 0 -175.5 60t-74.5 147q0 43 27 94.5t94 87.5q-102 60 -102 162q0 75 65 135.5t162 60.5q95 0 164.5 -58t69.5 -138q0 -102 -103 -162zM1393 541q0 60 -46 95.5t-104 35.5q-62 0 -103.5 -39.5t-41.5 -95.5
q0 -58 44.5 -93.5t104.5 -35.5q63 0 104.5 38t41.5 95zM1407 205q0 63 -50.5 101t-113.5 38q-66 0 -112 -42t-46 -103q0 -62 49 -102t115 -40q67 0 112.5 41t45.5 107zM1350 1415l-1078 -1470h-79l1077 1470h80zM74 709v65q104 -43 194 -43q81 0 131 39.5t50 108.5
q0 82 -61 117.5t-152 33.5v64q61 0 104.5 14t63.5 36.5t28 42t8 38.5q0 43 -28 73t-67 43t-83 13q-89 0 -182 -58v70q87 49 186 49q116 0 187 -53.5t71 -132.5q0 -115 -139 -164q147 -45 147 -184q0 -54 -25 -96.5t-64.5 -66.5t-82 -36t-84.5 -12q-111 0 -202 39z" />
    <glyph glyph-name="fiveeighths" unicode="&#x215d;" horiz-adv-x="1536" 
d="M1354 379q116 -65 116 -178q0 -89 -71 -150t-174 -61q-101 0 -174.5 60t-73.5 147q0 26 7.5 53.5t36 65.5t75.5 63q-103 63 -103 162q0 74 66.5 135t163.5 61q95 0 163 -58t68 -138q0 -102 -100 -162zM1370 541q0 60 -45 95.5t-104 35.5q-62 0 -103 -39.5t-41 -95.5
q0 -57 44.5 -93t103.5 -36q64 0 104.5 37.5t40.5 95.5zM1384 205q0 64 -49.5 101.5t-111.5 37.5q-66 0 -113 -42t-47 -103q0 -62 49.5 -102t114.5 -40q68 0 112.5 40.5t44.5 107.5zM1329 1415l-1079 -1470h-80l1079 1470h80zM489 1407v-61h-290v-213q117 10 202 -25
q40 -17 68.5 -42.5t42 -54.5t19.5 -54.5t6 -49.5q0 -98 -78 -167.5t-201 -69.5q-97 0 -209 51v78q124 -66 211 -66q78 0 133.5 45t55.5 125q0 45 -18 79t-42 51t-55.5 27.5t-51 12.5t-36.5 2q-47 0 -129 -16v348h372z" />
    <glyph glyph-name="seveneighths" unicode="&#x215e;" horiz-adv-x="1536" 
d="M1356 379q117 -66 117 -178q0 -89 -71.5 -150t-174.5 -61q-101 0 -174.5 60t-73.5 147q0 26 7.5 53.5t36 65.5t75.5 63q-103 63 -103 162q0 75 66 135.5t164 60.5q95 0 163 -58t68 -138q0 -102 -100 -162zM1372 541q0 60 -45 95.5t-104 35.5q-62 0 -103 -39.5t-41 -95.5
q0 -57 44.5 -93t103.5 -36q63 0 104 38t41 95zM1386 205q0 64 -49.5 101.5t-111.5 37.5q-66 0 -113 -42t-47 -103q0 -62 49 -102t115 -40q68 0 112.5 40.5t44.5 107.5zM551 1415l-385 -745l-74 28l340 650h-446v67h565zM1323 1415l-1077 -1470h-80l1079 1470h78z" />
    <glyph glyph-name="partialdiff" unicode="&#x2202;" horiz-adv-x="1099" 
d="M997 1034q0 -189 -53 -407q-23 -92 -54 -178t-79.5 -173.5t-106 -151t-136 -104t-165.5 -40.5q-140 0 -225.5 98t-85.5 262q0 185 73 344t194 250.5t257 91.5q97 0 163.5 -43.5t99.5 -110.5h4q12 90 12 162q0 363 -277 363q-93 0 -178 -51q-20 54 -32 79
q36 23 100.5 41.5t120.5 18.5q174 0 271 -114.5t97 -336.5zM864 748q-23 87 -87 138.5t-165 51.5q-110 0 -206.5 -83.5t-153.5 -222t-57 -294.5q0 -126 59.5 -198t155.5 -72q152 0 271.5 179t182.5 501z" />
    <glyph glyph-name="Delta" unicode="&#x2206;" horiz-adv-x="1144" 
d="M1102 0h-1059v61q81 229 240.5 686t240.5 687h103q190 -545 475 -1373v-61zM983 90q-64 185 -190 553t-189 553q-8 23 -29 109h-4q-22 -87 -30 -109q-63 -185 -189 -553.5t-190 -552.5h821z" />
    <glyph glyph-name="product" unicode="&#x220f;" horiz-adv-x="1366" 
d="M1192 -471h-102v1814h-811v-1814h-103v1905h1016v-1905z" />
    <glyph glyph-name="summation" unicode="&#x2211;" horiz-adv-x="1206" 
d="M1149 -471h-1102v39q335 460 672 921q-103 148 -310.5 446.5t-310.5 446.5v52h998v-88h-856q115 -167 328.5 -475t262.5 -379q-568 -784 -634 -875h952v-88z" />
    <glyph glyph-name="minus" unicode="&#x2212;" horiz-adv-x="1351" 
d="M139 651v94h1073v-94h-1073z" />
    <glyph glyph-name="uni2215" unicode="&#x2215;" horiz-adv-x="276" 
d="M717 1415l-1077 -1470h-80l1077 1470h80z" />
    <glyph glyph-name="uni2219" unicode="&#x2219;" horiz-adv-x="575" 
d="M289 817q45 0 76.5 -31.5t31.5 -78.5q0 -45 -32.5 -77t-75.5 -32q-46 0 -78.5 32.5t-32.5 76.5q0 45 32 77.5t79 32.5z" />
    <glyph glyph-name="radical" unicode="&#x221a;" horiz-adv-x="944" 
d="M969 1491q-64 -253 -191 -758t-192 -758h-86q-40 105 -134 354t-145 382q-20 -10 -57 -31t-49 -27q-33 70 -37 76q102 53 201 105q43 -115 130 -344.5t130 -344.5q56 224 167 672.5t168 673.5h95z" />
    <glyph glyph-name="infinity" unicode="&#x221e;" horiz-adv-x="1480" 
d="M1370 602q0 -129 -80.5 -217t-208.5 -88q-112 0 -199 62t-143 157h-4q-61 -96 -145.5 -157.5t-179.5 -61.5q-139 0 -220 84t-81 211q0 134 78.5 219.5t213.5 85.5q62 0 117 -20t96.5 -54.5t70 -69t52.5 -73.5h4q141 217 330 217q130 0 214.5 -81t84.5 -214zM1270 600
q0 91 -51.5 150t-147.5 59q-86 0 -154 -54t-133 -157q58 -102 132.5 -157.5t152.5 -55.5q98 0 149.5 61t51.5 154zM694 598q-52 93 -130.5 152t-155.5 59q-100 0 -149.5 -60.5t-49.5 -156.5q0 -93 56 -150t143 -57q154 0 286 213z" />
    <glyph glyph-name="integral" unicode="&#x222b;" horiz-adv-x="946" 
d="M782 1425q-38 19 -88 19q-84 0 -127 -54.5t-43 -154.5v-1387q0 -140 -73 -218.5t-197 -78.5q-73 0 -117 21q1 3 10.5 35t14.5 49q50 -16 88 -16q172 0 172 206v1391q0 137 72.5 216t199.5 79q32 0 65.5 -7t47.5 -16q-4 -14 -12.5 -42t-12.5 -42z" />
    <glyph glyph-name="approxequal" unicode="&#x2248;" horiz-adv-x="1351" 
d="M1147 860q-114 -166 -268 -166q-108 0 -217 70q-114 70 -191 70q-55 0 -107 -37t-92 -99l-65 66q53 77 115 120.5t151 43.5q112 0 217 -68q116 -72 191 -72q110 0 200 136zM1147 434q-115 -164 -268 -164q-108 0 -217 70q-114 70 -191 70q-55 0 -107.5 -37t-91.5 -101
l-65 68q53 77 115 120.5t151 43.5q109 0 217 -70q111 -69 191 -69q56 0 107.5 36t92.5 99z" />
    <glyph glyph-name="notequal" unicode="&#x2260;" horiz-adv-x="1351" 
d="M1122 338h-530l-139 -291h-99l142 291h-265v94h312l159 332h-471v94h517l139 291h98l-141 -291h278v-94h-323l-160 -332h483v-94z" />
    <glyph glyph-name="lessequal" unicode="&#x2264;" horiz-adv-x="1351" 
d="M1122 0h-891v94h891v-94zM1122 264l-891 424v45l891 422v-106l-723 -336v-4l723 -338v-107z" />
    <glyph glyph-name="greaterequal" unicode="&#x2265;" horiz-adv-x="1351" 
d="M1122 0h-891v94h891v-94zM1122 688l-891 -424v107l723 336v4l-723 338v106l891 -422v-45z" />
    <glyph glyph-name="lozenge" unicode="&#x25ca;" horiz-adv-x="1056" 
d="M940 717q-64 -120 -191.5 -358.5t-191.5 -358.5h-61q-64 119 -191.5 357.5t-191.5 357.5q63 120 191.5 359.5t191.5 359.5h61q63 -120 191 -358.5t192 -358.5zM840 717q-39 74 -148 273.5t-166 309.5q-52 -98 -156.5 -292t-156.5 -291q52 -97 155.5 -291.5t155.5 -292.5
q76 142 316 584z" />
    <glyph glyph-name="one.alt" unicode="&#xe000;" 
d="M625 0h-109v1251l-364 -305l-46 80l474 389h45v-1415z" />
    <glyph glyph-name="zero.fitted" unicode="&#xf639;" 
d="M958 692q0 -146 -27 -267.5t-71 -202t-102.5 -136t-119 -80t-122.5 -24.5q-72 0 -138 28t-123 85.5t-99 139t-66 194.5t-24 245q0 162 28.5 299t71.5 211q57 99 144 165t202 66q69 0 133.5 -26.5t121.5 -84.5t99.5 -141t67 -204t24.5 -267zM856 705q0 72 -9.5 149
t-34 162t-61.5 151.5t-98.5 110t-138.5 43.5q-85 0 -152.5 -54.5t-108.5 -145t-62 -198.5t-21 -223q0 -171 39 -310t117 -223.5t182 -84.5q73 0 133 39t99 102t66 145.5t38.5 167t11.5 169.5z" />
    <glyph glyph-name="two.fitted" unicode="&#xf63a;" horiz-adv-x="946" 
d="M276 98h650v-98h-891q243 224 459 532q190 271 190 490q0 134 -96.5 216.5t-214.5 82.5q-90 0 -162 -39.5t-156 -114.5v121q150 127 326 127q89 0 167 -33.5t130.5 -88.5t82.5 -126.5t30 -146.5q0 -109 -44 -231t-165 -302q-32 -48 -75.5 -104.5t-70 -89t-85.5 -104
t-75 -91.5z" />
    <glyph glyph-name="three.fitted" unicode="&#xf63b;" horiz-adv-x="888" 
d="M35 51v96q148 -71 311 -71q146 0 237 82t91 217q0 40 -9 79.5t-34 82.5t-64 75.5t-105.5 53.5t-152.5 20v98q91 1 161 27t109 67.5t58.5 86.5t19.5 92q0 119 -96 190.5t-225 71.5q-147 0 -289 -94v100q123 90 295 90q193 0 304.5 -103.5t111.5 -248.5q0 -230 -252 -322
q24 -8 38 -13.5t46 -21.5t52.5 -32t48 -45t43.5 -62t28 -81t12 -103q0 -86 -28 -156t-71.5 -114.5t-100 -75t-110.5 -43t-106 -12.5q-65 0 -154.5 15.5t-168.5 53.5z" />
    <glyph glyph-name="four.fitted" unicode="&#xf63c;" horiz-adv-x="1017" 
d="M764 1415v-792h194v-84h-194v-539h-105v539h-636v34l702 842h39zM659 623v589l-491 -589h491z" />
    <glyph glyph-name="five.fitted" unicode="&#xf63d;" horiz-adv-x="962" 
d="M772 1397v-94h-493v-445q62 8 110 8q106 0 189.5 -28.5t134 -72.5t83.5 -103t45.5 -115t12.5 -113q0 -188 -126.5 -320t-326.5 -132q-73 0 -149.5 20t-107.5 34t-78 38v119q196 -115 337 -115q89 0 165 38t126.5 119t50.5 191q0 82 -26.5 146.5t-65.5 101.5t-90.5 60.5
t-95.5 31.5t-86 8q-64 0 -197 -26v649h588z" />
    <glyph glyph-name="six.fitted" unicode="&#xf63e;" horiz-adv-x="968" 
d="M657 1415l62 -74q-39 -27 -86.5 -64.5t-121 -109t-133.5 -146.5t-111.5 -176t-67.5 -198q149 109 309 109q56 0 111 -15t105.5 -46.5t89.5 -75.5t62 -107t23 -137q0 -173 -112.5 -283t-284.5 -110q-91 0 -168 31.5t-135 92t-90.5 154.5t-32.5 213q0 170 65.5 333
t182.5 302q28 32 64.5 71.5t114 109.5t154.5 126zM180 526q0 -4 -2 -34.5t-2 -47.5q0 -38 7.5 -81t29.5 -95t56 -92.5t93 -68t134 -27.5q133 0 216 83t83 197q0 35 -9.5 73.5t-33 79t-57 72t-86 52t-115.5 20.5q-166 0 -314 -131z" />
    <glyph glyph-name="seven.fitted" unicode="&#xf63f;" horiz-adv-x="993" 
d="M942 1397l-639 -1415l-90 38l578 1280h-762v97h913z" />
    <glyph glyph-name="eight.fitted" unicode="&#xf640;" 
d="M705 727q206 -124 206 -346q0 -168 -114 -283.5t-281 -115.5q-166 0 -283.5 112.5t-117.5 278.5q0 157 106 276q43 45 103 78q-183 124 -183 315q0 92 45.5 177t132 140.5t191.5 55.5q154 0 263.5 -109.5t109.5 -261.5q0 -137 -90 -241q-38 -43 -88 -76zM780 1047
q0 113 -78.5 189.5t-193.5 76.5q-112 0 -189 -80t-77 -191q0 -115 78.5 -191.5t193.5 -76.5q117 0 191.5 78.5t74.5 194.5zM805 387q0 123 -87.5 204t-207.5 81q-121 0 -206 -86t-85 -209t87 -207t210 -84q127 0 208 85.5t81 215.5z" />
    <glyph glyph-name="nine.fitted" unicode="&#xf641;" horiz-adv-x="968" 
d="M299 -18l-57 75q53 41 83 64.5t87.5 73.5t93.5 88t84.5 96t79 111.5t57.5 121t39 136.5q-35 -21 -54 -31.5t-64 -31t-92.5 -30.5t-96.5 -10q-69 0 -136.5 24t-124.5 69.5t-92.5 120.5t-35.5 167q0 104 45 191.5t136 142.5t212 55q194 0 312 -127t118 -362
q0 -104 -24.5 -204.5t-59.5 -178.5t-92.5 -158t-104 -132t-115.5 -112.5t-105 -88.5t-93 -70zM784 872q5 54 1 120.5t-25 129.5q-31 89 -106.5 145t-184.5 56q-130 0 -211.5 -85.5t-81.5 -205.5t81 -204.5t204 -84.5q178 0 323 129z" />
    <glyph glyph-name="zero.taboldstyle" unicode="&#xf643;" 
d="M63 461q0 214 126.5 345.5t322.5 131.5q197 0 323 -131t126 -346t-126 -347t-323 -132q-196 0 -322.5 132.5t-126.5 346.5zM166 461q0 -183 92.5 -285t253.5 -102q160 0 253 102t93 285q0 182 -93 283.5t-253 101.5t-253 -101.5t-93 -283.5z" />
    <glyph glyph-name="one.taboldstyle" unicode="&#xf644;" 
d="M664 0h-103v774l-276 -209l-45 80l378 293h46v-938z" />
    <glyph glyph-name="two.taboldstyle" unicode="&#xf645;" 
d="M375 92h483v-92h-725v16q14 11 63.5 50.5t73.5 59t73.5 60.5t77.5 66.5t71.5 66t69 69t56.5 66t47.5 67t28 60.5t11.5 58q0 69 -33 118t-78 69t-96 20q-152 0 -320 -168v121q43 34 69 52.5t68.5 42t87.5 34t97 10.5q138 0 222.5 -78t84.5 -207q0 -34 -10 -70t-31 -73
t-42.5 -70t-56.5 -71.5t-60 -65.5t-65.5 -64t-61 -55.5t-58.5 -51t-47 -40.5z" />
    <glyph glyph-name="three.taboldstyle" unicode="&#xf646;" 
d="M111 920h751l-403 -633q178 0 284.5 -93t106.5 -260q0 -121 -61.5 -215t-158 -142t-208.5 -48q-149 0 -301 96v101q66 -39 100.5 -58t92 -38t110.5 -19q86 0 159 37t120 113t47 176q0 121 -93 194.5t-235 73.5q-55 0 -127 -10l387 632h-571v93z" />
    <glyph glyph-name="four.taboldstyle" unicode="&#xf647;" 
d="M647 0h-624v23l700 915h27v-856h249v-82h-249v-471h-103v471zM178 82h469v629z" />
    <glyph glyph-name="five.taboldstyle" unicode="&#xf648;" 
d="M942 920v-93h-489l-88 -526q250 11 388 -98.5t138 -278.5q0 -118 -63.5 -210t-161 -138.5t-207.5 -46.5q-73 0 -146.5 21t-109.5 39.5t-88 48.5l4 114q39 -27 64 -42.5t72.5 -40t100.5 -36.5t109 -12q42 0 85 10t86 33.5t76.5 57t54.5 85t21 113.5q0 12 -1.5 24.5t-5 34
t-12.5 41.5t-22 44t-35 44t-50 40t-68.5 33t-89 21.5t-113 8.5t-139.5 -10l113 719h577z" />
    <glyph glyph-name="six.taboldstyle" unicode="&#xf649;" 
d="M682 1415l61 -74q-206 -140 -339.5 -317t-178.5 -377q63 48 144.5 78.5t165.5 30.5q162 0 275.5 -107t113.5 -274q0 -92 -34 -168t-90.5 -124.5t-126.5 -74.5t-145 -26q-83 0 -157 27.5t-136 83.5t-98.5 154t-36.5 226q0 520 582 942zM205 518q-2 -14 -2 -84
q0 -61 19.5 -121t56.5 -112t100 -84.5t141 -32.5q131 0 216 76.5t85 199.5q0 35 -10.5 73t-34.5 78t-58 71t-85.5 51t-112.5 20q-76 0 -138.5 -21t-96.5 -46t-80 -68z" />
    <glyph glyph-name="seven.taboldstyle" unicode="&#xf64a;" 
d="M915 920l-639 -1391l-90 39l590 1259h-665v93h804z" />
    <glyph glyph-name="eight.taboldstyle" unicode="&#xf64b;" 
d="M668 727q31 -16 53 -28.5t61 -44.5t63.5 -67t44 -91.5t19.5 -122.5q0 -101 -49.5 -190t-141 -145t-204.5 -56q-167 0 -284 117t-117 274q0 123 71.5 216.5t173.5 137.5q-23 13 -35.5 21.5t-43.5 31t-50.5 46.5t-42 57t-34 76t-11.5 90q0 147 110 256.5t259 109.5
q92 0 176.5 -45.5t139.5 -130.5t55 -188q0 -42 -10 -81t-22 -66t-36.5 -56t-38 -43.5t-43 -35.5t-35 -24.5t-28.5 -17.5zM778 1047q0 113 -78.5 189.5t-193.5 76.5q-111 0 -186.5 -79.5t-75.5 -191.5q0 -115 77.5 -191.5t190.5 -76.5q117 0 191.5 78.5t74.5 194.5zM807 373
q0 68 -35 135.5t-105.5 115.5t-158.5 48q-123 0 -208 -88.5t-85 -210.5q0 -115 81.5 -202t213.5 -87q137 0 217 83t80 206z" />
    <glyph glyph-name="nine.taboldstyle" unicode="&#xf64c;" 
d="M332 -471l-62 74q444 300 527 669q-63 -48 -144.5 -78t-165.5 -30q-162 0 -275.5 107t-113.5 274q0 92 34 168t90.5 124.5t126.5 74.5t145 26q83 0 157 -27.5t136 -84t98.5 -154.5t36.5 -226q0 -136 -40 -260.5t-118.5 -237.5t-183.5 -214.5t-248 -204.5zM817 401
q2 14 2 84q0 47 -11.5 96t-37 97t-61.5 85t-90.5 60t-118.5 23q-136 0 -217.5 -85t-81.5 -202q0 -70 35 -136t106 -111.5t160 -45.5q98 0 181 36.5t134 98.5z" />
    <glyph glyph-name="zero.denominator" unicode="&#xf655;" horiz-adv-x="641" 
d="M596 360q0 -94 -24.5 -167.5t-65 -116.5t-87.5 -64.5t-97 -21.5q-114 0 -195.5 94t-81.5 266q0 208 94 307q76 80 180 80q52 0 99.5 -21.5t88.5 -65t65 -118.5t24 -172zM510 367q0 46 -9 95t-29 98.5t-59 81.5t-91 32q-90 0 -140.5 -93.5t-50.5 -215.5q0 -133 51 -221.5
t135 -88.5q50 0 89 30t60.5 78t32.5 100t11 104z" />
    <glyph glyph-name="one.denominator" unicode="&#xf656;" horiz-adv-x="638" 
d="M362 727v-727h-86v727h86z" />
    <glyph glyph-name="two.denominator" unicode="&#xf657;" horiz-adv-x="661" 
d="M205 63h377v-63h-559q46 37 100.5 87.5t126.5 127.5t119 161.5t47 151.5q0 66 -53.5 107t-120.5 41q-37 0 -72.5 -14t-57.5 -29.5t-67 -50.5v84q99 71 203 71q112 0 183 -64t71 -145q0 -45 -18.5 -95t-42.5 -90.5t-70 -96.5t-77.5 -90t-88.5 -93z" />
    <glyph glyph-name="three.denominator" unicode="&#xf658;" horiz-adv-x="641" 
d="M59 31v65q93 -45 195 -45q81 0 131.5 40t50.5 108q0 44 -18 75t-49.5 47t-67.5 23t-80 6v64q49 0 87.5 10t60 24.5t35 33.5t18 34t4.5 29q0 62 -54 95.5t-122 33.5q-89 0 -182 -58v70q84 51 186 51q115 0 185.5 -54.5t70.5 -133.5q0 -115 -139 -164q149 -46 149 -184
q0 -54 -25.5 -96.5t-65 -66.5t-82.5 -36t-85 -12q-114 0 -203 41z" />
    <glyph glyph-name="four.denominator" unicode="&#xf659;" horiz-adv-x="638" 
d="M483 737v-405h117v-58h-117v-274h-84v274h-376v27l419 436h41zM139 332h260v268z" />
    <glyph glyph-name="five.denominator" unicode="&#xf65a;" horiz-adv-x="638" 
d="M496 727v-61h-291v-213q119 10 203 -25q75 -30 106 -87.5t31 -113.5q0 -98 -78 -167.5t-201 -69.5q-93 0 -211 51v78q129 -66 211 -66q77 0 134 45.5t57 124.5q0 46 -18 80t-41.5 51t-55.5 27t-51.5 12t-36.5 2q-51 0 -129 -16v348h371z" />
    <glyph glyph-name="six.denominator" unicode="&#xf65b;" horiz-adv-x="638" 
d="M424 741l47 -51q-109 -62 -203 -162q-65 -70 -102 -172q94 43 166 43q60 0 113.5 -21t91.5 -68.5t38 -112.5q0 -90 -70.5 -148.5t-174.5 -58.5q-48 0 -92.5 14t-84.5 42.5t-63.5 81t-23.5 122.5q0 269 358 491zM152 274q-10 -105 39 -163t135 -58q72 0 117.5 40t45.5 97
q0 22 -8.5 45.5t-26.5 47t-52 38.5t-78 15q-40 0 -77 -12t-52.5 -21.5t-42.5 -28.5z" />
    <glyph glyph-name="seven.denominator" unicode="&#xf65c;" horiz-adv-x="661" 
d="M559 731l-385 -741l-74 28l338 650h-446v63h567z" />
    <glyph glyph-name="eight.denominator" unicode="&#xf65d;" horiz-adv-x="641" 
d="M451 379q59 -36 84 -73q32 -47 32 -105q0 -89 -71 -150t-174 -61q-101 0 -174.5 60t-73.5 147q0 26 7.5 53.5t36 65.5t75.5 63q-103 63 -103 162q0 75 65.5 135.5t163.5 60.5q95 0 163.5 -58t68.5 -138q0 -102 -100 -162zM467 541q0 60 -46 95.5t-104 35.5
q-62 0 -103.5 -39.5t-41.5 -95.5q0 -57 45.5 -93t104.5 -36q63 0 104 38t41 95zM481 205q0 63 -50.5 101t-111.5 38q-67 0 -113 -41.5t-46 -103.5t49 -102t115 -40q68 0 112.5 40.5t44.5 107.5z" />
    <glyph glyph-name="nine.denominator" unicode="&#xf65e;" horiz-adv-x="641" 
d="M190 -10l-45 51q49 33 74.5 51t69.5 54t69.5 66t52.5 74t42 91q-97 -43 -166 -43q-94 0 -168 55t-74 146q0 88 67 147t177 59q30 0 59.5 -4.5t68 -21t67.5 -43t49 -75.5t20 -114q0 -54 -15 -106t-35.5 -91.5t-56.5 -82t-63 -69t-71 -59.5t-64 -46.5t-58 -38.5zM467 459
q9 221 -176 221q-70 0 -115 -40t-45 -101q0 -58 43.5 -100t114.5 -42q94 0 178 62z" />
    <glyph glyph-name="zero.numerator" unicode="&#xf661;" horiz-adv-x="641" 
d="M596 1038q0 -94 -24.5 -167.5t-65 -115.5t-87.5 -63.5t-97 -21.5q-115 0 -196 93.5t-81 266.5q0 206 94 305q73 80 180 80q52 0 99.5 -21.5t88.5 -64.5t65 -118t24 -173zM510 1047q0 35 -5 73t-19 80.5t-34 76t-54 55.5t-76 22q-90 0 -140.5 -94t-50.5 -216
q0 -134 51 -222.5t135 -88.5q50 0 89 30t60.5 78.5t32.5 101t11 104.5z" />
    <glyph glyph-name="one.numerator" unicode="&#xf662;" horiz-adv-x="638" 
d="M362 1407v-727h-86v727h86z" />
    <glyph glyph-name="two.numerator" unicode="&#xf663;" horiz-adv-x="661" 
d="M240 743h376v-63h-559q37 30 75 63.5t99.5 95.5t106.5 119.5t79 126t34 123.5q0 65 -53.5 105.5t-121.5 40.5q-37 0 -72 -13.5t-57.5 -28.5t-68.5 -50v84q104 69 205 69q112 0 183 -63.5t71 -145.5q0 -45 -18.5 -95t-42 -89.5t-70.5 -96.5t-77 -89t-89 -93z" />
    <glyph glyph-name="three.numerator" unicode="&#xf664;" horiz-adv-x="641" 
d="M59 709v65q104 -43 195 -43q81 0 131.5 39.5t50.5 108.5q0 82 -61 117.5t-154 33.5v64q61 0 104.5 14t63.5 36.5t28.5 42t8.5 38.5q0 62 -54 95.5t-122 33.5q-40 0 -79.5 -12t-56.5 -21t-46 -27v70q73 51 186 51q115 0 185.5 -53.5t70.5 -132.5q0 -115 -139 -164
q149 -49 149 -184q0 -54 -25.5 -96.5t-65 -66.5t-82.5 -36t-85 -12q-112 0 -203 39z" />
    <glyph glyph-name="four.numerator" unicode="&#xf665;" horiz-adv-x="638" 
d="M483 1415v-403h117v-58h-117v-274h-84v274h-376v25l419 436h41zM399 1012v268l-260 -268h260z" />
    <glyph glyph-name="five.numerator" unicode="&#xf666;" horiz-adv-x="638" 
d="M496 1407v-61h-291v-213q119 10 203 -25q40 -17 68.5 -42.5t42.5 -54.5t20 -54.5t6 -49.5q0 -98 -78 -167.5t-201 -69.5q-93 0 -211 51v78q129 -66 211 -66q78 0 134.5 45t56.5 125q0 45 -18 79t-42 51t-55.5 27.5t-51 12.5t-36.5 2q-51 0 -129 -16v348h371z" />
    <glyph glyph-name="six.numerator" unicode="&#xf667;" horiz-adv-x="638" 
d="M424 1419l47 -49q-102 -58 -205 -164q-58 -60 -100 -170q94 43 166 43q59 0 112.5 -21t92 -68.5t38.5 -112.5q0 -91 -70.5 -149t-174.5 -58q-49 0 -93.5 13.5t-84 42.5t-63 81.5t-23.5 122.5q0 270 358 489zM152 954q-10 -107 38.5 -164t135.5 -57q72 0 117.5 39t45.5 96
q0 23 -8.5 47t-26.5 47.5t-52 38.5t-78 15q-90 0 -172 -62z" />
    <glyph glyph-name="seven.numerator" unicode="&#xf668;" horiz-adv-x="661" 
d="M614 1411l-385 -741l-73 28l340 650h-447v63h565z" />
    <glyph glyph-name="eight.numerator" unicode="&#xf669;" horiz-adv-x="641" 
d="M451 1057q116 -61 116 -178q0 -88 -71 -148.5t-174 -60.5q-101 0 -174.5 59.5t-73.5 147.5q0 43 26 93.5t93 86.5q-103 63 -103 162q0 76 65 136t164 60q96 0 164 -57.5t68 -138.5q0 -100 -100 -162zM467 1221q0 58 -46 93.5t-104 35.5q-62 0 -103.5 -38.5t-41.5 -94.5
q0 -57 45.5 -93.5t104.5 -36.5q63 0 104 38.5t41 95.5zM481 885q0 62 -50.5 99.5t-111.5 37.5q-68 0 -113.5 -41t-45.5 -104q0 -61 49.5 -101.5t114.5 -40.5q68 0 112.5 41.5t44.5 108.5z" />
    <glyph glyph-name="nine.numerator" unicode="&#xf66a;" horiz-adv-x="641" 
d="M190 664l-45 51q59 38 98.5 67.5t84.5 71.5t76 91t49 106q-83 -43 -166 -43q-94 0 -168 54t-74 146q0 87 67 147t177 60q29 0 59 -5t68.5 -21.5t67.5 -43.5t49 -76t20 -114q0 -53 -15 -105t-35.5 -91.5t-56.5 -81.5t-63 -68.5t-71 -59.5t-64 -46.5t-58 -38.5zM467 1130
q9 224 -176 224q-70 0 -115 -40.5t-45 -101.5q0 -59 43.5 -100t114.5 -41q98 0 178 59z" />
    <glyph glyph-name="abreve.sc" unicode="&#xf66d;" horiz-adv-x="983" 
d="M719 297h-463l-129 -297h-111l447 995h63l439 -995h-111zM303 387h375l-191 453zM154 1331h102q43 -58 105.5 -90.5t132.5 -32.5q69 0 130 33t101 90h106q-27 -83 -75 -129q-108 -102 -262 -102q-79 0 -150 29t-121 81q-41 43 -69 121z" />
    <glyph glyph-name="amacron.sc" unicode="&#xf66e;" horiz-adv-x="983" 
d="M719 297h-463l-129 -297h-111l447 995h63l439 -995h-111zM303 387h375l-191 453zM819 1296v-102h-653v102h653z" />
    <glyph glyph-name="aogonek.sc" unicode="&#xf66f;" horiz-adv-x="983" 
d="M1016 -260v-78q-62 -10 -84 -10q-90 0 -140.5 49t-50.5 119q0 105 113 180l-135 297h-463l-129 -297h-111l447 995h63l439 -995h-31q-53 -52 -70.5 -81.5t-17.5 -65.5q0 -10 1 -19.5t10 -30.5t25.5 -35t51 -23t82.5 -5zM303 387h375l-191 453z" />
    <glyph glyph-name="aeacute.sc" unicode="&#xf670;" horiz-adv-x="1282" 
d="M655 356h-311l-207 -356h-121l594 989h586v-92h-436v-352h426v-92h-426v-361h448v-92h-553v356zM397 446h258v461zM981 1362h250l-400 -262h-102z" />
    <glyph glyph-name="cacute.sc" unicode="&#xf671;" horiz-adv-x="997" 
d="M936 915v-116q-59 32 -97 50t-103.5 35t-131.5 17q-180 0 -291.5 -113.5t-111.5 -293.5q0 -177 110.5 -290.5t288.5 -113.5q65 0 134 18.5t108 36t89 43.5q9 5 13 7v-111q-174 -96 -346 -96q-99 0 -191 35.5t-163 99t-113.5 160t-42.5 211.5q0 97 31 181t81.5 143
t116 101t135.5 62t138 20q162 0 346 -86zM674 1362h250l-400 -262h-102z" />
    <glyph glyph-name="ccaron.sc" unicode="&#xf672;" horiz-adv-x="997" 
d="M936 915v-116q-59 32 -97 50t-103.5 35t-131.5 17q-180 0 -291.5 -113.5t-111.5 -293.5q0 -177 110.5 -290.5t288.5 -113.5q65 0 134 18.5t108 36t89 43.5q9 5 13 7v-111q-174 -96 -346 -96q-99 0 -191 35.5t-163 99t-113.5 160t-42.5 211.5q0 97 31 181t81.5 143
t116 101t135.5 62t138 20q162 0 346 -86zM918 1380l-261 -280h-159l-254 280h108l228 -180l233 180h105z" />
    <glyph glyph-name="ccircumflex.sc" unicode="&#xf673;" horiz-adv-x="997" 
d="M936 915v-116q-59 32 -97 50t-103.5 35t-131.5 17q-180 0 -291.5 -113.5t-111.5 -293.5q0 -177 110.5 -290.5t288.5 -113.5q65 0 134 18.5t108 36t89 43.5q9 5 13 7v-111q-174 -96 -346 -96q-99 0 -191 35.5t-163 99t-113.5 160t-42.5 211.5q0 97 31 181t81.5 143
t116 101t135.5 62t138 20q162 0 346 -86zM918 1100h-105l-233 180l-228 -180h-108l254 280h159z" />
    <glyph glyph-name="cdotaccent.sc" unicode="&#xf674;" horiz-adv-x="997" 
d="M936 915v-116q-59 32 -97 50t-103.5 35t-131.5 17q-180 0 -291.5 -113.5t-111.5 -293.5q0 -177 110.5 -290.5t288.5 -113.5q65 0 134 18.5t108 36t89 43.5q9 5 13 7v-111q-174 -96 -346 -96q-99 0 -191 35.5t-163 99t-113.5 160t-42.5 211.5q0 97 31 181t81.5 143
t116 101t135.5 62t138 20q162 0 346 -86zM592 1333q36 0 62 -26t26 -62t-26 -62t-62 -26q-38 0 -63 26t-25 62q0 37 25.5 62.5t62.5 25.5z" />
    <glyph glyph-name="dcaron.sc" unicode="&#xf675;" horiz-adv-x="1083" 
d="M129 0v989h297q107 0 195.5 -22t146 -56t101.5 -81t67 -91.5t37 -93.5t18 -81t4 -60q0 -135 -61.5 -255t-155.5 -175q-80 -46 -157 -60t-195 -14h-297zM231 897v-805h205q104 0 162.5 11.5t120.5 48.5q74 45 119 141t45 201q0 115 -56.5 213t-150.5 143q-94 47 -240 47
h-205zM807 1380l-260 -280h-160l-254 280h109l227 -180l233 180h105z" />
    <glyph glyph-name="dcroat.sc" unicode="&#xf676;" horiz-adv-x="1083" 
d="M129 449h-125v92h125v448h297q107 0 195.5 -22t146 -56t101.5 -81t67 -91.5t37 -93.5t18 -81t4 -60q0 -135 -61.5 -255t-155.5 -175q-80 -46 -157 -60t-195 -14h-297v449zM549 449h-318v-357h205q104 0 162.5 11.5t120.5 48.5q74 45 119 141t45 201q0 115 -56.5 213
t-150.5 143q-94 47 -240 47h-205v-356h318v-92z" />
    <glyph glyph-name="ebreve.sc" unicode="&#xf677;" horiz-adv-x="741" 
d="M670 989v-92h-437v-352h426v-92h-426v-361h447v-92h-551v989h541zM53 1331h103q43 -58 105 -90.5t132 -32.5q69 0 130.5 33t101.5 90h106q-27 -82 -76 -129q-108 -102 -262 -102q-79 0 -149.5 29t-120.5 81q-43 45 -70 121z" />
    <glyph glyph-name="ecaron.sc" unicode="&#xf678;" horiz-adv-x="741" 
d="M670 989v-92h-437v-352h426v-92h-426v-361h447v-92h-551v989h541zM729 1380l-260 -280h-160l-254 280h109l227 -180l234 180h104z" />
    <glyph glyph-name="edotaccent.sc" unicode="&#xf679;" horiz-adv-x="741" 
d="M670 989v-92h-437v-352h426v-92h-426v-361h447v-92h-551v989h541zM410 1333q36 0 62 -26t26 -62t-26 -62t-62 -26q-38 0 -63 26t-25 62q0 37 25.5 62.5t62.5 25.5z" />
    <glyph glyph-name="emacron.sc" unicode="&#xf67a;" horiz-adv-x="741" 
d="M670 989v-92h-437v-352h426v-92h-426v-361h447v-92h-551v989h541zM719 1296v-102h-653v102h653z" />
    <glyph glyph-name="eng.sc" unicode="&#xf67b;" horiz-adv-x="983" 
d="M782 227v254q0 40 -0.5 61t-2.5 62t-7 64.5t-14.5 59.5t-23 57t-35 46.5t-49 39t-65 23t-83.5 9.5q-57 0 -104 -12t-75 -27t-54.5 -42t-37.5 -43.5t-28 -45.5v-733h-105v991h105v-121q24 27 41.5 43.5t55 41.5t89.5 38t117 13q86 0 154.5 -26.5t110.5 -70t66 -90.5
t31 -96q17 -99 17 -227v-263q0 -126 -55 -188.5t-158 -62.5q-30 0 -58 4l-10 92q37 -6 64 -6q62 0 88 37.5t26 117.5z" />
    <glyph glyph-name="eogonek.sc" unicode="&#xf67c;" horiz-adv-x="741" 
d="M680 -260v-78q-58 -10 -80 -10q-94 0 -143 49.5t-49 118.5q0 106 112 180h-391v989h541v-92h-437v-352h426v-92h-426v-361h447v-92h-80q-53 -52 -70.5 -81.5t-17.5 -65.5q0 -11 2 -23t12 -31.5t26.5 -33.5t49.5 -22t78 -3z" />
    <glyph glyph-name="gbreve.sc" unicode="&#xf67d;" horiz-adv-x="1054" 
d="M940 913v-120q-160 108 -348 108q-74 0 -143 -27.5t-124.5 -77.5t-88.5 -128.5t-33 -173.5q0 -121 56.5 -215.5t144 -142.5t186.5 -48q124 0 264 53v234h-197v92h301v-393q-187 -86 -366 -86q-95 0 -185 37t-160.5 101.5t-113.5 162t-43 209.5q0 216 145.5 359.5
t368.5 143.5q68 0 137.5 -16t107.5 -31.5t91 -40.5zM229 1331h103q43 -58 105 -90.5t132 -32.5q69 0 130.5 33t101.5 90h106q-27 -82 -76 -129q-108 -102 -262 -102q-79 0 -149.5 29t-120.5 81q-43 45 -70 121z" />
    <glyph glyph-name="gcircumflex.sc" unicode="&#xf67e;" horiz-adv-x="1054" 
d="M940 913v-120q-160 108 -348 108q-74 0 -143 -27.5t-124.5 -77.5t-88.5 -128.5t-33 -173.5q0 -121 56.5 -215.5t144 -142.5t186.5 -48q124 0 264 53v234h-197v92h301v-393q-187 -86 -366 -86q-95 0 -185 37t-160.5 101.5t-113.5 162t-43 209.5q0 216 145.5 359.5
t368.5 143.5q68 0 137.5 -16t107.5 -31.5t91 -40.5zM901 1100h-104l-234 180l-227 -180h-109l254 280h160z" />
    <glyph glyph-name="gcommaaccent.sc" unicode="&#xf67f;" horiz-adv-x="1054" 
d="M940 913v-120q-160 108 -348 108q-74 0 -143 -27.5t-124.5 -77.5t-88.5 -128.5t-33 -173.5q0 -121 56.5 -215.5t144 -142.5t186.5 -48q124 0 264 53v234h-197v92h301v-393q-187 -86 -366 -86q-95 0 -185 37t-160.5 101.5t-113.5 162t-43 209.5q0 216 145.5 359.5
t368.5 143.5q68 0 137.5 -16t107.5 -31.5t91 -40.5zM334 -387l14 74q40 -6 80 -6q188 0 188 90q0 93 -235 82l14 73q27 2 78 2q19 0 33.5 -1t48 -4.5t58.5 -13t52 -25t41.5 -42.5t14.5 -63q0 -72 -66.5 -124t-208.5 -52q-57 0 -112 10z" />
    <glyph glyph-name="gdotaccent.sc" unicode="&#xf680;" horiz-adv-x="1054" 
d="M940 913v-120q-160 108 -348 108q-74 0 -143 -27.5t-124.5 -77.5t-88.5 -128.5t-33 -173.5q0 -121 56.5 -215.5t144 -142.5t186.5 -48q124 0 264 53v234h-197v92h301v-393q-187 -86 -366 -86q-95 0 -185 37t-160.5 101.5t-113.5 162t-43 209.5q0 216 145.5 359.5
t368.5 143.5q68 0 137.5 -16t107.5 -31.5t91 -40.5zM600 1333q36 0 62 -26t26 -62t-26 -62t-62 -26q-38 0 -63 26t-25 62q0 37 25.5 62.5t62.5 25.5z" />
    <glyph glyph-name="hbar.sc" unicode="&#xf681;" horiz-adv-x="1054" 
d="M823 799v190h103v-190h92v-94h-92v-705h-103v455h-590v-455h-104v705h-92v94h92v190h104v-190h590zM823 547v158h-590v-158h590z" />
    <glyph glyph-name="hcircumflex.sc" unicode="&#xf682;" horiz-adv-x="1054" 
d="M233 547h590v442h103v-989h-103v455h-590v-455h-104v989h104v-442zM864 1100h-104l-234 180l-227 -180h-109l254 280h160z" />
    <glyph glyph-name="ibreve.sc" unicode="&#xf683;" horiz-adv-x="356" 
d="M229 989v-989h-102v989h102zM-160 1331h103q43 -58 105 -90.5t132 -32.5q69 0 130.5 33t101.5 90h106q-27 -82 -76 -129q-108 -102 -262 -102q-79 0 -149.5 29t-120.5 81q-43 45 -70 121z" />
    <glyph glyph-name="i_j.sc" unicode="&#xf684;" horiz-adv-x="712" 
d="M229 989v-989h-102v989h102zM489 989h105v-958q0 -21 -0.5 -36.5t-5 -49t-12 -58.5t-24.5 -56t-40 -51t-60 -34t-83 -14q-30 0 -62 12v88q36 -12 66 -12q27 0 47.5 9t33 27t20 36.5t10.5 47.5t4 48.5t1 50.5v950z" />
    <glyph glyph-name="imacron.sc" unicode="&#xf685;" horiz-adv-x="356" 
d="M229 989v-989h-102v989h102zM506 1296v-102h-653v102h653z" />
    <glyph glyph-name="iogonek.sc" unicode="&#xf686;" horiz-adv-x="356" 
d="M279 -260v-78q-63 -10 -84 -10q-90 0 -141.5 49t-51.5 119q0 109 125 186v983h102v-989h-32q-53 -53 -70.5 -82t-17.5 -65q0 -10 1 -19.5t10 -30.5t25.5 -35t51 -23t82.5 -5z" />
    <glyph glyph-name="itilde.sc" unicode="&#xf687;" horiz-adv-x="356" 
d="M229 989v-989h-102v989h102zM-76 1120h-84q-4 103 21 156q19 41 60.5 64.5t86.5 23.5q87 0 242 -78q88 -45 123 -45t46.5 28t16.5 101h84q-3 -110 -20 -153q-20 -49 -59 -72t-76 -23q-84 0 -246 76q-94 47 -127 47q-21 0 -34.5 -8.5t-20 -28t-9 -37.5t-4.5 -51z" />
    <glyph glyph-name="jcircumflex.sc" unicode="&#xf688;" horiz-adv-x="356" 
d="M133 989h105v-958q0 -21 -0.5 -36.5t-5 -49t-12.5 -58.5t-25 -56t-40 -51t-60 -34t-83 -14q-29 0 -61 12v88q36 -12 65 -12q27 0 47.5 9t33 27t20.5 37t11 47.5t4 48.5t1 50v950zM516 1100h-104l-234 180l-227 -180h-109l254 280h160z" />
    <glyph glyph-name="kcommaaccent.sc" unicode="&#xf689;" horiz-adv-x="843" 
d="M227 524l424 465h131l-454 -479l501 -510h-149l-453 459v-459h-104v989h104v-465zM229 -387l15 74q41 -6 80 -6q188 0 188 90q0 93 -236 82l15 73q27 2 78 2q19 0 33.5 -1t48 -4.5t58.5 -13t51.5 -25t41 -42.5t14.5 -63q0 -73 -66 -124.5t-208 -51.5q-58 0 -113 10z" />
    <glyph glyph-name="lacute.sc" unicode="&#xf68a;" horiz-adv-x="712" 
d="M231 989v-897h461v-92h-563v989h102zM430 1362h250l-399 -262h-103z" />
    <glyph glyph-name="lcaron.sc" unicode="&#xf68b;" horiz-adv-x="712" 
d="M231 989v-897h461v-92h-563v989h102zM553 989v-119q0 -221 -133 -315v70q45 73 43 168h-43v196h133z" />
    <glyph glyph-name="lcommaaccent.sc" unicode="&#xf68c;" horiz-adv-x="712" 
d="M231 989v-897h461v-92h-563v989h102zM164 -387l14 74q41 -6 80 -6q188 0 188 90q0 93 -235 82l14 73q27 2 78 2q19 0 33.5 -1t48 -4.5t58.5 -13t52 -25t41.5 -42.5t14.5 -63q0 -72 -66.5 -124t-208.5 -52q-57 0 -112 10z" />
    <glyph glyph-name="ldot.sc" unicode="&#xf68d;" horiz-adv-x="960" 
d="M231 989v-897h461v-92h-563v989h102zM463 623q37 0 63.5 -25.5t26.5 -62.5t-26.5 -63t-63.5 -26t-62.5 26t-25.5 63q0 36 26 62t62 26z" />
    <glyph glyph-name="nacute.sc" unicode="&#xf68e;" horiz-adv-x="1124" 
d="M217 989l678 -809v809h102v-989h-84l-682 815v-815h-104v989h90zM635 1362h250l-400 -262h-102z" />
    <glyph glyph-name="ncaron.sc" unicode="&#xf68f;" horiz-adv-x="1124" 
d="M217 989l678 -809v809h102v-989h-84l-682 815v-815h-104v989h90zM899 1380l-260 -280h-160l-254 280h109l227 -180l234 180h104z" />
    <glyph glyph-name="ncommaaccent.sc" unicode="&#xf690;" horiz-adv-x="1124" 
d="M217 989l678 -809v809h102v-989h-84l-682 815v-815h-104v989h90zM369 -387l14 74q41 -6 80 -6q188 0 188 90q0 93 -235 82l14 73q27 2 78 2q19 0 33.5 -1t48 -4.5t58.5 -13t52 -25t41.5 -42.5t14.5 -63q0 -72 -66.5 -124t-208.5 -52q-57 0 -112 10z" />
    <glyph glyph-name="obreve.sc" unicode="&#xf691;" horiz-adv-x="1196" 
d="M1108 498q0 -145 -69 -262.5t-185.5 -182.5t-255.5 -65q-106 0 -200.5 40t-162.5 107.5t-107.5 162t-39.5 198.5q0 135 62.5 249.5t180.5 185t267 70.5q147 0 265 -69.5t181.5 -184t63.5 -249.5zM995 500q0 104 -47.5 195t-139.5 148.5t-208 57.5q-171 0 -285 -118
t-114 -289q0 -166 112.5 -286t282.5 -120q163 0 281 114t118 298zM260 1331h102q43 -58 105.5 -90.5t132.5 -32.5q69 0 130 33t101 90h107q-27 -82 -76 -129q-108 -102 -262 -102q-79 0 -149.5 29t-120.5 81q-43 45 -70 121z" />
    <glyph glyph-name="ohungarumlaut.sc" unicode="&#xf692;" horiz-adv-x="1196" 
d="M1108 498q0 -145 -69 -262.5t-185.5 -182.5t-255.5 -65q-106 0 -200.5 40t-162.5 107.5t-107.5 162t-39.5 198.5q0 135 62.5 249.5t180.5 185t267 70.5q147 0 265 -69.5t181.5 -184t63.5 -249.5zM995 500q0 104 -47.5 195t-139.5 148.5t-208 57.5q-171 0 -285 -118
t-114 -289q0 -166 112.5 -286t282.5 -120q163 0 281 114t118 298zM750 1362l-301 -262h-76l162 262h215zM1053 1362l-299 -262h-78l164 262h213z" />
    <glyph glyph-name="omacron.sc" unicode="&#xf693;" horiz-adv-x="1196" 
d="M1108 498q0 -145 -69 -262.5t-185.5 -182.5t-255.5 -65q-106 0 -200.5 40t-162.5 107.5t-107.5 162t-39.5 198.5q0 135 62.5 249.5t180.5 185t267 70.5q147 0 265 -69.5t181.5 -184t63.5 -249.5zM995 500q0 104 -47.5 195t-139.5 148.5t-208 57.5q-171 0 -285 -118
t-114 -289q0 -166 112.5 -286t282.5 -120q163 0 281 114t118 298zM926 1296v-102h-654v102h654z" />
    <glyph glyph-name="oslashacute.sc" unicode="&#xf694;" horiz-adv-x="1196" 
d="M307 76l-76 -88h-118l127 145q-73 70 -112.5 166.5t-39.5 198.5q0 132 62 246t180.5 185.5t267.5 71.5q173 0 309 -98l72 82h117l-123 -141q135 -144 135 -348q0 -142 -68 -259t-185 -183t-257 -66q-164 0 -291 88zM901 760l-526 -606q102 -66 221 -66q166 0 282.5 116.5
t116.5 289.5q0 153 -94 266zM309 213l529 610q-99 78 -240 78q-168 0 -282.5 -118t-114.5 -289q0 -162 108 -281zM672 1362h250l-400 -262h-102z" />
    <glyph glyph-name="racute.sc" unicode="&#xf695;" horiz-adv-x="888" 
d="M127 0v989h199q88 0 136 -6t91 -25q66 -27 109 -89.5t43 -137.5q0 -73 -46 -135.5t-137 -97.5q43 -25 71 -63.5t128 -201.5q80 -129 102.5 -162.5t53.5 -70.5h-129l-185 297q-30 49 -56.5 80t-46 48.5t-47 25t-45 9t-55.5 1.5h-84v-461h-102zM229 897v-344h86
q159 0 213 41q64 49 64 135q0 44 -22.5 82.5t-55.5 56.5q-60 29 -182 29h-103zM518 1362h250l-399 -262h-103z" />
    <glyph glyph-name="rcaron.sc" unicode="&#xf696;" horiz-adv-x="888" 
d="M127 0v989h199q88 0 136 -6t91 -25q66 -27 109 -89.5t43 -137.5q0 -73 -46 -135.5t-137 -97.5q43 -25 71 -63.5t128 -201.5q80 -129 102.5 -162.5t53.5 -70.5h-129l-185 297q-30 49 -56.5 80t-46 48.5t-47 25t-45 9t-55.5 1.5h-84v-461h-102zM229 897v-344h86
q159 0 213 41q64 49 64 135q0 44 -22.5 82.5t-55.5 56.5q-60 29 -182 29h-103zM762 1380l-260 -280h-160l-254 280h109l227 -180l233 180h105z" />
    <glyph glyph-name="rcommaaccent.sc" unicode="&#xf697;" horiz-adv-x="888" 
d="M127 0v989h199q88 0 136 -6t91 -25q66 -27 109 -89.5t43 -137.5q0 -73 -46 -135.5t-137 -97.5q43 -25 71 -63.5t128 -201.5q80 -129 102.5 -162.5t53.5 -70.5h-129l-185 297q-30 49 -56.5 80t-46 48.5t-47 25t-45 9t-55.5 1.5h-84v-461h-102zM229 897v-344h86
q159 0 213 41q64 49 64 135q0 44 -22.5 82.5t-55.5 56.5q-60 29 -182 29h-103zM252 -387l14 74q40 -6 80 -6q189 0 189 90q0 93 -236 82l14 73q27 2 78 2q19 0 33.5 -1t48 -4.5t58.5 -13t52 -25t41.5 -42.5t14.5 -63q0 -73 -66 -124.5t-208 -51.5q-58 0 -113 10z" />
    <glyph glyph-name="sacute.sc" unicode="&#xf698;" horiz-adv-x="712" 
d="M598 946l-2 -106q-93 65 -209 65q-50 0 -88 -14.5t-58 -34.5t-32 -45t-15.5 -42.5t-3.5 -31.5q0 -33 12.5 -59.5t27 -42.5t47.5 -34t50 -25t60 -23q40 -15 69.5 -28.5t65 -38.5t58.5 -53.5t39 -71.5t16 -95q0 -85 -43.5 -150t-107.5 -96.5t-134 -31.5q-125 0 -256 67v111
l16 -9q16 -9 23 -12.5t25.5 -12.5t31 -14t33 -12t37 -10.5t37 -6.5t39.5 -3q44 0 79.5 13t56 32.5t34 44.5t18 46.5t4.5 41.5q0 42 -16.5 75.5t-47 55.5t-55 34.5t-59.5 25.5q-31 11 -47.5 17.5t-49 21.5t-52 28.5t-44.5 36t-39 46.5t-24 57t-10 71q0 106 79.5 187t201.5 81
q113 0 233 -55zM461 1362h250l-400 -262h-102z" />
    <glyph glyph-name="scedilla.sc" unicode="&#xf699;" horiz-adv-x="712" 
d="M358 -12l-16 -60q21 -6 31 -9t31.5 -14t33 -23t21.5 -34t10 -49q0 -65 -52.5 -111t-152.5 -46q-23 0 -86 10l10 65q36 -4 62 -4q139 0 139 80q0 22 -11 37.5t-23 23t-35.5 12.5t-31.5 5.5t-28 1.5l37 117q-24 3 -48 8t-41 10t-37.5 13t-30 12t-27 12.5t-19.5 9.5v111
l16 -9q16 -9 23 -12.5t25.5 -12.5t31 -14t33 -12t37 -10.5t37 -6.5t39.5 -3q44 0 79.5 13t56 32.5t34 44.5t18 46.5t4.5 41.5q0 42 -16.5 75.5t-47 55.5t-55 34.5t-59.5 25.5q-31 11 -47.5 17.5t-49 21.5t-52 28.5t-44.5 36t-39 46.5t-24 57t-10 71q0 106 79.5 187t201.5 81
q113 0 233 -55l-2 -106q-93 65 -209 65q-50 0 -88 -14.5t-58 -34.5t-32 -45t-15.5 -42.5t-3.5 -31.5q0 -33 12.5 -59.5t27 -42.5t47.5 -34t50 -25t60 -23q40 -15 69.5 -28.5t65 -38.5t58.5 -53.5t39 -71.5t16 -95q0 -121 -83.5 -198t-193.5 -80z" />
    <glyph glyph-name="scircumflex.sc" unicode="&#xf69a;" horiz-adv-x="712" 
d="M598 946l-2 -106q-93 65 -209 65q-50 0 -88 -14.5t-58 -34.5t-32 -45t-15.5 -42.5t-3.5 -31.5q0 -33 12.5 -59.5t27 -42.5t47.5 -34t50 -25t60 -23q40 -15 69.5 -28.5t65 -38.5t58.5 -53.5t39 -71.5t16 -95q0 -85 -43.5 -150t-107.5 -96.5t-134 -31.5q-125 0 -256 67v111
l16 -9q16 -9 23 -12.5t25.5 -12.5t31 -14t33 -12t37 -10.5t37 -6.5t39.5 -3q44 0 79.5 13t56 32.5t34 44.5t18 46.5t4.5 41.5q0 42 -16.5 75.5t-47 55.5t-55 34.5t-59.5 25.5q-31 11 -47.5 17.5t-49 21.5t-52 28.5t-44.5 36t-39 46.5t-24 57t-10 71q0 106 79.5 187t201.5 81
q113 0 233 -55zM694 1100h-104l-234 180l-227 -180h-109l254 280h160z" />
    <glyph glyph-name="scommaaccent.sc" unicode="&#xf69b;" horiz-adv-x="712" 
d="M598 946l-2 -106q-93 65 -209 65q-50 0 -88 -14.5t-58 -34.5t-32 -45t-15.5 -42.5t-3.5 -31.5q0 -33 12.5 -59.5t27 -42.5t47.5 -34t50 -25t60 -23q40 -15 69.5 -28.5t65 -38.5t58.5 -53.5t39 -71.5t16 -95q0 -85 -43.5 -150t-107.5 -96.5t-134 -31.5q-125 0 -256 67v111
l16 -9q16 -9 23 -12.5t25.5 -12.5t31 -14t33 -12t37 -10.5t37 -6.5t39.5 -3q44 0 79.5 13t56 32.5t34 44.5t18 46.5t4.5 41.5q0 42 -16.5 75.5t-47 55.5t-55 34.5t-59.5 25.5q-31 11 -47.5 17.5t-49 21.5t-52 28.5t-44.5 36t-39 46.5t-24 57t-10 71q0 106 79.5 187t201.5 81
q113 0 233 -55zM164 -387l14 74q41 -6 80 -6q188 0 188 90q0 93 -235 82l14 73q27 2 78 2q19 0 33.5 -1t48 -4.5t58.5 -13t52 -25t41.5 -42.5t14.5 -63q0 -72 -66.5 -124t-208.5 -52q-57 0 -112 10z" />
    <glyph glyph-name="tbar.sc" unicode="&#xf69c;" horiz-adv-x="854" 
d="M479 506h291v-92h-291v-414h-104v414h-291v92h291v391h-350v92h804v-92h-350v-391z" />
    <glyph glyph-name="tcaron.sc" unicode="&#xf69d;" horiz-adv-x="854" 
d="M829 989v-92h-350v-897h-104v897h-350v92h804zM764 1380l-260 -280h-160l-254 280h109l227 -180l233 180h105z" />
    <glyph glyph-name="tcommaaccent.sc" unicode="&#xf69e;" horiz-adv-x="854" 
d="M829 989v-92h-350v-897h-104v897h-350v92h804zM233 -387l15 74q41 -6 80 -6q188 0 188 90q0 93 -235 82l14 73q27 2 78 2q19 0 33.5 -1t48 -4.5t58.5 -13t52 -25t41.5 -42.5t14.5 -63q0 -72 -66.5 -124t-208.5 -52q-58 0 -113 10z" />
    <glyph glyph-name="ubreve.sc" unicode="&#xf69f;" horiz-adv-x="1026" 
d="M109 989h102v-512q0 -156 49 -246q39 -73 107.5 -109t144.5 -36q81 0 152 37t102 104q28 58 38.5 114.5t10.5 135.5v512h103v-500q0 -113 -13.5 -184t-54.5 -137q-49 -78 -134 -129t-200 -51q-105 0 -196 45t-142 131q-32 56 -48 112.5t-18.5 96.5t-2.5 116v500z
M174 1331h102q43 -58 105.5 -90.5t132.5 -32.5q69 0 130 33t101 90h107q-27 -82 -76 -129q-108 -102 -262 -102q-79 0 -149.5 29t-120.5 81q-43 45 -70 121z" />
    <glyph glyph-name="uhungarumlaut.sc" unicode="&#xf6a0;" horiz-adv-x="1026" 
d="M109 989h102v-512q0 -156 49 -246q39 -73 107.5 -109t144.5 -36q81 0 152 37t102 104q28 58 38.5 114.5t10.5 135.5v512h103v-500q0 -113 -13.5 -184t-54.5 -137q-49 -78 -134 -129t-200 -51q-105 0 -196 45t-142 131q-32 56 -48 112.5t-18.5 96.5t-2.5 116v500z
M664 1362l-302 -262h-75l162 262h215zM967 1362l-299 -262h-78l164 262h213z" />
    <glyph glyph-name="umacron.sc" unicode="&#xf6a1;" horiz-adv-x="1026" 
d="M109 989h102v-512q0 -156 49 -246q39 -73 107.5 -109t144.5 -36q81 0 152 37t102 104q28 58 38.5 114.5t10.5 135.5v512h103v-500q0 -113 -13.5 -184t-54.5 -137q-49 -78 -134 -129t-200 -51q-105 0 -196 45t-142 131q-32 56 -48 112.5t-18.5 96.5t-2.5 116v500z
M840 1296v-102h-654v102h654z" />
    <glyph glyph-name="uogonek.sc" unicode="&#xf6a2;" horiz-adv-x="1026" 
d="M752 -260v-78q-68 -10 -86 -10q-88 0 -139.5 49t-51.5 119q0 97 100 172q-24 -4 -57 -4q-104 0 -196 44.5t-144 131.5q-32 56 -48 112.5t-18.5 96.5t-2.5 116v500h102v-512q0 -156 49 -246q39 -73 107.5 -109t144.5 -36q81 0 152 37t102 104q28 58 38.5 114.5t10.5 135.5
v512h103v-500q0 -49 -1.5 -80t-7.5 -79.5t-20.5 -84.5t-37.5 -76.5t-62 -75.5t-91 -64q-69 -65 -92.5 -99t-23.5 -77q0 -10 1 -19.5t10 -30.5t25.5 -35t51 -23t82.5 -5z" />
    <glyph glyph-name="uring.sc" unicode="&#xf6a3;" horiz-adv-x="1026" 
d="M109 989h102v-512q0 -156 49 -246q39 -73 107.5 -109t144.5 -36q81 0 152 37t102 104q28 58 38.5 114.5t10.5 135.5v512h103v-500q0 -113 -13.5 -184t-54.5 -137q-49 -78 -134 -129t-200 -51q-105 0 -196 45t-142 131q-32 56 -48 112.5t-18.5 96.5t-2.5 116v500z
M514 1524q88 0 150.5 -62.5t62.5 -150.5t-62.5 -150.5t-150.5 -62.5t-151.5 62t-63.5 151t63 151t152 62zM510 1462q-62 0 -107 -44t-45 -107q0 -64 45 -108t107 -44q63 0 107.5 44.5t44.5 107.5q0 62 -44.5 106.5t-107.5 44.5z" />
    <glyph glyph-name="utilde.sc" unicode="&#xf6a4;" horiz-adv-x="1026" 
d="M109 989h102v-512q0 -156 49 -246q39 -73 107.5 -109t144.5 -36q81 0 152 37t102 104q28 58 38.5 114.5t10.5 135.5v512h103v-500q0 -113 -13.5 -184t-54.5 -137q-49 -78 -134 -129t-200 -51q-105 0 -196 45t-142 131q-32 56 -48 112.5t-18.5 96.5t-2.5 116v500z
M258 1120h-84q-4 103 21 156q19 41 60.5 64.5t86.5 23.5q87 0 242 -78q88 -45 123 -45t46.5 28t16.5 101h84q-3 -110 -20 -153q-20 -49 -59.5 -72t-76.5 -23q-83 0 -245 76q-94 47 -127 47q-21 0 -34.5 -8.5t-20 -28t-9 -37.5t-4.5 -51z" />
    <glyph glyph-name="wacute.sc" unicode="&#xf6a5;" horiz-adv-x="1488" 
d="M772 989l297 -813l297 813h107l-381 -995h-48l-301 799l-299 -799h-47l-381 995h107l297 -813l297 813h55zM817 1362h250l-399 -262h-103z" />
    <glyph glyph-name="wcircumflex.sc" unicode="&#xf6a6;" horiz-adv-x="1488" 
d="M772 989l297 -813l297 813h107l-381 -995h-48l-301 799l-299 -799h-47l-381 995h107l297 -813l297 813h55zM1081 1100h-104l-234 180l-227 -180h-108l254 280h159z" />
    <glyph glyph-name="wdieresis.sc" unicode="&#xf6a7;" horiz-adv-x="1488" 
d="M772 989l297 -813l297 813h107l-381 -995h-48l-301 799l-299 -799h-47l-381 995h107l297 -813l297 813h55zM551 1335q37 0 63.5 -26t26.5 -64q0 -37 -26.5 -62.5t-63.5 -25.5t-62.5 25.5t-25.5 62.5t25.5 63.5t62.5 26.5zM938 1333q36 0 62 -26t26 -62q0 -37 -25.5 -62.5
t-62.5 -25.5t-62.5 25.5t-25.5 62.5q0 36 26 62t62 26z" />
    <glyph glyph-name="wgrave.sc" unicode="&#xf6a8;" horiz-adv-x="1488" 
d="M772 989l297 -813l297 813h107l-381 -995h-48l-301 799l-299 -799h-47l-381 995h107l297 -813l297 813h55zM659 1362l250 -262h-100l-399 262h249z" />
    <glyph glyph-name="ycircumflex.sc" unicode="&#xf6a9;" horiz-adv-x="886" 
d="M442 582l306 407h126l-380 -500v-489h-105v489l-377 500h127zM793 1100h-105l-233 180l-228 -180h-108l254 280h159z" />
    <glyph glyph-name="ygrave.sc" unicode="&#xf6aa;" horiz-adv-x="886" 
d="M442 582l306 407h126l-380 -500v-489h-105v489l-377 500h127zM358 1362l250 -262h-100l-399 262h249z" />
    <glyph glyph-name="zacute.sc" unicode="&#xf6ab;" horiz-adv-x="940" 
d="M717 897h-635v92h792v-45l-675 -852h688v-92h-854v41zM563 1362h250l-399 -262h-103z" />
    <glyph glyph-name="zdotaccent.sc" unicode="&#xf6ac;" horiz-adv-x="940" 
d="M717 897h-635v92h792v-45l-675 -852h688v-92h-854v41zM471 1333q36 0 62 -26t26 -62t-26 -62t-62 -26q-38 0 -63 26t-25 62q0 37 25.5 62.5t62.5 25.5z" />
    <glyph glyph-name="idotaccent.sc" unicode="&#xf6ad;" horiz-adv-x="356" 
d="M229 989v-989h-102v989h102zM180 1333q36 0 62 -26t26 -62t-26 -62t-62 -26q-38 0 -63 26t-25 62q0 37 25.5 62.5t62.5 25.5z" />
    <glyph glyph-name="one.fitted" unicode="&#xf6dc;" horiz-adv-x="387" 
d="M246 1397v-1397h-105v1397h105z" />
    <glyph glyph-name="lslash.sc" unicode="&#xf6f9;" horiz-adv-x="712" 
d="M231 469l322 258l2 -111l-324 -260v-264h461v-92h-563v279l-129 -107v113l129 106v598h102v-520z" />
    <glyph glyph-name="oe.sc" unicode="&#xf6fa;" horiz-adv-x="1296" 
d="M1214 989v-92h-440v-354h430v-92h-430v-359h451v-92h-570q-64 0 -98.5 1.5t-87.5 9t-98 26.5t-90 51q-93 67 -149 172t-56 234q0 126 59.5 237t163.5 180q53 36 122 54.5t113 21t121 2.5h559zM670 92v805h-23h-23.5h-21.5t-22.5 -0.5t-21 -1.5t-22.5 -2t-20.5 -2.5
t-22.5 -4t-22 -5.5q-51 -13 -99 -44t-90.5 -78t-68 -116t-25.5 -149q0 -71 20.5 -134t53.5 -107t69 -73.5t72 -46.5q94 -41 267 -41z" />
    <glyph glyph-name="scaron.sc" unicode="&#xf6fd;" horiz-adv-x="712" 
d="M598 946l-2 -106q-93 65 -209 65q-50 0 -88 -14.5t-58 -34.5t-32 -45t-15.5 -42.5t-3.5 -31.5q0 -33 12.5 -59.5t27 -42.5t47.5 -34t50 -25t60 -23q40 -15 69.5 -28.5t65 -38.5t58.5 -53.5t39 -71.5t16 -95q0 -85 -43.5 -150t-107.5 -96.5t-134 -31.5q-125 0 -256 67v111
l16 -9q16 -9 23 -12.5t25.5 -12.5t31 -14t33 -12t37 -10.5t37 -6.5t39.5 -3q44 0 79.5 13t56 32.5t34 44.5t18 46.5t4.5 41.5q0 42 -16.5 75.5t-47 55.5t-55 34.5t-59.5 25.5q-31 11 -47.5 17.5t-49 21.5t-52 28.5t-44.5 36t-39 46.5t-24 57t-10 71q0 106 79.5 187t201.5 81
q113 0 233 -55zM715 1380l-260 -280h-160l-254 280h109l227 -180l233 180h105z" />
    <glyph glyph-name="zcaron.sc" unicode="&#xf6ff;" horiz-adv-x="940" 
d="M717 897h-635v92h792v-45l-675 -852h688v-92h-854v41zM807 1380l-260 -280h-160l-254 280h109l227 -180l233 180h105z" />
    <glyph glyph-name="ampersand.sc" unicode="&#xf726;" horiz-adv-x="929" 
d="M707 223l204 -223h-135l-133 141q-20 -21 -33.5 -34t-46 -38.5t-62.5 -40.5t-75 -27.5t-92 -12.5q-114 0 -192.5 70t-78.5 171q0 188 224 299q-26 28 -42 48.5t-35.5 52t-29.5 66t-10 71.5q0 96 70 165.5t176 69.5q102 0 165.5 -65.5t63.5 -159.5q0 -89 -50.5 -155
t-145.5 -121l184 -199q51 80 92 207h111q-56 -174 -129 -285zM381 571q77 35 120.5 88t43.5 111q0 54 -35.5 93.5t-97.5 39.5q-63 0 -102.5 -39.5t-39.5 -93.5q0 -88 111 -199zM573 217l-225 240q-31 -17 -43 -23.5t-42.5 -29t-45 -41.5t-28 -50.5t-13.5 -66.5
q0 -67 43.5 -113.5t122.5 -46.5q120 0 231 131z" />
    <glyph glyph-name="zero.oldstyle" unicode="&#xf730;" 
d="M63 461q0 208 122 342.5t325 134.5q196 0 323.5 -129t127.5 -348q0 -222 -128.5 -350.5t-322.5 -128.5q-203 0 -325 135t-122 344zM164 461q0 -100 29.5 -175t70 -114.5t94 -63.5t90 -30t68.5 -6q48 0 93.5 11.5t92 40t81 72t56 113.5t21.5 158q0 170 -94 275.5
t-250 105.5q-21 0 -45.5 -3t-60 -13t-67.5 -26t-66 -46t-58 -69t-39.5 -98.5t-15.5 -131.5z" />
    <glyph glyph-name="one.oldstyle" unicode="&#xf731;" horiz-adv-x="677" 
d="M473 0h-102v774l-277 -209l-45 80l379 293h45v-938z" />
    <glyph glyph-name="two.oldstyle" unicode="&#xf732;" horiz-adv-x="884" 
d="M305 94h483v-94h-725v16q148 110 245.5 189.5t176.5 158.5t115.5 146t36.5 129q0 85 -56 146t-153 61q-87 0 -154.5 -39.5t-164.5 -128.5v121q41 34 66.5 52.5t67 42.5t87.5 35t100 11q76 0 137 -26t97 -68.5t54.5 -92t18.5 -100.5q0 -62 -29.5 -125.5t-61.5 -102
t-83 -91.5q-122 -128 -258 -240z" />
    <glyph glyph-name="three.oldstyle" unicode="&#xf733;" horiz-adv-x="884" 
d="M41 920h752l-404 -633q138 -5 234 -58q80 -44 118.5 -126t38.5 -169q0 -170 -124 -288.5t-304 -118.5q-149 0 -301 96v101q55 -33 74.5 -44t64.5 -32t83.5 -29t80.5 -8q60 0 116.5 20t104 58.5t76.5 103t29 144.5q0 86 -49 148.5t-122 91t-157 28.5q-67 0 -127 -10
l387 630h-571v95z" />
    <glyph glyph-name="four.oldstyle" unicode="&#xf734;" horiz-adv-x="1013" 
d="M643 0h-625v23l701 915h22v-854h254v-84h-254v-471h-98v471zM174 84h469v627z" />
    <glyph glyph-name="five.oldstyle" unicode="&#xf735;" horiz-adv-x="913" 
d="M887 920v-95h-490l-88 -524q63 0 98.5 -1.5t93.5 -12.5t109 -33q103 -42 164.5 -130.5t61.5 -199.5q0 -159 -122 -277t-311 -118q-73 0 -146.5 21t-109.5 39.5t-88 48.5l4 114q38 -27 64 -42.5t73.5 -40t100.5 -36.5t109 -12q144 0 232.5 87.5t88.5 213.5
q0 134 -104.5 211.5t-276.5 77.5q-69 0 -153 -8l112 717h578z" />
    <glyph glyph-name="six.oldstyle" unicode="&#xf736;" horiz-adv-x="950" 
d="M645 1415l62 -74q-206 -140 -340 -317t-179 -377q149 109 310 109q70 0 138 -24.5t124.5 -70t91.5 -120.5t35 -166q0 -173 -112.5 -283t-282.5 -110q-189 0 -309 128t-120 363q0 520 582 942zM170 526q-4 -28 -4 -86q0 -36 7 -77t29 -93t55 -93t92 -69t134 -28
q133 0 216 83t83 197q0 35 -9.5 73.5t-33 79t-56.5 72t-85 52t-115 20.5q-170 0 -313 -131z" />
    <glyph glyph-name="seven.oldstyle" unicode="&#xf737;" horiz-adv-x="851" 
d="M829 920l-639 -1391l-90 39l590 1257h-665v95h804z" />
    <glyph glyph-name="eight.oldstyle" unicode="&#xf738;" horiz-adv-x="964" 
d="M639 727q31 -16 53 -28.5t61 -44.5t64 -67t44.5 -91.5t19.5 -122.5q0 -101 -49.5 -190t-141.5 -145t-205 -56q-168 0 -284.5 114.5t-116.5 270.5q0 79 34 152.5t91 127.5q50 45 121 80q-23 13 -35.5 21.5t-43.5 31t-50.5 46.5t-42 57t-34 76t-11.5 90q0 86 44 169
t130.5 140t193.5 57q156 0 263.5 -111t107.5 -253q0 -42 -10 -81t-22 -66t-36.5 -56t-38 -43.5t-43 -35.5t-35 -24.5t-28.5 -17.5zM752 1047q0 113 -80 189.5t-195 76.5q-111 0 -187.5 -80t-76.5 -191q0 -115 78.5 -191.5t191.5 -76.5q117 0 193 79t76 194zM776 387
q0 123 -87.5 204t-209.5 81q-120 0 -204.5 -86t-84.5 -209t87 -207t210 -84q127 0 208 85.5t81 215.5z" />
    <glyph glyph-name="nine.oldstyle" unicode="&#xf739;" horiz-adv-x="948" 
d="M293 -471l-57 76q57 43 83.5 62.5t78.5 61t79 69t69.5 71.5t68.5 83.5t56 90.5t51.5 107.5t37.5 119.5q-160 -102 -307 -102q-70 0 -138.5 24.5t-125.5 70t-92.5 119.5t-35.5 165q0 169 115.5 280t286.5 111q139 0 236 -64t142.5 -171.5t45.5 -249.5q0 -102 -24.5 -201
t-59.5 -175.5t-92.5 -154.5t-104.5 -129t-115.5 -110t-105 -86.5t-92.5 -67.5zM778 395q1 27 1.5 43.5t-1 55t-6 65.5t-14 66.5t-24.5 67.5t-39 59t-55 50t-75.5 31.5t-97.5 12.5q-121 0 -209 -83t-88 -208q0 -121 80.5 -205t204.5 -84q178 0 323 129z" />
    <glyph glyph-name="a.sc" unicode="&#xf761;" horiz-adv-x="983" 
d="M719 297h-463l-129 -297h-111l447 995h63l439 -995h-111zM303 387h375l-191 453z" />
    <glyph glyph-name="b.sc" unicode="&#xf762;" horiz-adv-x="796" 
d="M129 0v989h160q89 0 137.5 -6t91.5 -27q64 -27 106 -89t42 -136q0 -36 -10 -67t-20.5 -50t-34.5 -41t-34 -29t-37 -26q28 -9 48 -16.5t55 -28.5t57.5 -46t40 -66.5t17.5 -92.5q0 -65 -27.5 -118t-71.5 -82q-63 -42 -117.5 -55t-144.5 -13h-258zM233 897v-352h72
q25 0 40 0.5t44.5 4t49 9.5t43.5 19t38.5 31t24.5 47t10 65q0 41 -12 72t-35 49.5t-46.5 30t-58.5 16.5t-58.5 6.5t-57.5 1.5h-54zM233 453v-361h146q24 0 39 0.5t44.5 4t49.5 9.5t45.5 19.5t40.5 32t26 48t11 66.5t-11 66.5t-27 48t-43.5 32t-49.5 20t-56 10t-52.5 4
t-49.5 0.5h-113z" />
    <glyph glyph-name="c.sc" unicode="&#xf763;" horiz-adv-x="997" 
d="M936 915v-116q-59 32 -97 50t-103.5 35t-131.5 17q-180 0 -291.5 -113.5t-111.5 -293.5q0 -177 110.5 -290.5t288.5 -113.5q65 0 134 18.5t108 36t89 43.5q9 5 13 7v-111q-174 -96 -346 -96q-99 0 -191 35.5t-163 99t-113.5 160t-42.5 211.5q0 97 31 181t81.5 143
t116 101t135.5 62t138 20q162 0 346 -86z" />
    <glyph glyph-name="d.sc" unicode="&#xf764;" horiz-adv-x="1083" 
d="M129 0v989h297q107 0 195.5 -22t146 -56t101.5 -81t67 -91.5t37 -93.5t18 -81t4 -60q0 -135 -61.5 -255t-155.5 -175q-80 -46 -157 -60t-195 -14h-297zM231 897v-805h205q104 0 162.5 11.5t120.5 48.5q74 45 119 141t45 201q0 115 -56.5 213t-150.5 143q-94 47 -240 47
h-205z" />
    <glyph glyph-name="e.sc" unicode="&#xf765;" horiz-adv-x="741" 
d="M670 989v-92h-437v-352h426v-92h-426v-361h447v-92h-551v989h541z" />
    <glyph glyph-name="f.sc" unicode="&#xf766;" horiz-adv-x="671" 
d="M639 989v-92h-408v-334h369v-92h-369v-471h-102v989h510z" />
    <glyph glyph-name="g.sc" unicode="&#xf767;" horiz-adv-x="1054" 
d="M940 913v-120q-160 108 -348 108q-74 0 -143 -27.5t-124.5 -77.5t-88.5 -128.5t-33 -173.5q0 -121 56.5 -215.5t144 -142.5t186.5 -48q124 0 264 53v234h-197v92h301v-393q-187 -86 -366 -86q-95 0 -185 37t-160.5 101.5t-113.5 162t-43 209.5q0 216 145.5 359.5
t368.5 143.5q68 0 137.5 -16t107.5 -31.5t91 -40.5z" />
    <glyph glyph-name="h.sc" unicode="&#xf768;" horiz-adv-x="1054" 
d="M233 547h590v442h103v-989h-103v455h-590v-455h-104v989h104v-442z" />
    <glyph glyph-name="i.sc" unicode="&#xf769;" horiz-adv-x="356" 
d="M229 989v-989h-102v989h102z" />
    <glyph glyph-name="j.sc" unicode="&#xf76a;" horiz-adv-x="356" 
d="M133 989h105v-958q0 -21 -0.5 -36.5t-5 -49t-12.5 -58.5t-25 -56t-40 -51t-60 -34t-83 -14q-29 0 -61 12v88q36 -12 65 -12q27 0 47.5 9t33 27t20.5 37t11 47.5t4 48.5t1 50v950z" />
    <glyph glyph-name="k.sc" unicode="&#xf76b;" horiz-adv-x="843" 
d="M227 524l424 465h131l-454 -479l501 -510h-149l-453 459v-459h-104v989h104v-465z" />
    <glyph glyph-name="l.sc" unicode="&#xf76c;" horiz-adv-x="712" 
d="M231 989v-897h461v-92h-563v989h102z" />
    <glyph glyph-name="m.sc" unicode="&#xf76d;" horiz-adv-x="1185" 
d="M594 504l375 485h90v-989h-103v821l-356 -467h-14l-357 467v-821h-102v989h90z" />
    <glyph glyph-name="n.sc" unicode="&#xf76e;" horiz-adv-x="1124" 
d="M217 989l678 -809v809h102v-989h-84l-682 815v-815h-104v989h90z" />
    <glyph glyph-name="o.sc" unicode="&#xf76f;" horiz-adv-x="1196" 
d="M1108 498q0 -145 -69 -262.5t-185.5 -182.5t-255.5 -65q-106 0 -200.5 40t-162.5 107.5t-107.5 162t-39.5 198.5q0 135 62.5 249.5t180.5 185t267 70.5q147 0 265 -69.5t181.5 -184t63.5 -249.5zM995 500q0 104 -47.5 195t-139.5 148.5t-208 57.5q-171 0 -285 -118
t-114 -289q0 -166 112.5 -286t282.5 -120q163 0 281 114t118 298z" />
    <glyph glyph-name="p.sc" unicode="&#xf770;" horiz-adv-x="768" 
d="M127 0v989h205q110 0 161.5 -7t100.5 -36q57 -32 91 -89.5t34 -133.5q0 -79 -36 -142.5t-95 -91.5q-56 -27 -106 -33.5t-140 -6.5h-111v-449h-104zM231 897v-354h115q30 0 47 0.5t48.5 4t50.5 9.5t43 19t38 31t23.5 47t9.5 65q0 37 -10 66t-24 47.5t-39 31.5t-44.5 19
t-52.5 9.5t-51 4t-51 0.5h-103z" />
    <glyph glyph-name="q.sc" unicode="&#xf771;" horiz-adv-x="1196" 
d="M1069 -129l-90 -111q-39 7 -64 12.5t-75 22t-91.5 39t-97.5 63t-110 93.5q-137 15 -242 90t-158 183.5t-53 230.5q0 210 145.5 358.5t364.5 148.5q149 0 267 -69.5t180.5 -184.5t62.5 -251q0 -156 -79.5 -276.5t-199.5 -178.5q-38 -20 -135 -45q177 -146 289 -146
q27 0 68 37zM201 496q0 -169 113.5 -288.5t281.5 -119.5q77 0 149 29.5t127.5 81.5t89 129t33.5 166q0 171 -113 289t-282 118q-168 0 -283.5 -119.5t-115.5 -285.5z" />
    <glyph glyph-name="r.sc" unicode="&#xf772;" horiz-adv-x="888" 
d="M127 0v989h199q88 0 136 -6t91 -25q66 -27 109 -89.5t43 -137.5q0 -73 -46 -135.5t-137 -97.5q43 -25 71 -63.5t128 -201.5q80 -129 102.5 -162.5t53.5 -70.5h-129l-185 297q-30 49 -56.5 80t-46 48.5t-47 25t-45 9t-55.5 1.5h-84v-461h-102zM229 897v-344h86
q159 0 213 41q64 49 64 135q0 44 -22.5 82.5t-55.5 56.5q-60 29 -182 29h-103z" />
    <glyph glyph-name="s.sc" unicode="&#xf773;" horiz-adv-x="712" 
d="M598 946l-2 -106q-93 65 -209 65q-50 0 -88 -14.5t-58 -34.5t-32 -45t-15.5 -42.5t-3.5 -31.5q0 -33 12.5 -59.5t27 -42.5t47.5 -34t50 -25t60 -23q40 -15 69.5 -28.5t65 -38.5t58.5 -53.5t39 -71.5t16 -95q0 -85 -43.5 -150t-107.5 -96.5t-134 -31.5q-125 0 -256 67v111
l16 -9q16 -9 23 -12.5t25.5 -12.5t31 -14t33 -12t37 -10.5t37 -6.5t39.5 -3q44 0 79.5 13t56 32.5t34 44.5t18 46.5t4.5 41.5q0 42 -16.5 75.5t-47 55.5t-55 34.5t-59.5 25.5q-31 11 -47.5 17.5t-49 21.5t-52 28.5t-44.5 36t-39 46.5t-24 57t-10 71q0 106 79.5 187t201.5 81
q113 0 233 -55z" />
    <glyph glyph-name="t.sc" unicode="&#xf774;" horiz-adv-x="854" 
d="M829 989v-92h-350v-897h-104v897h-350v92h804z" />
    <glyph glyph-name="u.sc" unicode="&#xf775;" horiz-adv-x="1026" 
d="M109 989h102v-512q0 -156 49 -246q39 -73 107.5 -109t144.5 -36q81 0 152 37t102 104q28 58 38.5 114.5t10.5 135.5v512h103v-500q0 -113 -13.5 -184t-54.5 -137q-49 -78 -134 -129t-200 -51q-105 0 -196 45t-142 131q-32 56 -48 112.5t-18.5 96.5t-2.5 116v500z" />
    <glyph glyph-name="v.sc" unicode="&#xf776;" horiz-adv-x="884" 
d="M418 -6l-402 995h107l319 -813l318 813h106l-401 -995h-47z" />
    <glyph glyph-name="w.sc" unicode="&#xf777;" horiz-adv-x="1488" 
d="M772 989l297 -813l297 813h107l-381 -995h-48l-301 799l-299 -799h-47l-381 995h107l297 -813l297 813h55z" />
    <glyph glyph-name="x.sc" unicode="&#xf778;" horiz-adv-x="1044" 
d="M459 508l-406 481h127l342 -405l342 405h127l-405 -481l428 -508h-127l-365 432l-364 -432h-127z" />
    <glyph glyph-name="y.sc" unicode="&#xf779;" horiz-adv-x="886" 
d="M442 582l306 407h126l-380 -500v-489h-105v489l-377 500h127z" />
    <glyph glyph-name="z.sc" unicode="&#xf77a;" horiz-adv-x="940" 
d="M717 897h-635v92h792v-45l-675 -852h688v-92h-854v41z" />
    <glyph glyph-name="agrave.sc" unicode="&#xf7e0;" horiz-adv-x="983" 
d="M719 297h-463l-129 -297h-111l447 995h63l439 -995h-111zM303 387h375l-191 453zM408 1362l249 -262h-100l-399 262h250z" />
    <glyph glyph-name="aacute.sc" unicode="&#xf7e1;" horiz-adv-x="983" 
d="M719 297h-463l-129 -297h-111l447 995h63l439 -995h-111zM303 387h375l-191 453zM565 1362h250l-399 -262h-103z" />
    <glyph glyph-name="acircumflex.sc" unicode="&#xf7e2;" horiz-adv-x="983" 
d="M719 297h-463l-129 -297h-111l447 995h63l439 -995h-111zM303 387h375l-191 453zM829 1100h-104l-233 180l-228 -180h-108l254 280h159z" />
    <glyph glyph-name="atilde.sc" unicode="&#xf7e3;" horiz-adv-x="983" 
d="M719 297h-463l-129 -297h-111l447 995h63l439 -995h-111zM303 387h375l-191 453zM238 1120h-84q-4 32 -0.5 76.5t20.5 79.5q19 41 61 64.5t87 23.5q86 0 241 -78q88 -45 123 -45t47 28t17 101h84q-3 -107 -21 -153q-20 -49 -59 -72t-76 -23q-84 0 -246 76q-94 47 -127 47
q-21 0 -34.5 -8.5t-20 -28.5t-8.5 -37t-4 -51z" />
    <glyph glyph-name="adieresis.sc" unicode="&#xf7e4;" horiz-adv-x="983" 
d="M719 297h-463l-129 -297h-111l447 995h63l439 -995h-111zM303 387h375l-191 453zM299 1335q37 0 63.5 -26t26.5 -64q0 -37 -26.5 -62.5t-63.5 -25.5t-62.5 25.5t-25.5 62.5t25.5 63.5t62.5 26.5zM686 1333q36 0 62 -26t26 -62q0 -37 -25.5 -62.5t-62.5 -25.5t-62.5 25.5
t-25.5 62.5q0 36 26 62t62 26z" />
    <glyph glyph-name="aring.sc" unicode="&#xf7e5;" horiz-adv-x="983" 
d="M719 297h-463l-129 -297h-111l447 995h63l439 -995h-111zM303 387h375l-191 453zM494 1524q88 0 150.5 -62.5t62.5 -150.5t-62.5 -150.5t-150.5 -62.5t-151.5 62t-63.5 151t63 151t152 62zM489 1462q-62 0 -106.5 -44t-44.5 -107q0 -64 44.5 -108t106.5 -44
q63 0 107.5 44.5t44.5 107.5q0 62 -44.5 106.5t-107.5 44.5z" />
    <glyph glyph-name="ae.sc" unicode="&#xf7e6;" horiz-adv-x="1282" 
d="M655 356h-311l-207 -356h-121l594 989h586v-92h-436v-352h426v-92h-426v-361h448v-92h-553v356zM397 446h258v461z" />
    <glyph glyph-name="ccedilla.sc" unicode="&#xf7e7;" horiz-adv-x="997" 
d="M612 -12l-34 -74q161 -4 161 -133q0 -48 -34.5 -91t-112.5 -63q-90 -25 -215 -18l14 76q30 1 43.5 1.5t48.5 3.5t54.5 9.5t43 16.5t35 27.5t11.5 39.5q0 23 -13.5 38t-39 21t-48.5 8t-55 3h-8l63 139q-37 6 -63 12.5t-68 21t-82 40.5t-77 63q-77 75 -112.5 171.5
t-35.5 195.5q0 96 30.5 179t81 141.5t115.5 101t135.5 63t139.5 20.5q162 0 346 -86v-116q-59 32 -97 50t-103.5 35t-131.5 17q-180 0 -291.5 -113.5t-111.5 -293.5q0 -177 110.5 -290.5t288.5 -113.5q65 0 134 18.5t108 36t89 43.5q9 5 13 7v-111q-162 -90 -332 -96z" />
    <glyph glyph-name="egrave.sc" unicode="&#xf7e8;" horiz-adv-x="741" 
d="M670 989v-92h-437v-352h426v-92h-426v-361h447v-92h-551v989h541zM287 1362l250 -262h-101l-399 262h250z" />
    <glyph glyph-name="eacute.sc" unicode="&#xf7e9;" horiz-adv-x="741" 
d="M670 989v-92h-437v-352h426v-92h-426v-361h447v-92h-551v989h541zM475 1362h250l-399 -262h-103z" />
    <glyph glyph-name="ecircumflex.sc" unicode="&#xf7ea;" horiz-adv-x="741" 
d="M670 989v-92h-437v-352h426v-92h-426v-361h447v-92h-551v989h541zM709 1100h-105l-233 180l-228 -180h-108l254 280h160z" />
    <glyph glyph-name="edieresis.sc" unicode="&#xf7eb;" horiz-adv-x="741" 
d="M670 989v-92h-437v-352h426v-92h-426v-361h447v-92h-551v989h541zM178 1335q37 0 63.5 -26t26.5 -64q0 -37 -26.5 -62.5t-63.5 -25.5t-62.5 25.5t-25.5 62.5t25.5 63.5t62.5 26.5zM565 1333q36 0 62 -26t26 -62q0 -37 -25.5 -62.5t-62.5 -25.5t-62.5 25.5t-25.5 62.5
q0 36 26 62t62 26z" />
    <glyph glyph-name="igrave.sc" unicode="&#xf7ec;" horiz-adv-x="356" 
d="M229 989v-989h-102v989h102zM94 1362l250 -262h-100l-400 262h250z" />
    <glyph glyph-name="iacute.sc" unicode="&#xf7ed;" horiz-adv-x="356" 
d="M229 989v-989h-102v989h102zM252 1362h250l-400 -262h-102z" />
    <glyph glyph-name="icircumflex.sc" unicode="&#xf7ee;" horiz-adv-x="356" 
d="M229 989v-989h-102v989h102zM516 1100h-104l-234 180l-227 -180h-109l254 280h160z" />
    <glyph glyph-name="idieresis.sc" unicode="&#xf7ef;" horiz-adv-x="356" 
d="M229 989v-989h-102v989h102zM-14 1335q37 0 63.5 -26t26.5 -64q0 -37 -26.5 -62.5t-63.5 -25.5t-62.5 25.5t-25.5 62.5t25.5 63.5t62.5 26.5zM373 1333q36 0 62 -26t26 -62q0 -37 -25.5 -62.5t-62.5 -25.5t-62.5 25.5t-25.5 62.5q0 36 26 62t62 26z" />
    <glyph glyph-name="eth.sc" unicode="&#xf7f0;" horiz-adv-x="1083" 
d="M129 449h-125v92h125v448h297q107 0 195.5 -22t146 -56t101.5 -81t67 -91.5t37 -93.5t18 -81t4 -60q0 -135 -61.5 -255t-155.5 -175q-80 -46 -157 -60t-195 -14h-297v449zM549 449h-318v-357h205q104 0 162.5 11.5t120.5 48.5q74 45 119 141t45 201q0 115 -56.5 213
t-150.5 143q-94 47 -240 47h-205v-356h318v-92z" />
    <glyph glyph-name="ntilde.sc" unicode="&#xf7f1;" horiz-adv-x="1124" 
d="M217 989l678 -809v809h102v-989h-84l-682 815v-815h-104v989h90zM307 1120h-84q-4 103 21 156q19 41 60.5 64.5t86.5 23.5q87 0 242 -78q88 -45 123 -45t46.5 28t16.5 101h84q-3 -110 -20 -153q-20 -49 -59 -72t-76 -23q-84 0 -246 76q-94 47 -127 47q-21 0 -34.5 -8.5
t-20 -28t-9 -37.5t-4.5 -51z" />
    <glyph glyph-name="ograve.sc" unicode="&#xf7f2;" horiz-adv-x="1196" 
d="M1108 498q0 -145 -69 -262.5t-185.5 -182.5t-255.5 -65q-106 0 -200.5 40t-162.5 107.5t-107.5 162t-39.5 198.5q0 135 62.5 249.5t180.5 185t267 70.5q147 0 265 -69.5t181.5 -184t63.5 -249.5zM995 500q0 104 -47.5 195t-139.5 148.5t-208 57.5q-171 0 -285 -118
t-114 -289q0 -166 112.5 -286t282.5 -120q163 0 281 114t118 298zM514 1362l250 -262h-100l-400 262h250z" />
    <glyph glyph-name="oacute.sc" unicode="&#xf7f3;" horiz-adv-x="1196" 
d="M1108 498q0 -145 -69 -262.5t-185.5 -182.5t-255.5 -65q-106 0 -200.5 40t-162.5 107.5t-107.5 162t-39.5 198.5q0 135 62.5 249.5t180.5 185t267 70.5q147 0 265 -69.5t181.5 -184t63.5 -249.5zM995 500q0 104 -47.5 195t-139.5 148.5t-208 57.5q-171 0 -285 -118
t-114 -289q0 -166 112.5 -286t282.5 -120q163 0 281 114t118 298zM672 1362h250l-400 -262h-102z" />
    <glyph glyph-name="ocircumflex.sc" unicode="&#xf7f4;" horiz-adv-x="1196" 
d="M1108 498q0 -145 -69 -262.5t-185.5 -182.5t-255.5 -65q-106 0 -200.5 40t-162.5 107.5t-107.5 162t-39.5 198.5q0 135 62.5 249.5t180.5 185t267 70.5q147 0 265 -69.5t181.5 -184t63.5 -249.5zM995 500q0 104 -47.5 195t-139.5 148.5t-208 57.5q-171 0 -285 -118
t-114 -289q0 -166 112.5 -286t282.5 -120q163 0 281 114t118 298zM936 1100h-105l-233 180l-227 -180h-109l254 280h160z" />
    <glyph glyph-name="otilde.sc" unicode="&#xf7f5;" horiz-adv-x="1196" 
d="M1108 498q0 -145 -69 -262.5t-185.5 -182.5t-255.5 -65q-106 0 -200.5 40t-162.5 107.5t-107.5 162t-39.5 198.5q0 135 62.5 249.5t180.5 185t267 70.5q147 0 265 -69.5t181.5 -184t63.5 -249.5zM995 500q0 104 -47.5 195t-139.5 148.5t-208 57.5q-171 0 -285 -118
t-114 -289q0 -166 112.5 -286t282.5 -120q163 0 281 114t118 298zM344 1120h-84q-4 103 21 156q19 41 60.5 64.5t86.5 23.5q87 0 242 -78q88 -45 123 -45t46.5 28t16.5 101h84q-3 -110 -20 -153q-20 -49 -59.5 -72t-76.5 -23q-83 0 -245 76q-94 47 -127 47q-21 0 -34.5 -8.5
t-20 -28t-9 -37.5t-4.5 -51z" />
    <glyph glyph-name="odieresis.sc" unicode="&#xf7f6;" horiz-adv-x="1196" 
d="M1108 498q0 -145 -69 -262.5t-185.5 -182.5t-255.5 -65q-106 0 -200.5 40t-162.5 107.5t-107.5 162t-39.5 198.5q0 135 62.5 249.5t180.5 185t267 70.5q147 0 265 -69.5t181.5 -184t63.5 -249.5zM995 500q0 104 -47.5 195t-139.5 148.5t-208 57.5q-171 0 -285 -118
t-114 -289q0 -166 112.5 -286t282.5 -120q163 0 281 114t118 298zM406 1335q37 0 63.5 -26t26.5 -64q0 -37 -26.5 -62.5t-63.5 -25.5t-63 25.5t-26 62.5t26 63.5t63 26.5zM793 1333q36 0 62 -26t26 -62q0 -37 -25.5 -62.5t-62.5 -25.5t-62.5 25.5t-25.5 62.5q0 36 26 62
t62 26z" />
    <glyph glyph-name="oslash.sc" unicode="&#xf7f8;" horiz-adv-x="1196" 
d="M307 76l-76 -88h-118l127 145q-73 70 -112.5 166.5t-39.5 198.5q0 132 62 246t180.5 185.5t267.5 71.5q173 0 309 -98l72 82h117l-123 -141q135 -144 135 -348q0 -142 -68 -259t-185 -183t-257 -66q-164 0 -291 88zM901 760l-526 -606q102 -66 221 -66q166 0 282.5 116.5
t116.5 289.5q0 153 -94 266zM309 213l529 610q-99 78 -240 78q-168 0 -282.5 -118t-114.5 -289q0 -162 108 -281z" />
    <glyph glyph-name="ugrave.sc" unicode="&#xf7f9;" horiz-adv-x="1026" 
d="M109 989h102v-512q0 -156 49 -246q39 -73 107.5 -109t144.5 -36q81 0 152 37t102 104q28 58 38.5 114.5t10.5 135.5v512h103v-500q0 -113 -13.5 -184t-54.5 -137q-49 -78 -134 -129t-200 -51q-105 0 -196 45t-142 131q-32 56 -48 112.5t-18.5 96.5t-2.5 116v500z
M428 1362l250 -262h-100l-400 262h250z" />
    <glyph glyph-name="uacute.sc" unicode="&#xf7fa;" horiz-adv-x="1026" 
d="M109 989h102v-512q0 -156 49 -246q39 -73 107.5 -109t144.5 -36q81 0 152 37t102 104q28 58 38.5 114.5t10.5 135.5v512h103v-500q0 -113 -13.5 -184t-54.5 -137q-49 -78 -134 -129t-200 -51q-105 0 -196 45t-142 131q-32 56 -48 112.5t-18.5 96.5t-2.5 116v500z
M586 1362h250l-400 -262h-102z" />
    <glyph glyph-name="ucircumflex.sc" unicode="&#xf7fb;" horiz-adv-x="1026" 
d="M109 989h102v-512q0 -156 49 -246q39 -73 107.5 -109t144.5 -36q81 0 152 37t102 104q28 58 38.5 114.5t10.5 135.5v512h103v-500q0 -113 -13.5 -184t-54.5 -137q-49 -78 -134 -129t-200 -51q-105 0 -196 45t-142 131q-32 56 -48 112.5t-18.5 96.5t-2.5 116v500z
M850 1100h-105l-233 180l-227 -180h-109l254 280h160z" />
    <glyph glyph-name="udieresis.sc" unicode="&#xf7fc;" horiz-adv-x="1026" 
d="M109 989h102v-512q0 -156 49 -246q39 -73 107.5 -109t144.5 -36q81 0 152 37t102 104q28 58 38.5 114.5t10.5 135.5v512h103v-500q0 -113 -13.5 -184t-54.5 -137q-49 -78 -134 -129t-200 -51q-105 0 -196 45t-142 131q-32 56 -48 112.5t-18.5 96.5t-2.5 116v500z
M319 1335q37 0 64 -26t27 -64q0 -36 -27 -62t-64 -26t-62.5 25.5t-25.5 62.5t25.5 63.5t62.5 26.5zM707 1333q36 0 62 -26t26 -62q0 -37 -25.5 -62.5t-62.5 -25.5t-63 25.5t-26 62.5q0 36 26.5 62t62.5 26z" />
    <glyph glyph-name="yacute.sc" unicode="&#xf7fd;" horiz-adv-x="886" 
d="M442 582l306 407h126l-380 -500v-489h-105v489l-377 500h127zM557 1362h250l-399 -262h-103z" />
    <glyph glyph-name="thorn.sc" unicode="&#xf7fe;" horiz-adv-x="768" 
d="M127 0v989h104v-221h101q71 0 105 -1.5t78 -11.5t79 -30q58 -32 91.5 -90t33.5 -135t-36 -140.5t-95 -91.5q-39 -20 -80.5 -29t-71.5 -10.5t-94 -1.5h-111v-227h-104zM231 674v-355h115q30 0 47.5 0.5t48 4t50 10t43.5 19.5t38 31.5t23.5 47.5t9.5 66t-10 65.5
t-23.5 46.5t-38.5 31t-44.5 19.5t-52.5 9.5t-51.5 3.5t-51.5 0.5h-103z" />
    <glyph glyph-name="ydieresis.sc" unicode="&#xf7ff;" horiz-adv-x="886" 
d="M442 582l306 407h126l-380 -500v-489h-105v489l-377 500h127zM250 1335q37 0 63.5 -26t26.5 -64q0 -37 -26.5 -62.5t-63.5 -25.5t-62.5 25.5t-25.5 62.5t25.5 63.5t62.5 26.5zM637 1333q36 0 62 -26t26 -62q0 -37 -25.5 -62.5t-62.5 -25.5t-62.5 25.5t-25.5 62.5
q0 36 26 62t62 26z" />
    </font>
</defs>
</svg>
