<?xml version="1.0" standalone="no"?>
<!DOCTYPE svg PUBLIC "-//W3C//DTD SVG 1.1//EN" "http://www.w3.org/Graphics/SVG/1.1/DTD/svg11.dtd" >
<svg xmlns="http://www.w3.org/2000/svg" xmlns:xlink="http://www.w3.org/1999/xlink" version="1.1">
<metadata>
Created by FontForge 20170731 at Thu May  6 13:46:53 2021
 By Aleksey,,,
Font software Copyright 1990, 1991, 1998 Adobe Systems Incorporated. Typeface designs Copyright The Monotype Corporation. All rights reserved.
</metadata>
<defs>
<font id="GillSans-LightItalic" horiz-adv-x="1067" >
  <font-face 
    font-family="Gill Sans"
    font-weight="300"
    font-style="italic"
    font-stretch="normal"
    units-per-em="2048"
    panose-1="2 11 3 2 2 1 4 9 2 3"
    ascent="1397"
    descent="-651"
    x-height="920"
    cap-height="1397"
    bbox="-420 -473 2152 1917"
    underline-thickness="102"
    underline-position="-307"
    slope="-12"
    unicode-range="U+0020-FB04"
  />
<missing-glyph horiz-adv-x="1024" 
d="M25 0v1362h972v-1362h-972zM180 1266l332 -498l330 498h-662zM123 1178v-992q0 -1 82.5 123t164.5 249l83 124zM901 1178l-332 -496l332 -498v994zM842 98l-330 496l-332 -496h662z" />
    <glyph glyph-name="f_f" unicode="ff" horiz-adv-x="1040" 
d="M1122 920l-10 -60h-248l-186 -1268h-90l186 1268h-436l-186 -1268h-93l185 1268h-185l17 60h178q4 32 7 53t11 63.5t18 72.5t27.5 72.5t38.5 72.5t52.5 62.5t69 52.5t88 33t108.5 13q51 0 93.5 -9.5t73.5 -27.5t47 -30t36 -31q21 18 38 29.5t53 30t85 28.5t108 10
q42 0 88 -4l-12 -72q-54 7 -92 7q-27 0 -57.5 -6t-69 -21.5t-73 -49.5t-54.5 -83q-34 -76 -64 -266h248zM344 920h440q26 212 90 337q-92 86 -206 86q-271 0 -324 -423z" />
    <glyph glyph-name="fi" unicode="fi" horiz-adv-x="956" 
d="M610 920l-10 -68h-268l-176 -1260h-90l176 1260h-168l8 68h170l18 116q16 100 49 172.5t80 114t108 65t131 26t150 -2.5l-12 -78q-88 24 -176 8t-141 -69q-77 -77 -103 -250l-16 -102h270zM877 920l-129 -920h-91l129 920h91z" />
    <glyph glyph-name="fl" unicode="fl" horiz-adv-x="950" 
d="M586 920l-11 -68h-243l-176 -1260h-90l176 1260h-170l8 68h166l14 84q22 130 45 193t74 114q61 61 162.5 87.5t220.5 12.5l-10 -72q-86 17 -166.5 -1.5t-132.5 -63.5q-46 -40 -66.5 -101.5t-36.5 -171.5l-12 -81h248zM944 1397l-207 -1397h-90l207 1397h90z" />
    <glyph glyph-name="f_f_i" unicode="ffi" horiz-adv-x="1486" 
d="M1126 920l-10 -60h-250l-186 -1268h-90l184 1268h-438l-186 -1268h-91l185 1268h-176l10 60h176q19 159 68 266q28 62 70.5 107.5t81 68t83.5 35.5t69 15.5t48 2.5q144 0 250 -98q89 98 241 98q81 0 148 -29t100 -81q36 -57 31 -146h-78q-4 74 -25 109q-22 32 -67.5 56
t-108.5 24q-58 0 -103.5 -21.5t-75.5 -57t-53 -92.5t-36.5 -116.5t-24.5 -140.5h254zM344 920h438q21 130 39.5 197.5t55.5 139.5q-96 86 -209 86q-93 0 -160 -52.5t-105 -137.5q-36 -81 -59 -233zM1407 920l-131 -920h-90l131 920h90z" />
    <glyph glyph-name="f_f_l" unicode="ffl" horiz-adv-x="1484" 
d="M1122 920l-10 -60h-246l-188 -1268h-90l186 1268h-440l-182 -1268h-93l185 1268h-185l17 60h178q4 32 7 53t11 63.5t18 72.5t27.5 72.5t38.5 72.5t52.5 62.5t69 52.5t88 33t108.5 13q51 0 93.5 -9.5t73.5 -27.5t47 -30t36 -31q21 18 38 29.5t53 30t85 28.5t108 10
q42 0 88 -4l-12 -72q-58 7 -92 7q-26 0 -56 -6t-69 -21.5t-74 -49.5t-55 -83q-5 -12 -9.5 -23t-8.5 -25t-7 -23t-7 -27t-6 -26t-6.5 -32l-6 -32t-6.5 -38t-7 -40h248zM344 920h440q26 212 90 337q-92 86 -206 86q-271 0 -324 -423zM1479 1397l-207 -1397h-92l206 1397h93z
" />
    <glyph glyph-name=".notdef" horiz-adv-x="1024" 
d="M25 0v1362h972v-1362h-972zM180 1266l332 -498l330 498h-662zM123 1178v-992q0 -1 82.5 123t164.5 249l83 124zM901 1178l-332 -496l332 -498v994zM842 98l-330 496l-332 -496h662z" />
    <glyph glyph-name=".null" horiz-adv-x="0" 
 />
    <glyph glyph-name="nonmarkingreturn" horiz-adv-x="682" 
 />
    <glyph glyph-name="space" unicode=" " horiz-adv-x="512" 
 />
    <glyph glyph-name="exclam" unicode="!" horiz-adv-x="342" 
d="M113 360l120 1037h115l-192 -1037h-43zM20 0l25 182h121l-25 -182h-121z" />
    <glyph glyph-name="quotedbl" unicode="&#x22;" horiz-adv-x="575" 
d="M399 1397h136v-223l-25 -256h-86l-25 256v223zM117 1397h135v-223l-25 -256h-86l-24 256v223z" />
    <glyph glyph-name="numbersign" unicode="#" horiz-adv-x="1351" 
d="M561 1430h94l-86 -420h389l89 420h94l-88 -420h168v-95h-187l-82 -391h269v-94h-289l-86 -416h-94l86 416h-389l-87 -416h-94l86 416h-170v94h191l80 391h-271v95h291zM549 915l-80 -391h389l82 391h-391z" />
    <glyph glyph-name="dollar" unicode="$" horiz-adv-x="917" 
d="M631 1415l-13 -82q171 -20 250 -71l-14 -95q-138 66 -250 72l-76 -545q155 -77 225 -163t70 -201q0 -141 -111.5 -238.5t-283.5 -109.5l-31 -215h-92l31 215q-187 16 -297 94l12 98q141 -92 299 -98l78 557q-167 91 -231 164t-64 186q0 149 110.5 248t282.5 102l13 82h92
zM444 743l70 498q-128 -11 -205.5 -82t-77.5 -178q0 -73 46.5 -124.5t166.5 -113.5zM512 582l-70 -506q123 8 203 76.5t80 166.5q0 46 -13 81.5t-45.5 68t-63.5 54.5t-91 59z" />
    <glyph glyph-name="percent" unicode="%" horiz-adv-x="1427" 
d="M1411 305q0 -136 -97.5 -233t-232.5 -97q-136 0 -232.5 96.5t-96.5 233.5t96.5 233.5t232.5 96.5q135 0 232.5 -97t97.5 -233zM1323 305q0 100 -71 171t-171 71q-99 0 -170 -71.5t-71 -170.5q0 -101 70.5 -171.5t170.5 -70.5t171 71t71 171zM719 1085
q0 -136 -97.5 -232.5t-232.5 -96.5q-137 0 -233.5 96.5t-96.5 232.5q0 137 96.5 233.5t233.5 96.5q135 0 232.5 -97t97.5 -233zM631 1085q0 100 -71 171t-171 71q-99 0 -170.5 -71.5t-71.5 -170.5q0 -101 71 -171t171 -70t171 70.5t71 170.5zM1341 1409l-1124 -1432h-102
l1126 1432h100z" />
    <glyph glyph-name="ampersand" unicode="&#x26;" horiz-adv-x="1343" 
d="M1163 676h105q-40 -103 -124.5 -228.5t-197.5 -248.5q81 -73 179.5 -106.5t172.5 -18.5l-49 -90q-193 -18 -375 149q-99 -83 -185 -117t-193 -34q-175 0 -293.5 107t-118.5 265q0 254 346 422q-44 86 -70 171.5t-26 144.5q0 140 88 231.5t221 91.5q116 0 198.5 -81
t82.5 -195q0 -110 -86 -209t-275 -195q174 -296 311 -467q77 74 157 186.5t132 221.5zM518 819q158 82 229.5 160t71.5 170q0 70 -53 121t-127 51q-84 0 -144.5 -63t-60.5 -150q0 -134 84 -289zM805 201q-131 151 -330 493q-147 -79 -214.5 -161t-67.5 -179
q0 -120 86.5 -199t218.5 -79q83 0 155.5 30t151.5 95z" />
    <glyph glyph-name="quotesingle" unicode="'" horiz-adv-x="448" 
d="M221 1397h135v-223l-24 -256h-86l-25 256v223z" />
    <glyph glyph-name="parenleft" unicode="(" horiz-adv-x="618" 
d="M614 1415h119q-126 -124 -219 -246.5t-164 -260t-107 -290.5t-36 -319q0 -191 53 -394t148 -376h-101q-89 165 -142.5 381.5t-53.5 406.5q0 288 127 565.5t376 532.5z" />
    <glyph glyph-name="parenright" unicode=")" horiz-adv-x="618" 
d="M-55 -471h-119q126 124 219 246.5t164 260t107 290.5t36 319q0 191 -52.5 394t-147.5 376h100q89 -165 143 -381.5t54 -406.5q0 -287 -127.5 -565t-376.5 -533z" />
    <glyph glyph-name="asterisk" unicode="*" horiz-adv-x="960" 
d="M881 1255l-287 -231l4 -10l369 33v-97l-369 41l-6 -12l289 -234l-70 -69l-238 289l-10 -2l35 -379h-94l37 379l-9 2l-235 -289l-72 69l291 234l-4 10l-375 -35v95l373 -37l2 12l-287 231l72 72l233 -285l11 5l-37 368h94l-35 -366l10 -7l238 285z" />
    <glyph glyph-name="plus" unicode="+" horiz-adv-x="1351" 
d="M166 764h491v491h91v-491h491v-90h-491v-492h-91v492h-491v90z" />
    <glyph glyph-name="comma" unicode="," horiz-adv-x="342" 
d="M37 0l24 182h121l-22 -162q-7 -52 -31 -105t-63.5 -94t-83.5 -52l8 59q76 62 88 172h-41z" />
    <glyph glyph-name="hyphen" unicode="-" horiz-adv-x="555" 
d="M526 487l-12 -79h-485l10 79h487z" />
    <glyph glyph-name="period" unicode="." horiz-adv-x="342" 
d="M55 0l25 182h121l-25 -182h-121z" />
    <glyph glyph-name="slash" unicode="/" horiz-adv-x="575" 
d="M494 1415h94l-449 -1433h-96z" />
    <glyph glyph-name="zero" unicode="0" 
d="M1012 932q0 -177 -38.5 -346t-107.5 -304t-175.5 -217.5t-231.5 -82.5q-169 0 -258.5 133.5t-89.5 355.5q0 72 9 154t30 174t51 179t76 167t101 139.5t130 95t160 35.5q76 0 136.5 -29t99 -75.5t63.5 -110.5t35 -130t10 -138zM915 922q0 193 -66.5 300t-186.5 107
q-77 0 -145 -44t-116.5 -117.5t-86.5 -164.5t-61 -189.5t-34.5 -188.5t-11.5 -166q0 -184 67.5 -287.5t186.5 -103.5q71 0 133.5 35.5t107.5 93.5t82 134.5t61 157t40 163t23 150t7 120.5z" />
    <glyph glyph-name="one" unicode="1" 
d="M694 1397l-194 -1397h-92l194 1397h92z" />
    <glyph glyph-name="two" unicode="2" 
d="M885 86l-13 -86h-798q98 93 204.5 215.5t153 182t160.5 206.5q131 170 189.5 281.5t58.5 208.5q0 106 -64 170.5t-168 64.5q-76 0 -155.5 -31.5t-186.5 -105.5l17 108q101 60 176.5 87.5t165.5 27.5q140 0 226.5 -87t86.5 -228q0 -46 -10 -93.5t-36.5 -104.5
t-52.5 -105.5t-78 -120.5t-91 -125t-114.5 -143.5t-126.5 -150.5t-146 -171h602z" />
    <glyph glyph-name="three" unicode="3" 
d="M305 1249l12 90q138 76 279 76q163 0 273 -101.5t110 -252.5q0 -59 -17 -109.5t-41 -83.5t-63.5 -64.5t-70 -48.5t-74.5 -38q186 -107 186 -305q0 -186 -132 -308t-333 -122t-348 104l12 84q165 -102 328 -102q165 0 270 99t105 255q0 126 -86.5 198t-231.5 74l11 66
q84 -1 152 16t112.5 45.5t74.5 67.5t43 80.5t13 85.5q0 118 -88.5 196t-222.5 78q-130 0 -273 -80z" />
    <glyph glyph-name="four" unicode="4" 
d="M977 545l-8 -68h-230l-67 -477h-92l67 477h-571l6 39l758 899h30l-120 -870h227zM741 1190l-540 -645h456l88 641z" />
    <glyph glyph-name="five" unicode="5" 
d="M973 1397l-12 -86h-502l-62 -439q62 9 95 9q175 0 287 -114.5t112 -293.5q0 -134 -66 -247t-180.5 -178.5t-251.5 -65.5q-94 0 -185.5 30.5t-160.5 85.5l39 76q141 -106 305 -106q166 0 284 118t118 285q0 148 -92 236t-244 88q-85 0 -166 -25l88 627h594z" />
    <glyph glyph-name="six" unicode="6" 
d="M795 1397l-435 -625l5 -4q69 45 130.5 66.5t139.5 21.5q146 0 232.5 -89t86.5 -241q0 -106 -39.5 -206.5t-104.5 -174.5t-152.5 -118.5t-180.5 -44.5q-149 0 -248.5 107.5t-99.5 270.5q0 126 55.5 252.5t155.5 272.5l352 512h103zM856 535q0 106 -61 170.5t-162 64.5
q-169 0 -287.5 -121t-118.5 -293q0 -134 67.5 -211t180.5 -77q101 0 189.5 64t140 172t51.5 231z" />
    <glyph glyph-name="seven" unicode="7" 
d="M1036 1397l-717 -1397h-98l672 1311h-684l12 86h815z" />
    <glyph glyph-name="eight" unicode="8" 
d="M741 733v2v-4q100 -23 156.5 -102t56.5 -193q0 -123 -63.5 -227.5t-170.5 -165.5t-231 -61q-164 0 -277.5 107.5t-113.5 270.5q0 62 19 122.5t57 116t103 97t149 56.5v4q-176 73 -176 264q0 166 118.5 280.5t290.5 114.5q154 0 252.5 -94t98.5 -242q0 -114 -70 -212
t-199 -134zM911 1073q0 114 -70.5 185t-181.5 71q-129 0 -220 -90t-91 -217q0 -104 74.5 -170t191.5 -66q72 0 130.5 26.5t94 69.5t54 92.5t18.5 98.5zM856 426q0 123 -82.5 198.5t-216.5 75.5q-157 0 -258.5 -97.5t-101.5 -248.5q0 -132 85 -210t207 -76q153 2 260 105.5
t107 252.5z" />
    <glyph glyph-name="nine" unicode="9" 
d="M319 0l455 651l-4 4q-130 -110 -278 -110q-143 0 -232.5 90.5t-89.5 236.5q0 65 18 137t57.5 144.5t94.5 130.5t135.5 94.5t173.5 36.5q154 0 250 -104.5t96 -274.5q0 -217 -192 -493l-377 -543h-107zM897 1044q0 129 -67 207t-179 78q-153 0 -268 -139t-115 -322
q0 -109 60.5 -173t163.5 -64q167 0 286 122t119 291z" />
    <glyph glyph-name="colon" unicode=":" horiz-adv-x="342" 
d="M139 737l25 183h121l-25 -183h-121zM31 0l24 182h121l-24 -182h-121z" />
    <glyph glyph-name="semicolon" unicode=";" horiz-adv-x="342" 
d="M45 0l25 182h120l-22 -162q-7 -52 -31 -105t-63.5 -94t-83.5 -52l8 59q76 62 88 172h-41zM139 737l25 183h121l-25 -183h-121z" />
    <glyph glyph-name="less" unicode="&#x3c;" horiz-adv-x="1351" 
d="M166 674v86l1073 450v-100l-950 -393l950 -393v-101z" />
    <glyph glyph-name="equal" unicode="=" horiz-adv-x="1351" 
d="M166 1010h1073v-90h-1073v90zM166 516h1073v-90h-1073v90z" />
    <glyph glyph-name="greater" unicode="&#x3e;" horiz-adv-x="1351" 
d="M1239 674l-1073 -451v101l950 393l-950 393v100l1073 -450v-86z" />
    <glyph glyph-name="question" unicode="?" horiz-adv-x="598" 
d="M98 1214l15 103q57 46 126.5 72t133.5 26q123 0 209 -84t86 -203q0 -63 -23 -119t-61.5 -101t-85.5 -88.5t-97 -90.5t-94 -98t-79 -120.5t-50 -148.5h-51q6 78 34.5 150t69 126.5t88.5 105t94 96.5t84 90.5t61.5 95.5t23.5 104q0 94 -60.5 156t-152.5 62q-72 0 -135 -31
t-136 -103zM43 0l25 182h120l-24 -182h-121z" />
    <glyph glyph-name="at" unicode="@" horiz-adv-x="1642" 
d="M1174 1034h124l-170 -803q-16 -63 -9.5 -91.5t46.5 -28.5q39 0 89 23.5t103.5 72.5t97.5 115.5t72.5 162.5t28.5 203q0 58 -8.5 116t-30.5 122.5t-55 122t-86 110.5t-120.5 91t-161.5 60.5t-205 22.5q-225 0 -402.5 -102t-276.5 -284.5t-99 -414.5q0 -347 217.5 -561.5
t570.5 -214.5q438 0 672 312h102q-114 -193 -323.5 -293.5t-452.5 -100.5q-257 0 -455 107.5t-306.5 303.5t-108.5 450q0 131 31.5 255t100.5 238t169 199.5t247.5 136.5t325.5 51q154 0 280.5 -43.5t210 -115t141 -167t82.5 -196t25 -205.5q0 -100 -23.5 -192.5t-63 -164
t-91.5 -131.5t-109.5 -99t-116 -60t-112.5 -21q-152 0 -112 181l-4 4q-153 -185 -338 -185q-149 0 -247.5 119.5t-98.5 302.5q0 156 66 297.5t185.5 230.5t262.5 89q92 0 173 -48t126 -145h4zM1092 688q0 123 -72 203t-184 80q-76 0 -141 -37t-109 -95t-75 -130t-45.5 -142
t-14.5 -131q0 -138 73 -228.5t183 -90.5q68 0 130.5 38.5t107.5 100.5t79 138t51 152.5t17 141.5z" />
    <glyph glyph-name="A" unicode="A" horiz-adv-x="1079" 
d="M696 1415l322 -1415h-98l-115 504h-518l-238 -504h-98l659 1415h86zM631 1243l-299 -645h452l-149 645h-4z" />
    <glyph glyph-name="B" unicode="B" horiz-adv-x="1056" 
d="M279 1397h135q119 0 211.5 -30t146.5 -80t81.5 -110.5t27.5 -127.5q0 -87 -48.5 -159t-138.5 -118q142 -40 221.5 -136t79.5 -230q0 -181 -144 -293.5t-378 -112.5h-391zM360 1307l-69 -506h143q164 0 252 65t88 185t-86.5 188t-238.5 68h-89zM279 711l-89 -621h201h70
q117 0 204 28t134 74.5t68.5 98.5t21.5 110q0 136 -101.5 223t-261.5 87h-247z" />
    <glyph glyph-name="C" unicode="C" horiz-adv-x="1130" 
d="M1151 1397l-12 -90q-98 14 -166 14q-170 0 -320.5 -65.5t-252.5 -171.5t-161 -241.5t-59 -275.5q0 -209 128 -350t317 -141q101 0 217 39t225 110l-16 -114q-98 -58 -214.5 -93.5t-209.5 -35.5q-78 0 -156 23.5t-149.5 72.5t-126.5 117t-88 163.5t-33 204.5
q0 127 41.5 251.5t122 232t188.5 190.5t250.5 130.5t298.5 47.5q98 0 176 -18z" />
    <glyph glyph-name="D" unicode="D" horiz-adv-x="1306" 
d="M82 0l197 1397h247q134 0 261 -47t230 -134t165.5 -225t62.5 -305q0 -152 -55 -280.5t-151 -217.5t-228.5 -138.5t-284.5 -49.5h-444zM367 1307l-174 -1217h296q104 0 193 20t154.5 54t118 81.5t86.5 100t56.5 112t32 116t9.5 112.5q0 189 -90 332t-237 216t-327 73h-118
z" />
    <glyph glyph-name="E" unicode="E" 
d="M991 1397l-12 -94h-617l-77 -541h583l-14 -94h-582l-82 -574h826l-12 -94h-922l197 1397h712z" />
    <glyph glyph-name="F" unicode="F" horiz-adv-x="862" 
d="M920 1397l-13 -94h-545l-77 -547h508l-13 -94h-508l-94 -662h-96l197 1397h641z" />
    <glyph glyph-name="G" unicode="G" horiz-adv-x="1257" 
d="M1298 1382l-12 -92q-143 31 -256 31q-196 0 -358.5 -59.5t-269 -161.5t-164.5 -236t-58 -284q0 -221 137.5 -362.5t354.5 -141.5q149 0 338 94l45 311h-314l13 94h409l-63 -452q-96 -66 -214.5 -103.5t-226.5 -37.5q-109 0 -212 40t-187 113.5t-135 191.5t-51 261
q0 125 40 245t121 225t194.5 185t270.5 126t338 46q133 0 260 -33z" />
    <glyph glyph-name="H" unicode="H" horiz-adv-x="1419" 
d="M1389 1397l-197 -1397h-96l92 666h-918l-92 -666h-96l194 1397h97l-90 -637h919l90 637h97z" />
    <glyph glyph-name="I" unicode="I" horiz-adv-x="405" 
d="M375 1397l-197 -1397h-96l197 1397h96z" />
    <glyph glyph-name="J" unicode="J" horiz-adv-x="405" 
d="M381 1397l-217 -1532q-13 -95 -46.5 -163t-81 -104.5t-98.5 -52.5t-110 -16q-58 0 -117 16l-18 101q61 -21 133 -21q116 0 174 74.5t84 255.5l203 1442h94z" />
    <glyph glyph-name="K" unicode="K" horiz-adv-x="1161" 
d="M1182 1397l-768 -639l735 -758h-127l-737 758l-107 -758h-96l197 1397h96l-86 -615l751 615h142z" />
    <glyph glyph-name="L" unicode="L" horiz-adv-x="860" 
d="M375 1397l-185 -1303h627l-12 -94h-723l197 1397h96z" />
    <glyph glyph-name="M" unicode="M" horiz-adv-x="1640" 
d="M477 1186l-393 -1186h-100l462 1397h82l248 -1176h4l623 1176h88v-1397h-100v1176h-5l-620 -1176h-35l-250 1186h-4z" />
    <glyph glyph-name="N" unicode="N" horiz-adv-x="1384" 
d="M1354 1397l-199 -1409h-43l-766 1204l-168 -1192h-96l197 1397h55l756 -1196l167 1196h97z" />
    <glyph glyph-name="O" unicode="O" horiz-adv-x="1286" 
d="M1245 850q0 -139 -30.5 -269.5t-89 -238.5t-138 -189t-183 -126t-218.5 -45q-237 0 -365.5 152.5t-128.5 426.5q0 74 11 152.5t36.5 162.5t62 161.5t91 146.5t121 120t155 81t189.5 30q226 0 356.5 -151.5t130.5 -413.5zM1139 872q0 207 -103 328t-278 121
q-89 0 -166.5 -29.5t-133.5 -78.5t-101 -115.5t-74 -138.5t-48.5 -150t-27.5 -147t-8 -132q0 -218 102 -336t287 -118q128 0 234 65t174.5 175t105.5 253.5t37 302.5z" />
    <glyph glyph-name="P" unicode="P" horiz-adv-x="929" 
d="M279 1397h278q177 0 285 -103.5t108 -267.5q0 -60 -14.5 -115t-49 -107.5t-86.5 -91t-132.5 -62t-180.5 -23.5h-221l-88 -627h-96zM362 1307l-83 -590h200q85 0 151 19.5t105.5 50t64.5 72t34.5 81t9.5 82.5q0 128 -81.5 206.5t-215.5 78.5h-185z" />
    <glyph glyph-name="Q" unicode="Q" horiz-adv-x="1280" 
d="M1260 0h26q6 -78 -12 -148.5t-57.5 -126.5t-107 -89t-153.5 -33q-149 0 -278 106.5t-180 272.5q-109 13 -191 69t-127 139t-66.5 174t-21.5 191q0 119 26 239t81 232t132.5 198.5t189.5 138.5t243 52q228 0 354.5 -150.5t126.5 -418.5q0 -121 -24 -240.5t-76 -230
t-125 -196t-178.5 -139t-229.5 -58.5q61 -135 155 -206t208 -71q125 0 203.5 81.5t81.5 213.5zM1139 868q0 213 -99 333t-280 120q-128 0 -235 -64.5t-177.5 -173.5t-109.5 -253t-39 -304q0 -213 104.5 -331.5t292.5 -118.5q129 0 235 71.5t171.5 187t101 253.5t35.5 280z
" />
    <glyph glyph-name="R" unicode="R" 
d="M276 1397h320q178 0 277.5 -102t99.5 -261q0 -144 -87 -246t-235 -133q31 -21 63 -66.5t81 -133.5l254 -455h-113l-234 418q-14 25 -33.5 60.5t-28 51t-22.5 38.5t-21 32t-20 22t-22 16.5t-24 9t-30.5 6.5t-37.5 1h-31h-162l-92 -655h-96zM360 1307l-77 -562h211h43
q154 0 241.5 77t87.5 210q0 46 -13.5 90.5t-43 88t-86.5 70t-135 26.5h-228z" />
    <glyph glyph-name="S" unicode="S" horiz-adv-x="833" 
d="M797 1337l-25 -88q-83 42 -131 57t-100 15q-106 0 -182 -77.5t-76 -186.5q0 -64 25 -116.5t65.5 -91t89 -74.5t97 -75t89 -84t65.5 -111.5t25 -146.5q0 -162 -109 -269t-274 -107q-70 0 -157 28t-138 66l25 94q84 -53 141 -73.5t119 -20.5q121 0 204 74.5t83 209.5
q0 63 -25 118t-65.5 96t-89.5 79.5t-97.5 78.5t-89 83t-65.5 102t-25 127q0 158 105 264.5t260 106.5q69 0 142 -22t114 -56z" />
    <glyph glyph-name="T" unicode="T" horiz-adv-x="937" 
d="M1059 1397l-12 -94h-414l-184 -1303h-97l185 1303h-414l12 94h924z" />
    <glyph glyph-name="U" unicode="U" horiz-adv-x="1294" 
d="M1284 1397l-129 -903q-15 -107 -56 -194.5t-97 -145.5t-126 -97.5t-143 -57t-149 -17.5q-100 0 -189 37.5t-153 103t-94.5 165t-14.5 214.5l127 895h96l-125 -881q-16 -111 9 -198t80 -138.5t126 -77.5t154 -26q85 0 157 25t123 66.5t89 97.5t59.5 115t30.5 122l129 895
h96z" />
    <glyph glyph-name="V" unicode="V" horiz-adv-x="1003" 
d="M1106 1397l-633 -1415h-39l-295 1415h97l231 -1172h4l535 1172h100z" />
    <glyph glyph-name="W" unicode="W" horiz-adv-x="1847" 
d="M1960 1397l-680 -1415h-41l-217 1165h-4l-533 -1165h-43l-303 1415h97l247 -1178h4l543 1178h39l219 -1178h4l563 1178h105z" />
    <glyph glyph-name="X" unicode="X" horiz-adv-x="1339" 
d="M1401 1397l-641 -668l489 -729h-114l-445 653l-622 -653h-129l700 729l-451 668h115l408 -592l563 592h127z" />
    <glyph glyph-name="Y" unicode="Y" horiz-adv-x="944" 
d="M1083 1397l-522 -674l-100 -723h-96l100 723l-350 674h104l305 -578l443 578h116z" />
    <glyph glyph-name="Z" unicode="Z" horiz-adv-x="1273" 
d="M168 94h989l-12 -94h-1159v33l1167 1270h-944l12 94h1114v-33z" />
    <glyph glyph-name="bracketleft" unicode="[" horiz-adv-x="618" 
d="M721 1397l-10 -80h-340l-248 -1690h350l-10 -80h-447l273 1850h432z" />
    <glyph glyph-name="backslash" unicode="\" horiz-adv-x="575" 
d="M485 -18l-450 1433h96l449 -1433h-95z" />
    <glyph glyph-name="bracketright" unicode="]" horiz-adv-x="618" 
d="M-115 -453l11 80h340l247 1690h-350l10 80h447l-273 -1850h-432z" />
    <glyph glyph-name="asciicircum" unicode="^" horiz-adv-x="1343" 
d="M735 1415l449 -536l-66 -54l-383 461l-385 -461l-63 54z" />
    <glyph glyph-name="underscore" unicode="_" horiz-adv-x="1024" 
d="M-12 -154h1048v-102h-1048v102z" />
    <glyph glyph-name="grave" unicode="`" horiz-adv-x="681" 
d="M160 1352h164l215 -316h-68z" />
    <glyph glyph-name="a" unicode="a" horiz-adv-x="948" 
d="M874 920l-129 -920h-90l15 109q-62 -56 -147.5 -91.5t-168.5 -35.5q-139 0 -230 104t-91 264q0 87 26.5 171.5t81 159.5t130.5 132.5t183.5 91t231.5 33.5q111 0 188 -18zM684 213l92 645q-50 12 -112 12q-141 0 -262.5 -65.5t-197 -188.5t-75.5 -278q0 -127 65.5 -204
t174.5 -77q153 0 315 156z" />
    <glyph glyph-name="b" unicode="b" horiz-adv-x="927" 
d="M334 1397l-84 -592l4 -4q137 137 291 137q142 0 235.5 -108.5t93.5 -274.5q0 -85 -22 -165.5t-70.5 -155t-118.5 -130.5t-174 -89t-229 -33q-132 0 -213 18l197 1397h90zM223 621l-76 -549q148 -18 269 12.5t199.5 98t120.5 163t42 207.5q0 132 -73 216.5t-187 84.5
q-97 0 -190 -73t-105 -160z" />
    <glyph glyph-name="c" unicode="c" horiz-adv-x="788" 
d="M778 920l-14 -99q-105 27 -174 27q-87 0 -161 -27.5t-124.5 -73.5t-86 -107t-52 -126.5t-16.5 -132.5q0 -142 84.5 -228.5t224.5 -86.5q61 0 115.5 17t146.5 58l-14 -96q-129 -63 -271 -63q-172 0 -277.5 113t-105.5 296q0 76 20.5 152t64.5 147.5t106.5 126.5t154 88
t199.5 33q88 0 180 -18z" />
    <glyph glyph-name="d" unicode="d" horiz-adv-x="972" 
d="M956 1397l-194 -1387l-35 -6q-127 -22 -213 -22q-191 0 -305 86q-80 60 -124 149.5t-44 190.5q0 120 62 236.5t165 186.5q152 107 398 107q21 0 135 -8l65 467h90zM680 72l108 782q-63 16 -126 16q-80 0 -161.5 -19t-140.5 -54q-102 -61 -162.5 -168t-60.5 -226
q0 -89 33.5 -159t89.5 -111.5t122 -62.5t138 -21q73 0 160 23z" />
    <glyph glyph-name="e" unicode="e" horiz-adv-x="892" 
d="M758 180v-96q-134 -102 -289 -102q-184 0 -296 121t-112 321q0 142 56 260t154 186t216 68q149 0 238.5 -104t89.5 -285q0 -30 -4 -70h-649q-4 -36 -4 -59q0 -64 19.5 -125t56.5 -113t98.5 -84t138.5 -32q148 0 287 114zM176 559h549q6 139 -61 217t-179 78
q-108 0 -199 -87t-110 -208z" />
    <glyph glyph-name="f" unicode="f" horiz-adv-x="512" 
d="M559 920l-10 -68h-217l-176 -1260h-90l176 1260h-185l11 68h184l16 120q24 175 120.5 275t250.5 100q120 0 227 -57l-10 -76q-111 57 -211 57q-234 0 -276 -252l-27 -167h217z" />
    <glyph glyph-name="g" unicode="g" horiz-adv-x="874" 
d="M918 938l-11 -68h-258v-4q135 -81 135 -250q0 -154 -110 -264q-36 -36 -92 -59.5t-88 -29.5t-105 -16l-6 -1.5t-5.5 -1t-6.5 -0.5q-87 -12 -132.5 -33t-45.5 -61q0 -34 34.5 -50t153.5 -45q57 -14 83.5 -21t75.5 -22.5t73.5 -27.5t57.5 -32.5t49 -42t28 -51.5t12 -65
q0 -47 -23 -92t-69 -84.5t-128.5 -63.5t-189.5 -24q-184 0 -277 67t-93 162q0 86 78.5 143.5t236.5 96.5v4q-189 38 -189 139q0 50 48.5 85.5t140.5 52.5v4q-92 32 -144.5 109.5t-52.5 180.5q0 150 111.5 257.5t269.5 107.5h439zM184 569q0 -96 60 -169.5t166 -73.5
q64 0 115.5 23.5t82 58.5t51 78.5t28 78.5t7.5 64q0 104 -72 168.5t-163 64.5q-110 0 -192.5 -87t-82.5 -206zM387 -37q-158 -25 -239.5 -84t-81.5 -135q0 -68 73 -107.5t199 -39.5q172 0 254 55t82 135q0 66 -68.5 105.5t-218.5 70.5z" />
    <glyph glyph-name="h" unicode="h" horiz-adv-x="937" 
d="M334 1397l-92 -664l4 -4q97 102 180 155.5t182 53.5q119 0 184 -81.5t48 -205.5l-92 -651h-91l88 641q8 59 -2.5 102t-35 66.5t-53 34t-60.5 10.5q-86 0 -162 -50.5t-207 -185.5l-88 -618h-90l197 1397h90z" />
    <glyph glyph-name="i" unicode="i" horiz-adv-x="362" 
d="M283 920l-129 -920h-91l130 920h90zM336 1317l-23 -152h-90l23 152h90z" />
    <glyph glyph-name="j" unicode="j" horiz-adv-x="362" 
d="M281 920l-150 -1041q-13 -85 -31 -143t-50 -108t-85.5 -74.5t-128.5 -24.5q-52 0 -112 16l12 82q53 -14 90 -14q36 0 65.5 10t50 25t37.5 43t27.5 53t20.5 67.5t15 73t13 82.5l135 953h91zM336 1317l-23 -152h-90l23 152h90z" />
    <glyph glyph-name="k" unicode="k" horiz-adv-x="897" 
d="M334 1397l-129 -910l549 433h135l-549 -433l573 -487h-129l-579 487l-68 -487h-90l197 1397h90z" />
    <glyph glyph-name="l" unicode="l" horiz-adv-x="346" 
d="M334 1397l-197 -1397h-90l197 1397h90z" />
    <glyph glyph-name="m" unicode="m" horiz-adv-x="1509" 
d="M276 920l-22 -160q106 94 184 136t168 42q88 0 148 -57.5t69 -139.5q179 197 353 197q117 0 183 -77.5t52 -178.5l-96 -682h-90l94 666q6 46 -4.5 83.5t-33.5 59.5t-52 33.5t-60 11.5q-78 0 -174 -55.5t-172 -145.5l-92 -653h-90l90 641q16 109 -25.5 161t-121.5 52
t-169 -51.5t-175 -149.5l-93 -653h-90l129 920h90z" />
    <glyph glyph-name="n" unicode="n" horiz-adv-x="935" 
d="M276 920l-20 -152l4 -4q174 174 350 174q114 0 179.5 -90.5t48.5 -216.5l-88 -631h-91l86 618q16 116 -29.5 176t-129.5 60q-82 0 -164 -49t-182 -152l-93 -653h-90l129 920h90z" />
    <glyph glyph-name="o" unicode="o" horiz-adv-x="862" 
d="M793 553q0 -134 -38 -245t-101 -180.5t-140.5 -107.5t-159.5 -38q-134 0 -225.5 100.5t-91.5 286.5q0 251 121 410t311 159q149 0 236.5 -104t87.5 -281zM696 553q0 138 -62.5 219.5t-168.5 81.5q-80 0 -144.5 -41.5t-104.5 -111t-61.5 -155.5t-21.5 -179
q0 -139 58.5 -220t158.5 -81q95 0 174.5 65t125.5 177t46 245z" />
    <glyph glyph-name="p" unicode="p" horiz-adv-x="972" 
d="M354 1106l-32 -236q122 68 227 68q165 0 268 -116t103 -300q0 -74 -17.5 -146t-61.5 -144.5t-109.5 -127t-169.5 -88.5t-234 -34q-68 0 -129 6l-64 -441h-90l168 1186q-48 -42 -88 -94t-59.5 -80.5t-28.5 -28.5q-5 0 -8.5 6t-3.5 13q0 43 62.5 125.5t135.5 136.5l41 295
h90zM311 797l-104 -742q139 -16 248.5 5t177 66t111.5 112t61.5 136.5t17.5 145.5q0 154 -81 244t-216 90q-104 0 -215 -57z" />
    <glyph glyph-name="q" unicode="q" horiz-adv-x="913" 
d="M850 938l-195 -1391h-90l70 502q-91 -40 -143 -53.5t-113 -13.5q-152 0 -245 107t-93 282q0 84 22.5 164t71 153.5t119 128.5t174.5 88t229 33h193zM647 125l105 745h-80q-119 0 -214 -32t-153.5 -82t-97.5 -117.5t-54.5 -133.5t-15.5 -134q0 -149 75 -235.5t204 -86.5
q55 0 101.5 15.5t129.5 60.5z" />
    <glyph glyph-name="r" unicode="r" horiz-adv-x="632" 
d="M276 920l-34 -252l4 -4q109 156 174.5 215t148.5 59q47 0 90 -18v-91q-54 25 -94 25q-133 0 -340 -307l-78 -547h-90l129 920h90z" />
    <glyph glyph-name="s" unicode="s" horiz-adv-x="724" 
d="M678 852v-100q-163 102 -299 102q-77 0 -133 -38t-56 -93q0 -47 46 -92t111 -84.5t130.5 -82.5t111.5 -105.5t46 -135.5q0 -101 -87.5 -171t-213.5 -70q-170 0 -309 120l28 97q124 -133 285 -133q87 0 144 41.5t57 105.5q0 52 -45 101t-108.5 90t-127.5 83.5t-109 100
t-45 121.5q0 98 84 163.5t209 65.5q145 0 281 -86z" />
    <glyph glyph-name="t" unicode="t" horiz-adv-x="595" 
d="M575 920l-10 -68h-258l-88 -594q-6 -40 -6 -74q0 -65 30.5 -98t98.5 -33q91 0 170 76v-84q-79 -65 -184 -65q-203 0 -203 204q0 41 6 88l88 580h-168l10 68h168l31 210h86l-31 -210h260z" />
    <glyph glyph-name="u" unicode="u" horiz-adv-x="937" 
d="M868 920l-129 -920h-90l25 162l-4 4q-172 -184 -357 -184q-46 0 -89 17t-77 49.5t-50.5 87.5t-6.5 124l92 660h90l-92 -656q-12 -91 32 -144.5t130 -53.5q82 0 164 51.5t184 167.5l88 635h90z" />
    <glyph glyph-name="v" unicode="v" horiz-adv-x="747" 
d="M795 920l-502 -938h-29l-213 938h88l168 -748l400 748h88z" />
    <glyph glyph-name="w" unicode="w" horiz-adv-x="1259" 
d="M838 182l376 738h91l-486 -938h-33l-122 725h-5l-360 -725h-33l-215 938h86l170 -738h4l365 738h37l121 -738h4z" />
    <glyph glyph-name="x" unicode="x" horiz-adv-x="862" 
d="M899 920l-407 -449l278 -471h-106l-236 410l-379 -410h-110l448 483l-252 437h96l218 -369l344 369h106z" />
    <glyph glyph-name="y" unicode="y" horiz-adv-x="768" 
d="M811 920l-727 -1391h-100l256 483l-174 908h90l145 -785h4l410 785h96z" />
    <glyph glyph-name="z" unicode="z" horiz-adv-x="874" 
d="M893 920v-39l-760 -801h643l-12 -80h-801v37l770 803h-602l12 80h750z" />
    <glyph glyph-name="braceleft" unicode="{" horiz-adv-x="681" 
d="M121 397v131q106 3 149 78.5t43 257.5v199q0 181 72.5 261.5t220.5 72.5v-111q-71 0 -107.5 -16.5t-54.5 -64.5t-18 -142v-199q0 -167 -47.5 -264.5t-151.5 -136.5q104 -39 151.5 -137t47.5 -265v-198q0 -94 18 -142t54.5 -64.5t107.5 -16.5v-111q-148 -8 -220.5 72.5
t-72.5 261.5v198q0 182 -43 257.5t-149 78.5z" />
    <glyph glyph-name="bar" unicode="|" horiz-adv-x="448" 
d="M207 1397h96v-1868h-96v1868z" />
    <glyph glyph-name="braceright" unicode="}" horiz-adv-x="681" 
d="M602 528v-131q-106 -3 -149 -78.5t-43 -257.5v-198q0 -181 -72.5 -261.5t-220.5 -72.5v111q71 0 107.5 16.5t54.5 64.5t18 142v198q0 167 47.5 265t151.5 137q-104 39 -151.5 136.5t-47.5 264.5v199q0 94 -18 142t-54.5 64.5t-107.5 16.5v111q148 8 220.5 -72.5
t72.5 -261.5v-199q0 -182 43 -257.5t149 -78.5z" />
    <glyph glyph-name="asciitilde" unicode="~" horiz-adv-x="1351" 
d="M164 596v111q165 120 287 120q51 0 125 -25t136 -55.5t131 -55.5t111 -25q57 0 116.5 28.5t168.5 106.5v-111q-90 -65 -155 -93t-126 -28q-54 0 -126.5 25.5t-132.5 55.5t-129.5 55.5t-116.5 25.5q-64 0 -121 -26.5t-168 -108.5z" />
    <glyph glyph-name="uni00A0" unicode="&#xa0;" horiz-adv-x="512" 
 />
    <glyph glyph-name="exclamdown" unicode="&#xa1;" horiz-adv-x="342" 
d="M197 582l-121 -1037h-115l193 1037h43zM289 942l-25 -182h-121l25 182h121z" />
    <glyph glyph-name="cent" unicode="&#xa2;" horiz-adv-x="788" 
d="M795 1303l-127 -369q77 -11 106 -19l-12 -94q-22 5 -44 9t-45.5 6.5t-29.5 3.5l-250 -772q161 -21 322 69l-15 -94q-74 -35 -140.5 -48.5t-192.5 -12.5l-127 -375h-74l129 393q-82 25 -138.5 86t-82 138t-25.5 165q0 98 36 194t102.5 175.5t173.5 128t237 47.5l121 369
h76zM322 92l247 756q-126 -2 -223.5 -70t-146.5 -170t-49 -215q0 -106 45 -185t127 -116z" />
    <glyph glyph-name="sterling" unicode="&#xa3;" horiz-adv-x="960" 
d="M672 719l-13 -86h-256l-192 -533q63 13 137 13q90 0 203 -23q130 -22 149 -22q96 0 189 43l-10 -99q-17 -11 -86 -22q-78 -8 -121 -8t-158 18q-92 18 -180 18q-81 0 -129.5 -7.5t-104.5 -28.5h-34l237 651h-180l12 86h199l69 184q44 117 89 203.5t102.5 159.5t129 111
t155.5 38t149 -33l-14 -96q-69 35 -137 35q-57 0 -108.5 -27t-90.5 -69t-76.5 -107.5t-64.5 -128.5t-56 -145l-45 -125h236z" />
    <glyph glyph-name="currency" unicode="&#xa4;" horiz-adv-x="1130" 
d="M590 1141q148 0 278 -99l129 129l66 -65l-129 -129q98 -124 98 -277q0 -152 -98 -278l129 -129l-66 -66l-129 129q-124 -98 -278 -98q-156 0 -277 98l-129 -129l-65 66l129 129q-98 132 -98 278q0 152 98 277l-129 129l65 65l129 -129q130 99 277 99zM590 1042
q-142 0 -242 -100t-100 -242q0 -143 100 -243.5t242 -100.5t243 101t101 243t-100.5 242t-243.5 100z" />
    <glyph glyph-name="yen" unicode="&#xa5;" horiz-adv-x="1110" 
d="M229 1466h133l259 -706l524 706h151l-575 -739h364l-12 -86h-416l-45 -199h408l-10 -86h-416l-80 -356h-119l78 356h-399l12 86h406l43 199h-404l12 86h375z" />
    <glyph glyph-name="brokenbar" unicode="&#xa6;" horiz-adv-x="448" 
d="M207 1397h96v-684h-96v684zM207 346h96v-817h-96v817z" />
    <glyph glyph-name="section" unicode="&#xa7;" horiz-adv-x="1003" 
d="M942 1126l-86 -39q27 84 5.5 142t-70.5 88.5t-111 30.5q-121 0 -209 -72t-88 -172q0 -29 9 -57t19 -50t35 -50t40 -43.5t51.5 -44.5t51.5 -40t58 -43q49 -36 78.5 -59.5t69.5 -61t62 -69t38 -74t16 -86.5q0 -222 -293 -348q95 -103 95 -221q0 -138 -110 -233t-271 -95
q-144 0 -224.5 77.5t-58.5 200.5l84 29q-26 -102 29.5 -170.5t165.5 -68.5q121 0 210 75t89 178q0 30 -9 59t-20 50.5t-36.5 49t-41 42.5t-53 42t-53 37.5t-58.5 39.5q-51 34 -81 56.5t-70.5 59t-62.5 68.5t-38 75.5t-16 90.5q0 113 76.5 197t236.5 147q-52 45 -80 104.5
t-28 121.5q0 135 111 230t268 95q149 0 224.5 -86.5t45.5 -202.5zM174 530q0 -59 28.5 -106t86.5 -94q38 -31 132 -98t146 -107q258 122 258 287q0 98 -110 200q-39 36 -136.5 110.5t-127.5 98.5q-65 -30 -109 -55.5t-85.5 -61t-62 -79t-20.5 -95.5z" />
    <glyph glyph-name="dieresis" unicode="&#xa8;" horiz-adv-x="681" 
d="M266 1305q37 0 63.5 -27t26.5 -64t-26.5 -63.5t-63.5 -26.5t-63.5 26.5t-26.5 63.5t26.5 64t63.5 27zM590 1305q37 0 63.5 -27t26.5 -64t-26.5 -63.5t-63.5 -26.5t-63.5 26.5t-26.5 63.5t26.5 64t63.5 27z" />
    <glyph glyph-name="copyright" unicode="&#xa9;" horiz-adv-x="1642" 
d="M1151 920l-96 -25q-72 166 -228 166q-122 0 -202 -86t-80 -230q0 -164 74 -264t198 -100q181 0 252 205l90 -33q-30 -114 -120.5 -188t-215.5 -74q-166 0 -274.5 125t-108.5 313q0 175 106 295.5t283 120.5q108 0 186 -54t136 -171zM819 1491q155 0 296.5 -60.5t244 -163
t163 -244t60.5 -296.5t-60.5 -296.5t-163 -244t-244 -163t-296.5 -60.5t-296.5 60.5t-244 163t-163 244t-60.5 296.5t60.5 296.5t163 244t244 163t296.5 60.5zM819 1395q-136 0 -259.5 -53t-213 -142.5t-142 -213t-52.5 -259.5t52.5 -259.5t142 -213t213 -142.5t259.5 -53
q182 0 335.5 89.5t243 243t89.5 335.5t-89.5 335.5t-243 243t-335.5 89.5z" />
    <glyph glyph-name="ordfeminine" unicode="&#xaa;" horiz-adv-x="661" 
d="M684 1397l-90 -547h-74l6 47q-97 -59 -188 -59q-92 0 -155.5 63.5t-63.5 157.5q0 69 29.5 132.5t83.5 113.5t136 80t179 30q71 0 137 -18zM539 981l53 377h-51q-151 0 -241.5 -89.5t-90.5 -215.5q0 -67 37 -111.5t104 -44.5q99 0 189 84z" />
    <glyph glyph-name="guillemotleft" unicode="&#xab;" horiz-adv-x="917" 
d="M946 934l-336 -467l181 -453h-97l-180 457l336 463h96zM485 934l-335 -467l180 -453h-97l-180 457l336 463h96z" />
    <glyph glyph-name="logicalnot" unicode="&#xac;" horiz-adv-x="1351" 
d="M166 989h1073v-581h-90v491h-983v90z" />
    <glyph glyph-name="uni00AD" unicode="&#xad;" horiz-adv-x="638" 
d="M563 510v-96h-485v96h485z" />
    <glyph glyph-name="registered" unicode="&#xae;" horiz-adv-x="1642" 
d="M514 1120h330q127 0 199.5 -56.5t72.5 -156.5q0 -36 -11 -69t-34.5 -65t-68 -55.5t-105.5 -33.5q48 -29 69 -44.5t50.5 -56t56.5 -97.5t74 -169h-121q-38 84 -64 136t-54.5 95t-51 64.5t-55 35.5t-64 18t-80.5 4h-47v-353h-96v803zM610 750h133q140 0 198 33.5t58 115.5
q0 79 -53 110t-188 31h-148v-290zM819 1491q155 0 296.5 -60.5t244 -163t163 -244t60.5 -296.5t-60.5 -296.5t-163 -244t-244 -163t-296.5 -60.5t-296.5 60.5t-244 163t-163 244t-60.5 296.5t60.5 296.5t163 244t244 163t296.5 60.5zM819 1395q-136 0 -259.5 -53
t-213 -142.5t-142 -213t-52.5 -259.5t52.5 -259.5t142 -213t213 -142.5t259.5 -53q182 0 335.5 89.5t243 243t89.5 335.5t-89.5 335.5t-243 243t-335.5 89.5z" />
    <glyph glyph-name="macron" unicode="&#xaf;" horiz-adv-x="681" 
d="M719 1276l-14 -105h-547l14 105h547z" />
    <glyph glyph-name="degree" unicode="&#xb0;" horiz-adv-x="808" 
d="M494 1415q119 0 202.5 -83.5t83.5 -201.5t-84 -202t-202 -84t-201.5 83.5t-83.5 202.5q0 118 83.5 201.5t201.5 83.5zM494 1333q-85 0 -144 -60t-59 -145t59 -143.5t144 -58.5t144.5 58.5t59.5 143.5t-59.5 145t-144.5 60z" />
    <glyph glyph-name="plusminus" unicode="&#xb1;" horiz-adv-x="1351" 
d="M166 90h1073v-90h-1073v90zM166 764h491v491h91v-491h491v-90h-491v-492h-91v492h-491v90z" />
    <glyph glyph-name="two.superior" unicode="&#xb2;" horiz-adv-x="661" 
d="M584 618l-9 -59h-505q231 207 346.5 345.5t115.5 219.5q0 53 -32.5 83t-89.5 30q-37 0 -80 -14t-66 -26t-74 -40l13 76q71 35 117 48t96 13q88 0 142 -46.5t54 -121.5q0 -80 -80 -186t-296 -322h348z" />
    <glyph glyph-name="three.superior" unicode="&#xb3;" horiz-adv-x="661" 
d="M219 1186l8 65q94 43 174 43q103 0 172.5 -54t69.5 -134q0 -58 -42.5 -104.5t-117.5 -71.5q59 -29 84 -65.5t25 -92.5q0 -98 -78.5 -160.5t-200.5 -62.5q-127 0 -219 65l6 60q104 -60 205 -60q99 0 153 43.5t54 118.5q0 137 -186 137l6 48q117 -6 173 37.5t58 107.5
q1 58 -46.5 94.5t-125.5 36.5q-48 0 -80.5 -9t-91.5 -42z" />
    <glyph glyph-name="acute" unicode="&#xb4;" horiz-adv-x="681" 
d="M709 1352l-312 -316h-67l215 316h164z" />
    <glyph glyph-name="mu" unicode="&#xb5;" horiz-adv-x="972" 
d="M160 80l-115 -430h-90l326 1270h90l-156 -609q-26 -105 26.5 -175t161.5 -70q92 0 170 36t135.5 101t98.5 146t67 179l103 392h90l-236 -920h-90l43 166l-4 4q-91 -97 -186.5 -142.5t-210.5 -45.5q-72 0 -121 22t-102 76z" />
    <glyph glyph-name="paragraph" unicode="&#xb6;" horiz-adv-x="1323" 
d="M1313 1466v-139h-197v-1735h-127v1735h-266v-1735h-131v1033q-200 -9 -325.5 111.5t-125.5 310.5q0 192 130.5 305.5t349.5 113.5h692z" />
    <glyph glyph-name="periodcentered" unicode="&#xb7;" horiz-adv-x="575" 
d="M319 819q46 0 78.5 -32t32.5 -78t-32.5 -78.5t-78.5 -32.5t-78 32.5t-32 78.5t32 78t78 32z" />
    <glyph glyph-name="cedilla" unicode="&#xb8;" horiz-adv-x="681" 
d="M350 14l-35 -84q34 -10 54 -39.5t20 -66.5q0 -100 -79 -145.5t-206 -26.5l21 65q95 -10 142.5 20.5t47.5 86.5t-84 59l56 131h63z" />
    <glyph glyph-name="one.superior" unicode="&#xb9;" horiz-adv-x="661" 
d="M489 1286l-127 -727h-79l129 727h77z" />
    <glyph glyph-name="ordmasculine" unicode="&#xba;" horiz-adv-x="618" 
d="M643 1182q0 -146 -84 -245t-209 -99q-98 0 -156.5 64t-58.5 171q0 151 81 246.5t208 95.5q101 0 160 -63t59 -170zM557 1180q0 79 -37 123.5t-100 44.5q-87 0 -143 -76.5t-56 -196.5q0 -79 34 -124.5t93 -45.5q88 0 148.5 79t60.5 196z" />
    <glyph glyph-name="guillemotright" unicode="&#xbb;" horiz-adv-x="917" 
d="M408 14l335 467l-180 453h96l181 -457l-336 -463h-96zM-51 14l336 467l-181 453h97l180 -457l-336 -463h-96z" />
    <glyph glyph-name="onequarter" unicode="&#xbc;" horiz-adv-x="1665" 
d="M1405 291l-6 -47h-144l-34 -244h-78l35 244h-328v26l455 467h38l-81 -446h143zM1233 586l-281 -295h232l53 291zM1333 1415l-1100 -1470h-79l1099 1470h80zM510 1407l-127 -727h-80l129 727h78z" />
    <glyph glyph-name="onehalf" unicode="&#xbd;" horiz-adv-x="1662" 
d="M510 1407l-127 -727h-80l129 727h78zM1333 1415l-1100 -1470h-79l1099 1470h80zM1434 59l-9 -59h-505q231 207 346.5 345.5t115.5 219.5q0 53 -32.5 83t-89.5 30q-37 0 -80 -14t-66 -26t-74 -40l13 76q71 35 117 48t96 13q88 0 142 -46.5t54 -121.5q0 -80 -80.5 -186
t-296.5 -322h349z" />
    <glyph glyph-name="threequarters" unicode="&#xbe;" horiz-adv-x="1662" 
d="M250 1307l8 65q94 43 174 43q103 0 172.5 -54t69.5 -134q0 -58 -42.5 -104.5t-117.5 -71.5q59 -29 84 -65.5t25 -92.5q0 -98 -78.5 -160.5t-200.5 -62.5q-127 0 -219 65l6 60q104 -60 205 -60q99 0 153 43.5t54 118.5q0 137 -187 137l6 47q61 -3 107.5 8.5t72.5 33.5
t39 48.5t13 55.5q0 60 -47 95.5t-125 35.5q-48 0 -80.5 -9t-91.5 -42zM1458 1415l-1100 -1470h-79l1099 1470h80zM1530 291l-6 -47h-144l-34 -244h-78l35 244h-328v26l455 467h38l-82 -446h144zM1358 586l-281 -295h232l53 291z" />
    <glyph glyph-name="questiondown" unicode="&#xbf;" horiz-adv-x="598" 
d="M426 -270l-14 -103q-57 -46 -126.5 -72t-133.5 -26q-123 0 -209 84t-86 203q0 63 23 119t61.5 101t85.5 88.5t96.5 90.5t93.5 98t79 120.5t50 148.5h51q-6 -78 -34.5 -150t-69 -126.5t-88 -105t-93.5 -96.5t-84 -90.5t-61.5 -95.5t-23.5 -104q0 -94 60.5 -155.5
t152.5 -61.5q72 0 134.5 30.5t135.5 102.5zM481 944l-24 -182h-121l24 182h121z" />
    <glyph glyph-name="Agrave" unicode="&#xc0;" horiz-adv-x="1079" 
d="M696 1415l322 -1415h-98l-115 504h-518l-238 -504h-98l659 1415h86zM631 1243l-299 -645h452l-149 645h-4zM350 1751h258l250 -260h-94z" />
    <glyph glyph-name="Aacute" unicode="&#xc1;" horiz-adv-x="1079" 
d="M696 1415l322 -1415h-98l-115 504h-518l-238 -504h-98l659 1415h86zM631 1243l-299 -645h452l-149 645h-4zM1024 1751l-414 -260h-94l250 260h258z" />
    <glyph glyph-name="Acircumflex" unicode="&#xc2;" horiz-adv-x="1079" 
d="M696 1415l322 -1415h-98l-115 504h-518l-238 -504h-98l659 1415h86zM631 1243l-299 -645h452l-149 645h-4zM809 1761l184 -270h-106l-156 178l-307 -178h-105l326 270h164z" />
    <glyph glyph-name="Atilde" unicode="&#xc3;" horiz-adv-x="1079" 
d="M696 1415l322 -1415h-98l-115 504h-518l-238 -504h-98l659 1415h86zM631 1243l-299 -645h452l-149 645h-4zM406 1491h-84q5 68 8.5 91t15.5 50q25 43 65.5 74t96.5 31q34 0 65.5 -10t53 -21.5t73.5 -42.5q105 -55 140 -55q22 0 37.5 10t24 31.5t12.5 39t8 46.5h77
q4 -123 -51 -185.5t-133 -62.5q-38 0 -76 14.5t-102 48.5q-89 48 -110.5 58t-39.5 10q-23 0 -40 -13.5t-25 -36t-11.5 -40.5t-4.5 -37z" />
    <glyph glyph-name="Adieresis" unicode="&#xc4;" horiz-adv-x="1079" 
d="M696 1415l322 -1415h-98l-115 504h-518l-238 -504h-98l659 1415h86zM631 1243l-299 -645h452l-149 645h-4zM1010 1579q0 -34 -26 -63t-66 -29q-37 0 -64 26.5t-27 63.5t25.5 63.5t62.5 26.5q41 0 68 -26t27 -62zM506 1579q0 -37 -25 -63.5t-65 -26.5q-37 0 -62.5 26
t-25.5 64t25 64t61 26q40 0 66 -27t26 -63z" />
    <glyph glyph-name="Aring" unicode="&#xc5;" horiz-adv-x="1079" 
d="M696 1415l322 -1415h-98l-115 504h-518l-238 -504h-98l659 1415h86zM631 1243l-299 -645h452l-149 645h-4zM700 1917q88 0 150.5 -62t62.5 -151q0 -88 -62.5 -150.5t-150.5 -62.5q-89 0 -151 62.5t-62 150.5q0 89 62.5 151t150.5 62zM698 1851q-61 0 -104 -42.5
t-43 -104.5q0 -60 43 -104t104 -44t105.5 44t44.5 104q0 62 -44 104.5t-106 42.5z" />
    <glyph glyph-name="AE" unicode="&#xc6;" horiz-adv-x="1638" 
d="M1561 1397l-13 -94h-598l-78 -547h558l-13 -94h-557l-82 -568h809l-12 -94h-905l94 662h-354l-418 -662h-109l881 1397h797zM854 1303h-39l-346 -547h307z" />
    <glyph glyph-name="Ccedilla" unicode="&#xc7;" horiz-adv-x="1130" 
d="M1067 225l-16 -114q-217 -129 -445 -129l-22 -52q33 -10 53 -39.5t20 -66.5q0 -100 -78.5 -145.5t-205.5 -26.5l20 65q95 -10 143 20.5t48 86.5t-84 59l45 107q-90 14 -172.5 58.5t-150 114.5t-108 174t-40.5 226q0 127 41.5 251.5t122 232t188.5 190.5t250.5 130.5
t298.5 47.5q98 0 176 -18l-12 -90q-98 14 -166 14q-170 0 -320.5 -65.5t-252.5 -171.5t-161 -241.5t-59 -275.5q0 -209 128 -350t317 -141q101 0 217 39t225 110z" />
    <glyph glyph-name="Egrave" unicode="&#xc8;" 
d="M991 1397l-12 -94h-617l-77 -541h583l-14 -94h-582l-82 -574h826l-12 -94h-922l197 1397h712zM350 1751h258l250 -260h-94z" />
    <glyph glyph-name="Eacute" unicode="&#xc9;" 
d="M991 1397l-12 -94h-617l-77 -541h583l-14 -94h-582l-82 -574h826l-12 -94h-922l197 1397h712zM1085 1751l-413 -260h-94l249 260h258z" />
    <glyph glyph-name="Ecircumflex" unicode="&#xca;" 
d="M991 1397l-12 -94h-617l-77 -541h583l-14 -94h-582l-82 -574h826l-12 -94h-922l197 1397h712zM860 1761l184 -270h-106l-156 178l-307 -178h-104l325 270h164z" />
    <glyph glyph-name="Edieresis" unicode="&#xcb;" 
d="M991 1397l-12 -94h-617l-77 -541h583l-14 -94h-582l-82 -574h826l-12 -94h-922l197 1397h712zM1061 1579q0 -34 -26 -63t-66 -29q-37 0 -63.5 26.5t-26.5 63.5t25.5 63.5t62.5 26.5q40 0 67 -26t27 -62zM557 1579q0 -37 -25 -63.5t-65 -26.5q-37 0 -62.5 26t-25.5 64
t25 64t61 26q40 0 66 -27t26 -63z" />
    <glyph glyph-name="Igrave" unicode="&#xcc;" horiz-adv-x="405" 
d="M375 1397l-197 -1397h-96l197 1397h96zM10 1751h258l250 -260h-94z" />
    <glyph glyph-name="Iacute" unicode="&#xcd;" horiz-adv-x="405" 
d="M375 1397l-197 -1397h-96l197 1397h96zM705 1751l-414 -260h-94l249 260h259z" />
    <glyph glyph-name="Icircumflex" unicode="&#xce;" horiz-adv-x="405" 
d="M375 1397l-197 -1397h-96l197 1397h96zM510 1761l184 -270h-106l-156 178l-307 -178h-105l326 270h164z" />
    <glyph glyph-name="Idieresis" unicode="&#xcf;" horiz-adv-x="405" 
d="M375 1397l-197 -1397h-96l197 1397h96zM711 1579q0 -34 -26.5 -63t-66.5 -29q-37 0 -63.5 26.5t-26.5 63.5t25.5 63.5t62.5 26.5q41 0 68 -26t27 -62zM207 1579q0 -37 -25 -63.5t-65 -26.5q-37 0 -62.5 26t-25.5 64t25 64t61 26q40 0 66 -27t26 -63z" />
    <glyph glyph-name="Eth" unicode="&#xd0;" horiz-adv-x="1312" 
d="M176 655h-166l13 90h167l91 652h256q87 0 186 -25.5t174 -66.5q166 -89 260 -254t94 -365q0 -228 -114.5 -395.5t-319.5 -239.5q-77 -29 -153 -40t-193 -11h-385zM272 655l-77 -565h223q166 0 267 20.5t189 71.5q129 76 201 208t72 292q0 281 -183.5 453t-482.5 172h-116
l-78 -562h372l-14 -90h-373z" />
    <glyph glyph-name="Ntilde" unicode="&#xd1;" horiz-adv-x="1384" 
d="M1354 1397l-199 -1409h-43l-766 1204l-168 -1192h-96l197 1397h55l756 -1196l167 1196h97zM606 1491h-84q4 66 8.5 89.5t16.5 51.5q25 43 65.5 74t96.5 31q34 0 65.5 -10t53 -21.5t73.5 -42.5q2 -1 15 -8t22 -12t24.5 -12t27.5 -11.5t26 -8t24 -3.5q22 0 37.5 10t24 31.5
t12.5 39t8 46.5h78q4 -123 -51 -185.5t-133 -62.5q-38 0 -76 14.5t-102 48.5q-89 48 -110.5 58t-39.5 10q-23 0 -40 -13.5t-25.5 -35.5t-12 -41t-4.5 -37z" />
    <glyph glyph-name="Ograve" unicode="&#xd2;" horiz-adv-x="1286" 
d="M1245 850q0 -139 -30.5 -269.5t-89 -238.5t-138 -189t-183 -126t-218.5 -45q-237 0 -365.5 152.5t-128.5 426.5q0 74 11 152.5t36.5 162.5t62 161.5t91 146.5t121 120t155 81t189.5 30q226 0 356.5 -151.5t130.5 -413.5zM1139 872q0 207 -103 328t-278 121
q-89 0 -166.5 -29.5t-133.5 -78.5t-101 -115.5t-74 -138.5t-48.5 -150t-27.5 -147t-8 -132q0 -218 102 -336t287 -118q128 0 234 65t174.5 175t105.5 253.5t37 302.5zM496 1751h258l250 -260h-95z" />
    <glyph glyph-name="Oacute" unicode="&#xd3;" horiz-adv-x="1286" 
d="M1245 850q0 -139 -30.5 -269.5t-89 -238.5t-138 -189t-183 -126t-218.5 -45q-237 0 -365.5 152.5t-128.5 426.5q0 74 11 152.5t36.5 162.5t62 161.5t91 146.5t121 120t155 81t189.5 30q226 0 356.5 -151.5t130.5 -413.5zM1139 872q0 207 -103 328t-278 121
q-89 0 -166.5 -29.5t-133.5 -78.5t-101 -115.5t-74 -138.5t-48.5 -150t-27.5 -147t-8 -132q0 -218 102 -336t287 -118q128 0 234 65t174.5 175t105.5 253.5t37 302.5zM1149 1751l-414 -260h-94l250 260h258z" />
    <glyph glyph-name="Ocircumflex" unicode="&#xd4;" horiz-adv-x="1286" 
d="M1245 850q0 -139 -30.5 -269.5t-89 -238.5t-138 -189t-183 -126t-218.5 -45q-237 0 -365.5 152.5t-128.5 426.5q0 74 11 152.5t36.5 162.5t62 161.5t91 146.5t121 120t155 81t189.5 30q226 0 356.5 -151.5t130.5 -413.5zM1139 872q0 207 -103 328t-278 121
q-89 0 -166.5 -29.5t-133.5 -78.5t-101 -115.5t-74 -138.5t-48.5 -150t-27.5 -147t-8 -132q0 -218 102 -336t287 -118q128 0 234 65t174.5 175t105.5 253.5t37 302.5zM954 1761l185 -270h-107l-155 178l-308 -178h-104l326 270h163z" />
    <glyph glyph-name="Otilde" unicode="&#xd5;" horiz-adv-x="1286" 
d="M1245 850q0 -139 -30.5 -269.5t-89 -238.5t-138 -189t-183 -126t-218.5 -45q-237 0 -365.5 152.5t-128.5 426.5q0 74 11 152.5t36.5 162.5t62 161.5t91 146.5t121 120t155 81t189.5 30q226 0 356.5 -151.5t130.5 -413.5zM1139 872q0 207 -103 328t-278 121
q-89 0 -166.5 -29.5t-133.5 -78.5t-101 -115.5t-74 -138.5t-48.5 -150t-27.5 -147t-8 -132q0 -218 102 -336t287 -118q128 0 234 65t174.5 175t105.5 253.5t37 302.5zM561 1491h-84q4 66 8.5 89.5t16.5 51.5q25 43 65.5 74t96.5 31q34 0 65.5 -10t53 -21.5t73.5 -42.5
q2 -1 15 -8t22 -12t24.5 -12t27.5 -11.5t26 -8t24 -3.5q22 0 37.5 10t24 31.5t12.5 39t8 46.5h78q4 -123 -51 -185.5t-133 -62.5q-38 0 -76 14.5t-102 48.5q-89 48 -110.5 58t-39.5 10q-23 0 -40 -13.5t-25.5 -35.5t-12 -41t-4.5 -37z" />
    <glyph glyph-name="Odieresis" unicode="&#xd6;" horiz-adv-x="1286" 
d="M1245 850q0 -139 -30.5 -269.5t-89 -238.5t-138 -189t-183 -126t-218.5 -45q-237 0 -365.5 152.5t-128.5 426.5q0 74 11 152.5t36.5 162.5t62 161.5t91 146.5t121 120t155 81t189.5 30q226 0 356.5 -151.5t130.5 -413.5zM1139 872q0 207 -103 328t-278 121
q-89 0 -166.5 -29.5t-133.5 -78.5t-101 -115.5t-74 -138.5t-48.5 -150t-27.5 -147t-8 -132q0 -218 102 -336t287 -118q128 0 234 65t174.5 175t105.5 253.5t37 302.5zM1155 1579q0 -34 -26 -63t-66 -29q-37 0 -63.5 26.5t-26.5 63.5t25.5 63.5t62.5 26.5q40 0 67 -26t27 -62
zM651 1579q0 -37 -25 -63.5t-65 -26.5q-37 0 -62.5 26t-25.5 64t25 64t61 26q40 0 66 -27t26 -63z" />
    <glyph glyph-name="multiply" unicode="&#xd7;" horiz-adv-x="1351" 
d="M291 1067l65 66l346 -347l347 347l65 -66l-346 -346l346 -346l-65 -66l-347 346l-346 -346l-65 66l346 346z" />
    <glyph glyph-name="Oslash" unicode="&#xd8;" horiz-adv-x="1286" 
d="M305 190l684 1055q-95 76 -231 76q-89 0 -166.5 -29.5t-133.5 -78.5t-101 -115.5t-74 -138.5t-48.5 -150t-27.5 -147t-8 -132q0 -215 106 -340zM303 57l-82 -127l-59 37l88 135q-67 59 -112.5 176.5t-45.5 282.5q0 74 11 152.5t36.5 162.5t62 161.5t91 146.5t121 120
t155 81t189.5 30q88 0 167.5 -26t116.5 -62l68 105l53 -35l-69 -109q73 -76 112 -190.5t39 -247.5q0 -139 -30.5 -269.5t-89 -238.5t-138 -189t-183 -126t-218.5 -45q-89 0 -153.5 19t-129.5 56zM1036 1198l-676 -1053q85 -69 228 -69q128 0 234 65t174.5 175t105.5 253.5
t37 302.5q0 208 -103 326z" />
    <glyph glyph-name="Ugrave" unicode="&#xd9;" horiz-adv-x="1300" 
d="M1284 1397l-129 -903q-15 -107 -56 -194.5t-97 -145.5t-126 -97.5t-143 -57t-149 -17.5q-100 0 -189 37.5t-153 103t-94.5 165t-14.5 214.5l127 895h96l-125 -881q-16 -111 9 -198t80 -138.5t126 -77.5t154 -26q85 0 157 25t123 66.5t89 97.5t59.5 115t30.5 122l129 895
h96zM457 1751h258l250 -260h-95z" />
    <glyph glyph-name="Uacute" unicode="&#xda;" horiz-adv-x="1300" 
d="M1284 1397l-129 -903q-15 -107 -56 -194.5t-97 -145.5t-126 -97.5t-143 -57t-149 -17.5q-100 0 -189 37.5t-153 103t-94.5 165t-14.5 214.5l127 895h96l-125 -881q-16 -111 9 -198t80 -138.5t126 -77.5t154 -26q85 0 157 25t123 66.5t89 97.5t59.5 115t30.5 122l129 895
h96zM1151 1751l-414 -260h-94l250 260h258z" />
    <glyph glyph-name="Ucircumflex" unicode="&#xdb;" horiz-adv-x="1300" 
d="M1284 1397l-129 -903q-15 -107 -56 -194.5t-97 -145.5t-126 -97.5t-143 -57t-149 -17.5q-100 0 -189 37.5t-153 103t-94.5 165t-14.5 214.5l127 895h96l-125 -881q-16 -111 9 -198t80 -138.5t126 -77.5t154 -26q85 0 157 25t123 66.5t89 97.5t59.5 115t30.5 122l129 895
h96zM936 1761l184 -270h-106l-156 178l-307 -178h-105l326 270h164z" />
    <glyph glyph-name="Udieresis" unicode="&#xdc;" horiz-adv-x="1300" 
d="M1284 1397l-129 -903q-15 -107 -56 -194.5t-97 -145.5t-126 -97.5t-143 -57t-149 -17.5q-100 0 -189 37.5t-153 103t-94.5 165t-14.5 214.5l127 895h96l-125 -881q-16 -111 9 -198t80 -138.5t126 -77.5t154 -26q85 0 157 25t123 66.5t89 97.5t59.5 115t30.5 122l129 895
h96zM1137 1579q0 -34 -26.5 -63t-66.5 -29q-37 0 -63.5 26.5t-26.5 63.5t25.5 63.5t62.5 26.5q41 0 68 -26t27 -62zM633 1579q0 -37 -25 -63.5t-65 -26.5q-37 0 -62.5 26t-25.5 64t25 64t61 26q40 0 66 -27t26 -63z" />
    <glyph glyph-name="Yacute" unicode="&#xdd;" horiz-adv-x="944" 
d="M1083 1397l-522 -674l-100 -723h-96l100 723l-350 674h104l305 -578l443 578h116zM1016 1751l-414 -260h-94l250 260h258z" />
    <glyph glyph-name="Thorn" unicode="&#xde;" horiz-adv-x="968" 
d="M279 1397h106l-43 -314h129q94 0 148 -10t104 -37q85 -44 133.5 -130.5t48.5 -192.5q0 -127 -63 -222.5t-174 -138.5q-58 -22 -114.5 -30.5t-150.5 -8.5h-170l-45 -313h-106zM328 993l-82 -590h155q156 0 238 39q75 35 117.5 105.5t42.5 159.5q0 94 -45 165.5t-123 100.5
q-59 20 -174 20h-129z" />
    <glyph glyph-name="germandbls" unicode="&#xdf;" horiz-adv-x="960" 
d="M53 0l150 1057q10 70 38 132.5t73.5 113.5t114 81.5t151.5 30.5q70 0 128 -22.5t94 -56.5t60.5 -77.5t34.5 -84t10 -76.5q0 -110 -67.5 -194.5t-177.5 -112.5v-5q98 -40 151 -124t53 -201q0 -205 -117 -342t-292 -137q-58 0 -113 18l10 82q33 -16 95 -16q139 0 230 108
t91 275q0 126 -75 212t-212 95l11 80q141 -10 229 71t88 193q0 96 -70.5 163.5t-169.5 67.5q-111 0 -187.5 -82.5t-96.5 -226.5l-144 -1022h-90z" />
    <glyph glyph-name="agrave" unicode="&#xe0;" horiz-adv-x="948" 
d="M874 920l-129 -920h-90l15 109q-62 -56 -147.5 -91.5t-168.5 -35.5q-139 0 -230 104t-91 264q0 87 26.5 171.5t81 159.5t130.5 132.5t183.5 91t231.5 33.5q111 0 188 -18zM684 213l92 645q-50 12 -112 12q-141 0 -262.5 -65.5t-197 -188.5t-75.5 -278q0 -127 65.5 -204
t174.5 -77q153 0 315 156zM322 1352h163l215 -316h-67z" />
    <glyph glyph-name="aacute" unicode="&#xe1;" horiz-adv-x="948" 
d="M874 920l-129 -920h-90l15 109q-62 -56 -147.5 -91.5t-168.5 -35.5q-139 0 -230 104t-91 264q0 87 26.5 171.5t81 159.5t130.5 132.5t183.5 91t231.5 33.5q111 0 188 -18zM684 213l92 645q-50 12 -112 12q-141 0 -262.5 -65.5t-197 -188.5t-75.5 -278q0 -127 65.5 -204
t174.5 -77q153 0 315 156zM862 1352l-311 -316h-68l215 316h164z" />
    <glyph glyph-name="acircumflex" unicode="&#xe2;" horiz-adv-x="948" 
d="M874 920l-129 -920h-90l15 109q-62 -56 -147.5 -91.5t-168.5 -35.5q-139 0 -230 104t-91 264q0 87 26.5 171.5t81 159.5t130.5 132.5t183.5 91t231.5 33.5q111 0 188 -18zM684 213l92 645q-50 12 -112 12q-141 0 -262.5 -65.5t-197 -188.5t-75.5 -278q0 -127 65.5 -204
t174.5 -77q153 0 315 156zM784 1440l19 -404h-74l-43 277l-305 -277h-80l369 404h114z" />
    <glyph glyph-name="atilde" unicode="&#xe3;" horiz-adv-x="948" 
d="M874 920l-129 -920h-90l15 109q-62 -56 -147.5 -91.5t-168.5 -35.5q-139 0 -230 104t-91 264q0 87 26.5 171.5t81 159.5t130.5 132.5t183.5 91t231.5 33.5q111 0 188 -18zM684 213l92 645q-50 12 -112 12q-141 0 -262.5 -65.5t-197 -188.5t-75.5 -278q0 -127 65.5 -204
t174.5 -77q153 0 315 156zM848 1329h63q-18 -194 -163 -194q-62 0 -187 51q-120 49 -174 49q-39 0 -59 -19.5t-23 -78.5h-63q-11 91 41.5 145.5t128.5 54.5q56 0 176 -49q115 -45 157 -50q9 -1 17 -1q42 0 61 20t25 72z" />
    <glyph glyph-name="adieresis" unicode="&#xe4;" horiz-adv-x="948" 
d="M874 920l-129 -920h-90l15 109q-62 -56 -147.5 -91.5t-168.5 -35.5q-139 0 -230 104t-91 264q0 87 26.5 171.5t81 159.5t130.5 132.5t183.5 91t231.5 33.5q111 0 188 -18zM684 213l92 645q-50 12 -112 12q-141 0 -262.5 -65.5t-197 -188.5t-75.5 -278q0 -127 65.5 -204
t174.5 -77q153 0 315 156zM428 1305q37 0 63.5 -27t26.5 -64t-26.5 -63.5t-63.5 -26.5t-63.5 26.5t-26.5 63.5t26.5 64t63.5 27zM752 1305q37 0 63.5 -27t26.5 -64t-26.5 -63.5t-63.5 -26.5t-63.5 26.5t-26.5 63.5t26.5 64t63.5 27z" />
    <glyph glyph-name="aring" unicode="&#xe5;" horiz-adv-x="948" 
d="M874 920l-129 -920h-90l15 109q-62 -56 -147.5 -91.5t-168.5 -35.5q-139 0 -230 104t-91 264q0 87 26.5 171.5t81 159.5t130.5 132.5t183.5 91t231.5 33.5q111 0 188 -18zM684 213l92 645q-50 12 -112 12q-141 0 -262.5 -65.5t-197 -188.5t-75.5 -278q0 -127 65.5 -204
t174.5 -77q153 0 315 156zM522 1212q0 -49 34.5 -83.5t84.5 -34.5t84.5 34.5t34.5 83.5q0 50 -35 84.5t-84 34.5t-84 -34.5t-35 -84.5zM465 1212q0 72 52 124.5t124 52.5t124 -52.5t52 -124.5t-52 -124t-124 -52t-124 52t-52 124z" />
    <glyph glyph-name="ae" unicode="&#xe6;" horiz-adv-x="1347" 
d="M1210 193l-14 -105q-59 -43 -151 -74.5t-162 -31.5q-95 0 -179 50t-112 124q-74 -76 -174 -125t-182 -49q-89 0 -147 53.5t-58 136.5q0 139 158 238t409 116l14 125q10 88 -32 145.5t-136 57.5q-155 0 -323 -160l-19 86q175 158 355 158q149 0 223 -145
q61 76 125.5 110.5t144.5 34.5q110 0 188.5 -62t110.5 -166t15 -229h-588q-29 -174 -29 -219q0 -87 63.5 -141.5t163.5 -54.5q164 0 336 127zM684 561h498q14 125 -50 209t-176 84q-105 0 -177 -74t-95 -219zM553 215l33 238q-127 -13 -230.5 -47t-171 -94.5t-67.5 -137.5
q0 -45 37 -76.5t90 -31.5q60 0 142.5 39.5t166.5 109.5z" />
    <glyph glyph-name="ccedilla" unicode="&#xe7;" horiz-adv-x="788" 
d="M721 141l-14 -96q-129 -63 -277 -63l-22 -52q33 -10 53 -39.5t20 -66.5q0 -100 -78.5 -145.5t-205.5 -26.5l20 65q95 -10 143 20.5t48 86.5t-84 59l45 105q-143 22 -229.5 131t-86.5 272q0 76 20.5 152t64.5 147.5t106.5 126.5t154 88t199.5 33q88 0 180 -18l-14 -99
q-105 27 -174 27q-87 0 -161 -27.5t-124.5 -73.5t-86 -107t-52 -126.5t-16.5 -132.5q0 -142 84.5 -228.5t224.5 -86.5q61 0 115.5 17t146.5 58z" />
    <glyph glyph-name="egrave" unicode="&#xe8;" horiz-adv-x="892" 
d="M758 180v-96q-134 -102 -289 -102q-184 0 -296 121t-112 321q0 142 56 260t154 186t216 68q149 0 238.5 -104t89.5 -285q0 -30 -4 -70h-649q-4 -36 -4 -59q0 -64 19.5 -125t56.5 -113t98.5 -84t138.5 -32q148 0 287 114zM176 559h549q6 139 -61 217t-179 78
q-108 0 -199 -87t-110 -208zM262 1352h164l215 -316h-68z" />
    <glyph glyph-name="eacute" unicode="&#xe9;" horiz-adv-x="892" 
d="M758 180v-96q-134 -102 -289 -102q-184 0 -296 121t-112 321q0 142 56 260t154 186t216 68q149 0 238.5 -104t89.5 -285q0 -30 -4 -70h-649q-4 -36 -4 -59q0 -64 19.5 -125t56.5 -113t98.5 -84t138.5 -32q148 0 287 114zM176 559h549q6 139 -61 217t-179 78
q-108 0 -199 -87t-110 -208zM780 1352l-311 -316h-68l215 316h164z" />
    <glyph glyph-name="ecircumflex" unicode="&#xea;" horiz-adv-x="892" 
d="M758 180v-96q-134 -102 -289 -102q-184 0 -296 121t-112 321q0 142 56 260t154 186t216 68q149 0 238.5 -104t89.5 -285q0 -30 -4 -70h-649q-4 -36 -4 -59q0 -64 19.5 -125t56.5 -113t98.5 -84t138.5 -32q148 0 287 114zM176 559h549q6 139 -61 217t-179 78
q-108 0 -199 -87t-110 -208zM729 1440l19 -404h-74l-43 277l-305 -277h-80l368 404h115z" />
    <glyph glyph-name="edieresis" unicode="&#xeb;" horiz-adv-x="892" 
d="M758 180v-96q-134 -102 -289 -102q-184 0 -296 121t-112 321q0 142 56 260t154 186t216 68q149 0 238.5 -104t89.5 -285q0 -30 -4 -70h-649q-4 -36 -4 -59q0 -64 19.5 -125t56.5 -113t98.5 -84t138.5 -32q148 0 287 114zM176 559h549q6 139 -61 217t-179 78
q-108 0 -199 -87t-110 -208zM379 1305q37 0 63.5 -27t26.5 -64t-26.5 -63.5t-63.5 -26.5t-63.5 26.5t-26.5 63.5t26.5 64t63.5 27zM702 1305q37 0 64 -27t27 -64t-27 -63.5t-64 -26.5t-63.5 26.5t-26.5 63.5t26.5 64t63.5 27z" />
    <glyph glyph-name="igrave" unicode="&#xec;" horiz-adv-x="362" 
d="M283 920l-129 -920h-91l130 920h90zM0 1352h164l215 -316h-68z" />
    <glyph glyph-name="iacute" unicode="&#xed;" horiz-adv-x="362" 
d="M283 920l-129 -920h-91l130 920h90zM549 1352l-311 -316h-68l215 316h164z" />
    <glyph glyph-name="icircumflex" unicode="&#xee;" horiz-adv-x="362" 
d="M283 920l-129 -920h-91l130 920h90zM477 1440l19 -404h-74l-43 277l-305 -277h-80l368 404h115z" />
    <glyph glyph-name="idieresis" unicode="&#xef;" horiz-adv-x="362" 
d="M283 920l-129 -920h-91l130 920h90zM106 1305q37 0 64 -27t27 -64t-27 -63.5t-64 -26.5t-63.5 26.5t-26.5 63.5t26.5 64t63.5 27zM430 1305q37 0 63.5 -27t26.5 -64t-26.5 -63.5t-63.5 -26.5t-63.5 26.5t-26.5 63.5t26.5 64t63.5 27z" />
    <glyph glyph-name="eth" unicode="&#xf0;" horiz-adv-x="878" 
d="M137 367q0 -139 58.5 -220t158.5 -81q138 0 242 137.5t104 349.5q0 135 -61.5 218t-169.5 83q-80 0 -144.5 -41.5t-104.5 -111t-61.5 -155.5t-21.5 -179zM864 1327l-186 -96q45 -64 75.5 -135t44 -144t18.5 -132t5 -130q0 -200 -53 -358.5t-159.5 -254t-250.5 -95.5
q-134 0 -225.5 100.5t-91.5 286.5q0 251 121 410t311 159q169 0 256 -158l4 4q-18 249 -135 406l-211 -109l-39 70l197 102q-42 45 -90 82l59 62q70 -54 111 -103l200 103z" />
    <glyph glyph-name="ntilde" unicode="&#xf1;" horiz-adv-x="935" 
d="M276 920l-20 -152l4 -4q174 174 350 174q114 0 179.5 -90.5t48.5 -216.5l-88 -631h-91l86 618q16 116 -29.5 176t-129.5 60q-82 0 -164 -49t-182 -152l-93 -653h-90l129 920h90zM831 1329h64q-18 -194 -164 -194q-61 0 -186 51q-120 49 -174 49q-39 0 -59 -19.5
t-23 -78.5h-64q-11 91 41.5 145.5t128.5 54.5q56 0 176 -49q115 -45 157 -50q9 -1 17 -1q42 0 61 20t25 72z" />
    <glyph glyph-name="ograve" unicode="&#xf2;" horiz-adv-x="862" 
d="M793 553q0 -134 -38 -245t-101 -180.5t-140.5 -107.5t-159.5 -38q-134 0 -225.5 100.5t-91.5 286.5q0 251 121 410t311 159q149 0 236.5 -104t87.5 -281zM696 553q0 138 -62.5 219.5t-168.5 81.5q-80 0 -144.5 -41.5t-104.5 -111t-61.5 -155.5t-21.5 -179
q0 -139 58.5 -220t158.5 -81q95 0 174.5 65t125.5 177t46 245zM262 1352h164l215 -316h-68z" />
    <glyph glyph-name="oacute" unicode="&#xf3;" horiz-adv-x="862" 
d="M793 553q0 -134 -38 -245t-101 -180.5t-140.5 -107.5t-159.5 -38q-134 0 -225.5 100.5t-91.5 286.5q0 251 121 410t311 159q149 0 236.5 -104t87.5 -281zM696 553q0 138 -62.5 219.5t-168.5 81.5q-80 0 -144.5 -41.5t-104.5 -111t-61.5 -155.5t-21.5 -179
q0 -139 58.5 -220t158.5 -81q95 0 174.5 65t125.5 177t46 245zM770 1352l-311 -316h-68l215 316h164z" />
    <glyph glyph-name="ocircumflex" unicode="&#xf4;" horiz-adv-x="862" 
d="M793 553q0 -134 -38 -245t-101 -180.5t-140.5 -107.5t-159.5 -38q-134 0 -225.5 100.5t-91.5 286.5q0 251 121 410t311 159q149 0 236.5 -104t87.5 -281zM696 553q0 138 -62.5 219.5t-168.5 81.5q-80 0 -144.5 -41.5t-104.5 -111t-61.5 -155.5t-21.5 -179
q0 -139 58.5 -220t158.5 -81q95 0 174.5 65t125.5 177t46 245zM739 1440l19 -404h-74l-43 277l-305 -277h-80l369 404h114z" />
    <glyph glyph-name="otilde" unicode="&#xf5;" horiz-adv-x="862" 
d="M793 553q0 -134 -38 -245t-101 -180.5t-140.5 -107.5t-159.5 -38q-134 0 -225.5 100.5t-91.5 286.5q0 251 121 410t311 159q149 0 236.5 -104t87.5 -281zM696 553q0 138 -62.5 219.5t-168.5 81.5q-80 0 -144.5 -41.5t-104.5 -111t-61.5 -155.5t-21.5 -179
q0 -139 58.5 -220t158.5 -81q95 0 174.5 65t125.5 177t46 245zM803 1329h63q-18 -194 -164 -194q-61 0 -186 51q-120 49 -174 49q-39 0 -59 -19.5t-23 -78.5h-63q-11 91 41.5 145.5t128.5 54.5q56 0 176 -49q115 -45 157 -50q9 -1 17 -1q42 0 61 20t25 72z" />
    <glyph glyph-name="odieresis" unicode="&#xf6;" horiz-adv-x="862" 
d="M793 553q0 -134 -38 -245t-101 -180.5t-140.5 -107.5t-159.5 -38q-134 0 -225.5 100.5t-91.5 286.5q0 251 121 410t311 159q149 0 236.5 -104t87.5 -281zM696 553q0 138 -62.5 219.5t-168.5 81.5q-80 0 -144.5 -41.5t-104.5 -111t-61.5 -155.5t-21.5 -179
q0 -139 58.5 -220t158.5 -81q95 0 174.5 65t125.5 177t46 245zM369 1305q37 0 63.5 -27t26.5 -64t-26.5 -63.5t-63.5 -26.5t-63.5 26.5t-26.5 63.5t26.5 64t63.5 27zM692 1305q37 0 63.5 -27t26.5 -64t-26.5 -63.5t-63.5 -26.5t-63.5 26.5t-26.5 63.5t26.5 64t63.5 27z" />
    <glyph glyph-name="divide" unicode="&#xf7;" horiz-adv-x="1351" 
d="M166 764h1073v-90h-1073v90zM702 979q-34 0 -56.5 23t-22.5 57t22.5 57t56.5 23t57 -23t23 -57t-23 -57t-57 -23zM702 299q-34 0 -56.5 23t-22.5 57t22.5 57t56.5 23t57 -23t23 -57t-23 -57t-57 -23z" />
    <glyph glyph-name="oslash" unicode="&#xf8;" horiz-adv-x="862" 
d="M647 752l-416 -650q63 -36 119 -36q95 0 174.5 65t125.5 177t46 245q0 123 -49 199zM645 889l84 131l64 -43l-91 -141q91 -105 91 -283q0 -134 -38 -245t-101 -180.5t-140.5 -107.5t-159.5 -38q-37 0 -71.5 8.5t-51.5 16.5t-47 24l-86 -133l-65 39l94 145
q-90 111 -90 287q0 251 121 410t311 159q102 0 176 -49zM180 166l416 647q-64 41 -131 41q-80 0 -144.5 -41.5t-104.5 -111t-61.5 -155.5t-21.5 -179q0 -128 47 -201z" />
    <glyph glyph-name="ugrave" unicode="&#xf9;" horiz-adv-x="937" 
d="M868 920l-129 -920h-90l25 162l-4 4q-172 -184 -357 -184q-46 0 -89 17t-77 49.5t-50.5 87.5t-6.5 124l92 660h90l-92 -656q-12 -91 32 -144.5t130 -53.5q82 0 164 51.5t184 167.5l88 635h90zM289 1352h164l215 -316h-68z" />
    <glyph glyph-name="uacute" unicode="&#xfa;" horiz-adv-x="937" 
d="M868 920l-129 -920h-90l25 162l-4 4q-172 -184 -357 -184q-46 0 -89 17t-77 49.5t-50.5 87.5t-6.5 124l92 660h90l-92 -656q-12 -91 32 -144.5t130 -53.5q82 0 164 51.5t184 167.5l88 635h90zM838 1352l-312 -316h-67l215 316h164z" />
    <glyph glyph-name="ucircumflex" unicode="&#xfb;" horiz-adv-x="937" 
d="M868 920l-129 -920h-90l25 162l-4 4q-172 -184 -357 -184q-46 0 -89 17t-77 49.5t-50.5 87.5t-6.5 124l92 660h90l-92 -656q-12 -91 32 -144.5t130 -53.5q82 0 164 51.5t184 167.5l88 635h90zM766 1440l18 -404h-73l-43 277l-306 -277h-79l368 404h115z" />
    <glyph glyph-name="udieresis" unicode="&#xfc;" horiz-adv-x="937" 
d="M868 920l-129 -920h-90l25 162l-4 4q-172 -184 -357 -184q-46 0 -89 17t-77 49.5t-50.5 87.5t-6.5 124l92 660h90l-92 -656q-12 -91 32 -144.5t130 -53.5q82 0 164 51.5t184 167.5l88 635h90zM395 1305q37 0 63.5 -27t26.5 -64t-26.5 -63.5t-63.5 -26.5t-63.5 26.5
t-26.5 63.5t26.5 64t63.5 27zM719 1305q37 0 63.5 -27t26.5 -64t-26.5 -63.5t-63.5 -26.5t-63.5 26.5t-26.5 63.5t26.5 64t63.5 27z" />
    <glyph glyph-name="yacute" unicode="&#xfd;" horiz-adv-x="768" 
d="M811 920l-727 -1391h-100l256 483l-174 908h90l145 -785h4l410 785h96zM752 1352l-312 -316h-67l215 316h164z" />
    <glyph glyph-name="thorn" unicode="&#xfe;" horiz-adv-x="1024" 
d="M319 797l-104 -742q139 -16 248.5 5t177 66t111.5 112t61.5 136.5t17.5 145.5q0 154 -81 244t-215 90q-105 0 -216 -57zM53 -453l260 1850h90l-73 -527q122 68 227 68q165 0 268 -116t103 -300q0 -74 -17.5 -146t-61.5 -144.5t-109.5 -127t-169.5 -88.5t-234 -34
q-68 0 -129 6l-64 -441h-90z" />
    <glyph glyph-name="ydieresis" unicode="&#xff;" horiz-adv-x="768" 
d="M811 920l-727 -1391h-100l256 483l-174 908h90l145 -785h4l410 785h96zM330 1305q37 0 63.5 -27t26.5 -64t-26.5 -63.5t-63.5 -26.5t-63.5 26.5t-26.5 63.5t26.5 64t63.5 27zM653 1305q37 0 63.5 -27t26.5 -64t-26.5 -63.5t-63.5 -26.5t-63.5 26.5t-26.5 63.5t26.5 64
t63.5 27z" />
    <glyph glyph-name="Amacron" unicode="&#x100;" horiz-adv-x="1079" 
d="M696 1415l322 -1415h-98l-115 504h-518l-238 -504h-98l659 1415h86zM631 1243l-299 -645h452l-149 645h-4zM1006 1630l-19 -102h-653l18 102h654z" />
    <glyph glyph-name="amacron" unicode="&#x101;" horiz-adv-x="948" 
d="M874 920l-129 -920h-90l15 109q-62 -56 -147.5 -91.5t-168.5 -35.5q-139 0 -230 104t-91 264q0 87 26.5 171.5t81 159.5t130.5 132.5t183.5 91t231.5 33.5q111 0 188 -18zM684 213l92 645q-50 12 -112 12q-141 0 -262.5 -65.5t-197 -188.5t-75.5 -278q0 -127 65.5 -204
t174.5 -77q153 0 315 156zM856 1276l-14 -105h-547l14 105h547z" />
    <glyph glyph-name="Abreve" unicode="&#x102;" horiz-adv-x="1079" 
d="M696 1415l322 -1415h-98l-115 504h-518l-238 -504h-98l659 1415h86zM631 1243l-299 -645h452l-149 645h-4zM369 1733h112q21 -64 76.5 -101t112.5 -37q133 0 260 138h114q-68 -109 -173 -175.5t-212 -66.5q-106 0 -189 64.5t-101 177.5z" />
    <glyph glyph-name="abreve" unicode="&#x103;" horiz-adv-x="948" 
d="M874 920l-129 -920h-90l15 109q-62 -56 -147.5 -91.5t-168.5 -35.5q-139 0 -230 104t-91 264q0 87 26.5 171.5t81 159.5t130.5 132.5t183.5 91t231.5 33.5q111 0 188 -18zM684 213l92 645q-50 12 -112 12q-141 0 -262.5 -65.5t-197 -188.5t-75.5 -278q0 -127 65.5 -204
t174.5 -77q153 0 315 156zM788 1296h74q-37 -120 -113 -190t-169 -70q-98 0 -159.5 71.5t-62.5 188.5h84q4 -81 39 -125.5t94 -44.5q57 0 116.5 48t96.5 122z" />
    <glyph glyph-name="Aogonek" unicode="&#x104;" horiz-adv-x="1079" 
d="M1167 -272v-93q-58 -16 -110 -16q-103 0 -161 54.5t-58 121.5q0 100 82 205l-115 504h-518l-238 -504h-98l659 1415h86l322 -1415q-40 -63 -57 -99t-17 -75q0 -45 36 -77t93 -32q14 0 94 11zM784 598l-149 659l-305 -659h454z" />
    <glyph glyph-name="aogonek" unicode="&#x105;" horiz-adv-x="944" 
d="M872 -246v-84q-58 -14 -98 -14q-93 0 -147 49.5t-54 110.5q0 83 74 184l17 106q-33 -25 -53.5 -38.5t-64.5 -37.5t-94 -36t-104 -12q-61 0 -117 24.5t-101 69t-72 116t-27 158.5q0 79 23 159.5t75 158t126.5 137.5t186 96.5t244.5 36.5q94 0 186 -18l-135 -920
q-67 -98 -67 -158q0 -38 32 -67t86 -29q38 0 84 8zM678 211l96 649l-110 4q-145 0 -266.5 -67t-193 -189t-71.5 -272q0 -128 65.5 -203.5t174.5 -75.5q91 0 173 49t132 105z" />
    <glyph glyph-name="Cacute" unicode="&#x106;" horiz-adv-x="1130" 
d="M1151 1397l-12 -90q-98 14 -166 14q-170 0 -320.5 -65.5t-252.5 -171.5t-161 -241.5t-59 -275.5q0 -209 128 -350t317 -141q101 0 217 39t225 110l-16 -114q-98 -58 -214.5 -93.5t-209.5 -35.5q-78 0 -156 23.5t-149.5 72.5t-126.5 117t-88 163.5t-33 204.5
q0 127 41.5 251.5t122 232t188.5 190.5t250.5 130.5t298.5 47.5q98 0 176 -18zM1243 1751l-414 -260h-94l250 260h258z" />
    <glyph glyph-name="cacute" unicode="&#x107;" horiz-adv-x="788" 
d="M778 920l-14 -99q-105 27 -174 27q-87 0 -161 -27.5t-124.5 -73.5t-86 -107t-52 -126.5t-16.5 -132.5q0 -142 84.5 -228.5t224.5 -86.5q61 0 115.5 17t146.5 58l-14 -96q-129 -63 -271 -63q-172 0 -277.5 113t-105.5 296q0 76 20.5 152t64.5 147.5t106.5 126.5t154 88
t199.5 33q88 0 180 -18zM793 1352l-312 -316h-67l215 316h164z" />
    <glyph glyph-name="Ccircumflex" unicode="&#x108;" horiz-adv-x="1130" 
d="M1159 1397l-12 -90q-98 14 -166 14q-170 0 -320.5 -65.5t-252.5 -171.5t-161 -241.5t-59 -275.5q0 -209 128 -350t317 -141q101 0 217 39t225 110l-16 -114q-98 -58 -214.5 -93.5t-209.5 -35.5q-78 0 -156 23.5t-149.5 72.5t-126.5 117t-88 163.5t-33 204.5
q0 127 41.5 251.5t122 232t188.5 190.5t250.5 130.5t298.5 47.5q98 0 176 -18zM975 1761l184 -270h-106l-156 178l-307 -178h-105l326 270h164z" />
    <glyph glyph-name="ccircumflex" unicode="&#x109;" horiz-adv-x="788" 
d="M778 920l-14 -99q-105 27 -174 27q-87 0 -161 -27.5t-124.5 -73.5t-86 -107t-52 -126.5t-16.5 -132.5q0 -142 84.5 -228.5t224.5 -86.5q61 0 115.5 17t146.5 58l-14 -96q-129 -63 -271 -63q-172 0 -277.5 113t-105.5 296q0 76 20.5 152t64.5 147.5t106.5 126.5t154 88
t199.5 33q88 0 180 -18zM762 1440l18 -404h-73l-43 277l-306 -277h-79l368 404h115z" />
    <glyph glyph-name="Cdotaccent" unicode="&#x10a;" horiz-adv-x="1130" 
d="M1159 1397l-12 -90q-98 14 -166 14q-170 0 -320.5 -65.5t-252.5 -171.5t-161 -241.5t-59 -275.5q0 -209 128 -350t317 -141q101 0 217 39t225 110l-16 -114q-98 -58 -214.5 -93.5t-209.5 -35.5q-78 0 -156 23.5t-149.5 72.5t-126.5 117t-88 163.5t-33 204.5
q0 127 41.5 251.5t122 232t188.5 190.5t250.5 130.5t298.5 47.5q98 0 176 -18zM944 1579q0 -36 -25.5 -63t-64.5 -27q-38 0 -64 26t-26 64t25.5 64t62.5 26q39 0 65.5 -27t26.5 -63z" />
    <glyph glyph-name="cdotaccent" unicode="&#x10b;" horiz-adv-x="788" 
d="M778 920l-14 -99q-105 27 -174 27q-87 0 -161 -27.5t-124.5 -73.5t-86 -107t-52 -126.5t-16.5 -132.5q0 -142 84.5 -228.5t224.5 -86.5q61 0 115.5 17t146.5 58l-14 -96q-129 -63 -271 -63q-172 0 -277.5 113t-105.5 296q0 76 20.5 152t64.5 147.5t106.5 126.5t154 88
t199.5 33q88 0 180 -18zM565 1305q37 0 63.5 -27t26.5 -64t-26.5 -63.5t-63.5 -26.5t-63.5 26.5t-26.5 63.5t26.5 64t63.5 27z" />
    <glyph glyph-name="Ccaron" unicode="&#x10c;" horiz-adv-x="1130" 
d="M1151 1397l-12 -90q-98 14 -166 14q-170 0 -320.5 -65.5t-252.5 -171.5t-161 -241.5t-59 -275.5q0 -209 128 -350t317 -141q101 0 217 39t225 110l-16 -114q-98 -58 -214.5 -93.5t-209.5 -35.5q-78 0 -156 23.5t-149.5 72.5t-126.5 117t-88 163.5t-33 204.5
q0 127 41.5 251.5t122 232t188.5 190.5t250.5 130.5t298.5 47.5q98 0 176 -18zM764 1491l-184 270h106l156 -178l307 178h104l-325 -270h-164z" />
    <glyph glyph-name="ccaron" unicode="&#x10d;" horiz-adv-x="788" 
d="M778 920l-14 -99q-105 27 -174 27q-87 0 -161 -27.5t-124.5 -73.5t-86 -107t-52 -126.5t-16.5 -132.5q0 -142 84.5 -228.5t224.5 -86.5q61 0 115.5 17t146.5 58l-14 -96q-129 -63 -271 -63q-172 0 -277.5 113t-105.5 296q0 76 20.5 152t64.5 147.5t106.5 126.5t154 88
t199.5 33q88 0 180 -18zM487 1036l-18 404h74l43 -277l305 277h80l-369 -404h-115z" />
    <glyph glyph-name="Dcaron" unicode="&#x10e;" horiz-adv-x="1306" 
d="M82 0l197 1397h247q134 0 261 -47t230 -134t165.5 -225t62.5 -305q0 -152 -55 -280.5t-151 -217.5t-228.5 -138.5t-284.5 -49.5h-444zM367 1307l-174 -1217h296q104 0 193 20t154.5 54t118 81.5t86.5 100t56.5 112t32 116t9.5 112.5q0 189 -90 332t-237 216t-327 73h-118
zM573 1491l-184 270h107l155 -178l307 178h105l-326 -270h-164z" />
    <glyph glyph-name="dcaron" unicode="&#x10f;" horiz-adv-x="1005" 
d="M954 1397l-202 -1387q-117 -28 -242 -28q-107 0 -192 30t-135.5 75.5t-84 104.5t-45.5 111.5t-12 102.5q0 53 14 114t56 137.5t107 137t179.5 102t261.5 41.5q70 0 136 -8l69 467h90zM672 78l112 778q-66 8 -125 8q-114 0 -207 -32t-150.5 -81.5t-96.5 -112.5
t-54.5 -122.5t-15.5 -114.5q0 -70 20 -127t54.5 -93t75 -62.5t86.5 -39.5t82.5 -18.5t70.5 -5.5q78 0 148 23zM1176 1415l-17 -115q-21 -141 -64.5 -208.5t-121.5 -96.5l8 60q41 25 61 63.5t27 110.5h-43l29 186h121z" />
    <glyph glyph-name="Dcroat" unicode="&#x110;" horiz-adv-x="1310" 
d="M174 655h-166l12 90h168l91 652h256q87 0 186 -25.5t174 -66.5q166 -89 260 -254t94 -365q0 -228 -114.5 -395.5t-319.5 -239.5q-77 -29 -153 -40t-193 -11h-385zM270 655l-77 -565h223q166 0 267 20.5t189 71.5q129 76 201 208t72 292q0 281 -183.5 453t-482.5 172h-117
l-77 -562h372l-14 -90h-373z" />
    <glyph glyph-name="dcroat" unicode="&#x111;" horiz-adv-x="944" 
d="M926 1196h151l-12 -82h-150l-163 -1104q-117 -28 -242 -28q-107 0 -192 30t-135.5 75.5t-84 104.5t-45.5 111.5t-12 102.5q0 53 14 114t56 137.5t107 137t179.5 102t261.5 41.5q72 0 138 -8l26 184h-303l12 82h304l30 201h90zM672 78l112 778q-66 8 -122 8
q-107 0 -196.5 -29t-149 -75.5t-101 -108t-60 -124.5t-18.5 -126q0 -83 29.5 -148t72 -101t98.5 -59t100.5 -30.5t86.5 -7.5q54 0 148 23z" />
    <glyph glyph-name="Emacron" unicode="&#x112;" 
d="M991 1397l-12 -94h-617l-77 -541h583l-14 -94h-582l-82 -574h826l-12 -94h-922l197 1397h712zM1047 1630l-19 -102h-653l18 102h654z" />
    <glyph glyph-name="emacron" unicode="&#x113;" horiz-adv-x="892" 
d="M758 180v-96q-134 -102 -289 -102q-184 0 -296 121t-112 321q0 142 56 260t154 186t216 68q149 0 238.5 -104t89.5 -285q0 -30 -4 -70h-649q-4 -36 -4 -59q0 -64 19.5 -125t56.5 -113t98.5 -84t138.5 -32q148 0 287 114zM176 559h549q6 139 -61 217t-179 78
q-108 0 -199 -87t-110 -208zM821 1276l-14 -105h-547l14 105h547z" />
    <glyph glyph-name="Ebreve" unicode="&#x114;" 
d="M991 1397l-12 -94h-617l-77 -541h583l-14 -94h-582l-82 -574h826l-12 -94h-922l197 1397h712zM412 1733h112q21 -64 76.5 -101t112.5 -37q133 0 260 138h114q-68 -109 -173 -175.5t-212 -66.5q-106 0 -189 64.5t-101 177.5z" />
    <glyph glyph-name="ebreve" unicode="&#x115;" horiz-adv-x="892" 
d="M758 180v-96q-134 -102 -289 -102q-184 0 -296 121t-112 321q0 142 56 260t154 186t216 68q149 0 238.5 -104t89.5 -285q0 -30 -4 -70h-649q-4 -36 -4 -59q0 -64 19.5 -125t56.5 -113t98.5 -84t138.5 -32q148 0 287 114zM176 559h549q6 139 -61 217t-179 78
q-108 0 -199 -87t-110 -208zM729 1296h74q-37 -120 -113.5 -190t-169.5 -70q-98 0 -158.5 71.5t-62.5 188.5h84q4 -81 39 -125.5t94 -44.5q57 0 116.5 48t96.5 122z" />
    <glyph glyph-name="Edotaccent" unicode="&#x116;" 
d="M991 1397l-12 -94h-617l-77 -541h583l-14 -94h-582l-82 -574h826l-12 -94h-922l197 1397h712zM809 1579q0 -36 -25.5 -63t-64.5 -27q-38 0 -64 26t-26 64t25.5 64t62.5 26q39 0 65.5 -27t26.5 -63z" />
    <glyph glyph-name="edotaccent" unicode="&#x117;" horiz-adv-x="892" 
d="M758 180v-96q-134 -102 -289 -102q-184 0 -296 121t-112 321q0 142 56 260t154 186t216 68q149 0 238.5 -104t89.5 -285q0 -30 -4 -70h-649q-4 -36 -4 -59q0 -64 19.5 -125t56.5 -113t98.5 -84t138.5 -32q148 0 287 114zM176 559h549q6 139 -61 217t-179 78
q-108 0 -199 -87t-110 -208zM553 1305q37 0 63.5 -27t26.5 -64t-26.5 -63.5t-63.5 -26.5t-63.5 26.5t-26.5 63.5t26.5 64t63.5 27z" />
    <glyph glyph-name="Eogonek" unicode="&#x118;" horiz-adv-x="1069" 
d="M1001 -272v-93q-58 -16 -110 -16q-100 0 -158.5 54.5t-58.5 121.5q0 92 82 205h-678l207 1397h716l-16 -84h-616l-84 -559h589l-18 -86h-582l-88 -578h838l-14 -90h-154q-76 -110 -76 -176q0 -43 35.5 -75t93.5 -32q12 0 92 11z" />
    <glyph glyph-name="eogonek" unicode="&#x119;" horiz-adv-x="892" 
d="M635 -246v-84q-58 -14 -98 -14q-93 0 -146 49.5t-53 110.5q0 80 63 168q-149 19 -244.5 137t-95.5 303q0 120 40.5 221t104 163t137 96t144.5 34q34 0 68.5 -7t74 -26.5t72.5 -48.5t60 -77.5t39 -110.5q14 -70 14 -176h-653q-6 -60 -6 -72q0 -49 11 -98t36 -96t61 -83
t89 -58t116 -22q143 0 289 117v-104q-115 -85 -269 -92q-55 -78 -55 -142q0 -37 31 -66.5t86 -29.5q34 0 84 8zM174 557h551q-3 92 -14 129q-26 85 -89 127.5t-133 42.5q-109 0 -198.5 -87t-116.5 -212z" />
    <glyph glyph-name="Ecaron" unicode="&#x11a;" 
d="M991 1397l-12 -94h-617l-77 -541h583l-14 -94h-582l-82 -574h826l-12 -94h-922l197 1397h712zM565 1491l-184 270h106l156 -178l307 178h105l-326 -270h-164z" />
    <glyph glyph-name="ecaron" unicode="&#x11b;" horiz-adv-x="892" 
d="M758 180v-96q-134 -102 -289 -102q-184 0 -296 121t-112 321q0 142 56 260t154 186t216 68q149 0 238.5 -104t89.5 -285q0 -30 -4 -70h-649q-4 -36 -4 -59q0 -64 19.5 -125t56.5 -113t98.5 -84t138.5 -32q148 0 287 114zM176 559h549q6 139 -61 217t-179 78
q-108 0 -199 -87t-110 -208zM444 1036l-18 404h74l43 -277l305 277h80l-369 -404h-115z" />
    <glyph glyph-name="Gcircumflex" unicode="&#x11c;" horiz-adv-x="1259" 
d="M1305 1382l-13 -92q-143 31 -256 31q-196 0 -358.5 -59.5t-269 -161.5t-164.5 -236t-58 -284q0 -221 137.5 -362.5t354.5 -141.5q149 0 338 94l45 311h-313l12 94h409l-63 -452q-96 -66 -214 -103.5t-226 -37.5q-86 0 -170 24.5t-159.5 75t-132.5 121t-90.5 170.5
t-33.5 215q0 125 40 245t121 225t194.5 185t270.5 126t338 46q134 0 261 -33zM1059 1761l184 -270h-106l-156 178l-307 -178h-105l326 270h164z" />
    <glyph glyph-name="gcircumflex" unicode="&#x11d;" horiz-adv-x="874" 
d="M918 938l-11 -68h-258v-4q135 -81 135 -250q0 -154 -110 -264q-36 -36 -92 -59.5t-88 -29.5t-105 -16l-6 -1.5t-5.5 -1t-6.5 -0.5q-87 -12 -132.5 -33t-45.5 -61q0 -34 34.5 -50t153.5 -45q57 -14 83.5 -21t75.5 -22.5t73.5 -27.5t57.5 -32.5t49 -42t28 -51.5t12 -65
q0 -47 -23 -92t-69 -84.5t-128.5 -63.5t-189.5 -24q-184 0 -277 67t-93 162q0 86 78.5 143.5t236.5 96.5v4q-189 38 -189 139q0 50 48.5 85.5t140.5 52.5v4q-92 32 -144.5 109.5t-52.5 180.5q0 150 111.5 257.5t269.5 107.5h439zM184 569q0 -96 60 -169.5t166 -73.5
q64 0 115.5 23.5t82 58.5t51 78.5t28 78.5t7.5 64q0 104 -72 168.5t-163 64.5q-110 0 -192.5 -87t-82.5 -206zM387 -37q-158 -25 -239.5 -84t-81.5 -135q0 -68 73 -107.5t199 -39.5q172 0 254 55t82 135q0 66 -68.5 105.5t-218.5 70.5zM733 1440l19 -404h-74l-43 277
l-305 -277h-80l368 404h115z" />
    <glyph glyph-name="Gbreve" unicode="&#x11e;" horiz-adv-x="1257" 
d="M1298 1382l-12 -92q-143 31 -256 31q-196 0 -358.5 -59.5t-269 -161.5t-164.5 -236t-58 -284q0 -221 137.5 -362.5t354.5 -141.5q149 0 338 94l45 311h-314l13 94h409l-63 -452q-96 -66 -214.5 -103.5t-226.5 -37.5q-109 0 -212 40t-187 113.5t-135 191.5t-51 261
q0 125 40 245t121 225t194.5 185t270.5 126t338 46q133 0 260 -33zM635 1733h113q21 -64 76 -101t112 -37q133 0 260 138h115q-68 -109 -173 -175.5t-212 -66.5q-106 0 -189.5 65t-101.5 177z" />
    <glyph glyph-name="gbreve" unicode="&#x11f;" horiz-adv-x="874" 
d="M918 938l-11 -68h-258v-4q135 -81 135 -250q0 -154 -110 -264q-36 -36 -92 -59.5t-88 -29.5t-105 -16l-6 -1.5t-5.5 -1t-6.5 -0.5q-87 -12 -132.5 -33t-45.5 -61q0 -34 34.5 -50t153.5 -45q57 -14 83.5 -21t75.5 -22.5t73.5 -27.5t57.5 -32.5t49 -42t28 -51.5t12 -65
q0 -47 -23 -92t-69 -84.5t-128.5 -63.5t-189.5 -24q-184 0 -277 67t-93 162q0 86 78.5 143.5t236.5 96.5v4q-189 38 -189 139q0 50 48.5 85.5t140.5 52.5v4q-92 32 -144.5 109.5t-52.5 180.5q0 150 111.5 257.5t269.5 107.5h439zM184 569q0 -96 60 -169.5t166 -73.5
q64 0 115.5 23.5t82 58.5t51 78.5t28 78.5t7.5 64q0 104 -72 168.5t-163 64.5q-110 0 -192.5 -87t-82.5 -206zM387 -37q-158 -25 -239.5 -84t-81.5 -135q0 -68 73 -107.5t199 -39.5q172 0 254 55t82 135q0 66 -68.5 105.5t-218.5 70.5zM754 1296h73q-37 -120 -113 -190
t-169 -70q-98 0 -158.5 71.5t-62.5 188.5h84q4 -81 39 -125.5t94 -44.5q57 0 116.5 48t96.5 122z" />
    <glyph glyph-name="Gdotaccent" unicode="&#x120;" horiz-adv-x="1259" 
d="M1305 1382l-13 -92q-143 31 -256 31q-196 0 -358.5 -59.5t-269 -161.5t-164.5 -236t-58 -284q0 -221 137.5 -362.5t354.5 -141.5q149 0 338 94l45 311h-313l12 94h409l-63 -452q-96 -66 -214 -103.5t-226 -37.5q-86 0 -170 24.5t-159.5 75t-132.5 121t-90.5 170.5
t-33.5 215q0 125 40 245t121 225t194.5 185t270.5 126t338 46q134 0 261 -33zM1038 1579q0 -36 -25.5 -63t-64.5 -27q-38 0 -64 26t-26 64t25.5 64t62.5 26q39 0 65.5 -27t26.5 -63z" />
    <glyph glyph-name="gdotaccent" unicode="&#x121;" horiz-adv-x="874" 
d="M918 938l-11 -68h-258v-4q135 -81 135 -250q0 -154 -110 -264q-36 -36 -92 -59.5t-88 -29.5t-105 -16l-6 -1.5t-5.5 -1t-6.5 -0.5q-87 -12 -132.5 -33t-45.5 -61q0 -34 34.5 -50t153.5 -45q57 -14 83.5 -21t75.5 -22.5t73.5 -27.5t57.5 -32.5t49 -42t28 -51.5t12 -65
q0 -47 -23 -92t-69 -84.5t-128.5 -63.5t-189.5 -24q-184 0 -277 67t-93 162q0 86 78.5 143.5t236.5 96.5v4q-189 38 -189 139q0 50 48.5 85.5t140.5 52.5v4q-92 32 -144.5 109.5t-52.5 180.5q0 150 111.5 257.5t269.5 107.5h439zM184 569q0 -96 60 -169.5t166 -73.5
q64 0 115.5 23.5t82 58.5t51 78.5t28 78.5t7.5 64q0 104 -72 168.5t-163 64.5q-110 0 -192.5 -87t-82.5 -206zM387 -37q-158 -25 -239.5 -84t-81.5 -135q0 -68 73 -107.5t199 -39.5q172 0 254 55t82 135q0 66 -68.5 105.5t-218.5 70.5zM537 1305q37 0 63.5 -27t26.5 -64
t-26.5 -63.5t-63.5 -26.5t-64 26.5t-27 63.5t27 64t64 27z" />
    <glyph glyph-name="Gcommaaccent" unicode="&#x122;" horiz-adv-x="1257" 
d="M1298 1382l-12 -92q-143 31 -256 31q-196 0 -358.5 -59.5t-269 -161.5t-164.5 -236t-58 -284q0 -221 137.5 -362.5t354.5 -141.5q149 0 338 94l45 311h-314l13 94h409l-63 -452q-96 -66 -214.5 -103.5t-226.5 -37.5q-109 0 -212 40t-187 113.5t-135 191.5t-51 261
q0 125 40 245t121 225t194.5 185t270.5 126t338 46q133 0 260 -33zM401 -387l27 72q80 -6 135 3t80 28t34 37.5t9 39.5q0 45 -50.5 62.5t-158.5 11.5l15 76q33 4 61 4q43 0 79.5 -6t73 -20.5t57.5 -44.5t21 -73q0 -40 -15 -72.5t-36.5 -52.5t-54.5 -34.5t-59 -21.5
t-61 -10.5t-49.5 -4t-33.5 -0.5q-5 0 -74 6z" />
    <glyph glyph-name="gcommaaccent" unicode="&#x123;" horiz-adv-x="872" 
d="M918 938l-11 -68h-260q39 -22 64 -53q71 -80 71 -203q0 -11 -0.5 -23.5t-7 -46.5t-17.5 -63.5t-35 -67.5t-56.5 -67t-85.5 -53.5t-119 -34.5q-6 -1 -76.5 -12t-83.5 -13q-115 -22 -115 -83q0 -35 36 -51t165 -48q59 -14 93 -23t84.5 -25.5t79.5 -34t59 -43t43.5 -58.5
t13.5 -74q0 -47 -23 -92t-69 -84.5t-128.5 -63.5t-189.5 -24q-72 0 -130.5 10.5t-96 27t-66 39t-42.5 43.5t-22.5 44.5t-10.5 37t-2 25.5q0 48 26.5 86.5t75.5 66.5t98 46.5t115 36.5q-29 5 -57 15t-60 26t-52 43t-20 59q0 107 189 146q-53 20 -92.5 54t-58.5 66.5
t-30.5 71.5t-13.5 60t-2 40q0 38 10.5 80t33 88.5t66.5 90t103 71.5q36 17 75.5 24.5t69 9t91.5 1.5h371zM692 623q0 63 -23 111.5t-59.5 75.5t-75 40.5t-75.5 13.5q-108 0 -189.5 -87.5t-81.5 -205.5q0 -96 60 -169.5t166 -73.5q126 0 202 86.5t76 208.5zM381 -37
q-34 -8 -50 -12t-55 -15.5t-62 -21.5t-54.5 -28t-49.5 -37t-31 -46t-13 -57q0 -71 78 -109t198 -38q71 0 128 10t92 27.5t59.5 37t36 42.5t16 40t4.5 33q0 127 -297 174zM469 1040l14 107q8 57 25 103.5t35.5 74t41 48t37 28.5t27.5 12l-6 -51q-72 -67 -80 -158h37l-25 -164
h-106z" />
    <glyph glyph-name="Hcircumflex" unicode="&#x124;" horiz-adv-x="1429" 
d="M1389 1397l-197 -1397h-96l92 666h-918l-92 -666h-96l194 1397h97l-90 -637h919l90 637h97zM997 1761l185 -270h-107l-155 178l-308 -178h-104l326 270h163z" />
    <glyph glyph-name="hcircumflex" unicode="&#x125;" horiz-adv-x="937" 
d="M334 1397l-92 -664l4 -4q97 102 180 155.5t182 53.5q119 0 184 -81.5t48 -205.5l-92 -651h-91l88 641q8 59 -2.5 102t-35 66.5t-53 34t-60.5 10.5q-86 0 -162 -50.5t-207 -185.5l-88 -618h-90l197 1397h90zM766 1874l18 -404h-73l-43 277l-306 -277h-79l368 404h115z" />
    <glyph glyph-name="Hbar" unicode="&#x126;" horiz-adv-x="1429" 
d="M1354 1112h164l-15 -88h-162l-151 -1024h-98l98 666h-914l-98 -666h-98l153 1024h-163l14 88h162l43 285h96l-43 -285h915l43 285h97zM1243 1024h-913l-41 -272h913z" />
    <glyph glyph-name="hbar" unicode="&#x127;" horiz-adv-x="937" 
d="M313 1184h353l-13 -82h-350l-51 -369q4 3 55.5 54t63.5 59q124 92 237 92q115 0 174.5 -68t59.5 -159q0 -47 -6 -93l-91 -618h-90l90 600q0 6 3.5 50t3.5 52q0 72 -47.5 113t-108.5 41q-118 0 -252 -115q-12 -10 -61 -64t-54 -59l-90 -618h-90l160 1102h-152l13 82h151
l31 213h92z" />
    <glyph glyph-name="Itilde" unicode="&#x128;" horiz-adv-x="405" 
d="M375 1397l-197 -1397h-96l197 1397h96zM117 1491h-84q5 68 8.5 91t15.5 50q25 43 65.5 74t96.5 31q48 0 84.5 -15.5t108.5 -58.5q2 -1 15 -8t22 -12t24.5 -12t27.5 -11.5t26 -8t24 -3.5q22 0 37.5 10t24 31.5t12.5 39t8 46.5h78q4 -122 -51.5 -185t-133.5 -63
q-38 0 -76 14.5t-102 48.5q-91 49 -111 58.5t-38 9.5q-23 0 -40 -13.5t-25.5 -35.5t-12 -41t-4.5 -37z" />
    <glyph glyph-name="itilde" unicode="&#x129;" horiz-adv-x="362" 
d="M283 920l-129 -920h-91l130 920h90zM541 1329h63q-18 -194 -164 -194q-61 0 -186 51q-120 49 -174 49q-39 0 -59 -19.5t-23 -78.5h-64q-11 91 41.5 145.5t128.5 54.5q57 0 177 -49q115 -45 157 -50q9 -1 17 -1q42 0 61 20t25 72z" />
    <glyph glyph-name="Imacron" unicode="&#x12a;" horiz-adv-x="405" 
d="M375 1397l-197 -1397h-96l197 1397h96zM696 1630l-18 -102h-653l18 102h653z" />
    <glyph glyph-name="imacron" unicode="&#x12b;" horiz-adv-x="362" 
d="M283 920l-129 -920h-91l130 920h90zM559 1276l-14 -105h-547l14 105h547z" />
    <glyph glyph-name="Ibreve" unicode="&#x12c;" horiz-adv-x="405" 
d="M375 1397l-197 -1397h-96l197 1397h96zM37 1733h113q21 -64 76 -101t112 -37q133 0 260 138h115q-68 -109 -173 -175.5t-212 -66.5q-106 0 -189.5 65t-101.5 177z" />
    <glyph glyph-name="ibreve" unicode="&#x12d;" horiz-adv-x="362" 
d="M283 920l-129 -920h-91l130 920h90zM467 1296h74q-37 -120 -113.5 -190t-169.5 -70q-98 0 -158.5 71.5t-62.5 188.5h84q4 -81 39 -125.5t94 -44.5q57 0 116.5 48t96.5 122z" />
    <glyph glyph-name="Iogonek" unicode="&#x12e;" horiz-adv-x="411" 
d="M328 -272l-15 -93q-54 -16 -108 -16q-104 0 -161.5 55t-57.5 123q0 105 98 223l207 1377h96l-207 -1397q-38 -47 -58 -95t-20 -81q0 -41 35.5 -74t95.5 -33q21 0 95 11z" />
    <glyph glyph-name="iogonek" unicode="&#x12f;" horiz-adv-x="362" 
d="M285 -246l-13 -84q-58 -14 -98 -14q-93 0 -145 49.5t-52 110.5q0 42 21.5 95.5t62.5 100.5l134 908h90l-133 -920q-68 -95 -68 -158q0 -38 31.5 -67t85.5 -29q38 0 84 8zM342 1317l-20 -150h-91l21 150h90z" />
    <glyph glyph-name="Idotaccent" unicode="&#x130;" horiz-adv-x="405" 
d="M375 1397l-197 -1397h-96l197 1397h96zM459 1579q0 -36 -25.5 -63t-64.5 -27q-38 0 -64 26t-26 64t25.5 64t62.5 26q39 0 65.5 -27t26.5 -63z" />
    <glyph glyph-name="dotlessi" unicode="&#x131;" horiz-adv-x="362" 
d="M283 920l-129 -920h-91l130 920h90z" />
    <glyph glyph-name="IJ" unicode="&#x132;" horiz-adv-x="811" 
d="M387 1397l-207 -1397h-98l209 1397h96zM797 1397l-215 -1456q-17 -121 -33.5 -175t-40.5 -92q-42 -70 -115 -108.5t-157 -38.5q-59 0 -119 16l-19 101q52 -23 131 -23q55 0 97 18.5t68 46.5t45 75t29 89t19 103l213 1444h97z" />
    <glyph glyph-name="ij" unicode="&#x133;" horiz-adv-x="724" 
d="M340 1317l-21 -152h-90l21 152h90zM283 920l-133 -920h-91l134 920h90zM705 1317l-23 -152h-90l22 152h91zM647 920l-133 -920q-31 -204 -56 -278q-47 -139 -149 -177q-48 -18 -110 -18q-54 0 -115 18l16 82q58 -16 90 -16q36 0 65 11t49 26.5t37 45t27 54.5t19.5 68
t14.5 71.5t12 79.5l143 953h90z" />
    <glyph glyph-name="Jcircumflex" unicode="&#x134;" horiz-adv-x="405" 
d="M381 1397l-217 -1532q-13 -95 -46.5 -163t-81 -104.5t-98.5 -52.5t-110 -16q-58 0 -117 16l-18 101q61 -21 133 -21q116 0 174 74.5t84 255.5l203 1442h94zM510 1761l184 -270h-106l-156 178l-307 -178h-105l326 270h164z" />
    <glyph glyph-name="jcircumflex" unicode="&#x135;" horiz-adv-x="362" 
d="M285 920l-135 -920q-30 -205 -56 -282q-48 -138 -154 -175q-46 -16 -104 -16q-54 0 -115 18l15 82q62 -16 92 -16q41 0 72.5 12.5t53 37.5t37 54.5t26.5 72.5t18 81.5t15 89.5q1 5 1 8l144 953h90zM408 1419l18 -403h-76l-39 264l-305 -264h-82l369 403h115z" />
    <glyph glyph-name="Kcommaaccent" unicode="&#x136;" horiz-adv-x="1161" 
d="M1182 1397l-768 -639l735 -758h-127l-737 758l-107 -758h-96l197 1397h96l-86 -615l751 615h142zM272 -387l27 72q80 -6 135 3t80 28t34 37.5t9 39.5q0 45 -50.5 62.5t-158.5 11.5l14 76q33 4 62 4q43 0 79.5 -6t73 -20.5t57.5 -44.5t21 -73q0 -40 -15 -72.5t-36.5 -52.5
t-54.5 -34.5t-59 -21.5t-61 -10.5t-49.5 -4t-33.5 -0.5q-5 0 -74 6z" />
    <glyph glyph-name="kcommaaccent" unicode="&#x137;" horiz-adv-x="897" 
d="M334 1397l-129 -910l549 433h135l-549 -433l573 -487h-129l-579 487l-68 -487h-90l197 1397h90zM203 -352l22 78q85 -11 133 20t48 78q0 57 -80 49l20 72q83 8 118.5 -27t35.5 -98q0 -27 -8 -53t-28.5 -53.5t-54 -44.5t-85 -25.5t-121.5 4.5z" />
    <glyph glyph-name="kgreenlandic" unicode="&#x138;" horiz-adv-x="874" 
d="M270 920l-61 -428l543 428h135l-549 -428l573 -492h-129l-573 492l-74 -492h-90l137 920h88z" />
    <glyph glyph-name="Lacute" unicode="&#x139;" horiz-adv-x="860" 
d="M375 1397l-185 -1303h627l-12 -94h-723l197 1397h96zM770 1751l-414 -260h-94l250 260h258z" />
    <glyph glyph-name="lacute" unicode="&#x13a;" horiz-adv-x="350" 
d="M334 1397l-197 -1397h-90l197 1397h90zM537 1786l-312 -316h-67l215 316h164z" />
    <glyph glyph-name="Lcommaaccent" unicode="&#x13b;" horiz-adv-x="860" 
d="M375 1397l-185 -1303h627l-12 -94h-723l197 1397h96zM180 -387l27 72q80 -6 135 3t80 28t34 37.5t9 39.5q0 45 -50.5 62.5t-158.5 11.5l14 76q33 4 62 4q43 0 79.5 -6t73 -20.5t57.5 -44.5t21 -73q0 -40 -15 -72.5t-36.5 -52.5t-54.5 -34.5t-59 -21.5t-61 -10.5t-49.5 -4
t-33.5 -0.5q-5 0 -74 6z" />
    <glyph glyph-name="lcommaaccent" unicode="&#x13c;" horiz-adv-x="350" 
d="M334 1397l-197 -1397h-90l197 1397h90zM-88 -352l22 78q85 -11 133 20t48 78q0 57 -80 49l20 72q83 8 118.5 -27t35.5 -98q0 -27 -8 -53t-28.5 -53.5t-54 -44.5t-85 -25.5t-121.5 4.5z" />
    <glyph glyph-name="Lcaron" unicode="&#x13d;" horiz-adv-x="860" 
d="M381 1397l-195 -1309h625l-14 -88h-721l211 1397h94zM821 1397l-16 -123q-8 -62 -27 -113.5t-39.5 -82t-45.5 -53.5t-42 -33t-33 -15l9 59q80 72 88 174h-41l26 187h121z" />
    <glyph glyph-name="lcaron" unicode="&#x13e;" horiz-adv-x="387" 
d="M340 1397l-207 -1397h-90l207 1397h90zM559 1415l-16 -123q-8 -62 -27 -113.5t-39.5 -82t-45.5 -53.5t-42 -33t-33 -15l11 60q78 70 86 174h-41l28 186h119z" />
    <glyph glyph-name="Ldot" unicode="&#x13f;" horiz-adv-x="854" 
d="M381 1397l-195 -1309h625l-14 -88h-721l207 1397h98zM643 668q0 -37 -24.5 -63.5t-63.5 -26.5q-37 0 -62.5 26t-25.5 64q0 37 24.5 62.5t61.5 25.5q38 0 64 -25.5t26 -62.5z" />
    <glyph glyph-name="ldot" unicode="&#x140;" horiz-adv-x="555" 
d="M352 1397l-207 -1397h-90l207 1397h90zM524 686q0 -36 -25.5 -63t-62.5 -27t-62.5 25.5t-25.5 62.5t25 63.5t61 26.5q38 0 64 -25.5t26 -62.5z" />
    <glyph glyph-name="Lslash" unicode="&#x141;" horiz-adv-x="854" 
d="M266 666l-82 -572h627l-12 -94h-723l84 592l-170 -143l18 100l166 139l98 709h97l-88 -633l348 291l-15 -97z" />
    <glyph glyph-name="lslash" unicode="&#x142;" horiz-adv-x="352" 
d="M236 682l-97 -682h-90l86 612l-178 -141l12 80l178 141l99 705h90l-88 -635l190 153l-10 -79z" />
    <glyph glyph-name="Nacute" unicode="&#x143;" horiz-adv-x="1384" 
d="M1354 1397l-199 -1409h-43l-766 1204l-168 -1192h-96l197 1397h55l756 -1196l167 1196h97zM1245 1751l-414 -260h-94l250 260h258z" />
    <glyph glyph-name="nacute" unicode="&#x144;" horiz-adv-x="935" 
d="M276 920l-20 -152l4 -4q174 174 350 174q114 0 179.5 -90.5t48.5 -216.5l-88 -631h-91l86 618q16 116 -29.5 176t-129.5 60q-82 0 -164 -49t-182 -152l-93 -653h-90l129 920h90zM870 1352l-311 -316h-67l215 316h163z" />
    <glyph glyph-name="Ncommaaccent" unicode="&#x145;" horiz-adv-x="1384" 
d="M1354 1397l-199 -1409h-43l-766 1204l-168 -1192h-96l197 1397h55l756 -1196l167 1196h97zM410 -387l26 72q80 -6 135 3t80 28t34 37.5t9 39.5q0 45 -50.5 62.5t-158.5 11.5l15 76q33 4 61 4q43 0 79.5 -6t73 -20.5t58 -44.5t21.5 -73q0 -40 -15 -72.5t-36.5 -52.5
t-55 -34.5t-59.5 -21.5t-61 -10.5t-49.5 -4t-33.5 -0.5q-4 0 -73 6z" />
    <glyph glyph-name="ncommaaccent" unicode="&#x146;" horiz-adv-x="935" 
d="M276 920l-20 -152l4 -4q174 174 350 174q114 0 179.5 -90.5t48.5 -216.5l-88 -631h-91l86 618q16 116 -29.5 176t-129.5 60q-82 0 -164 -49t-182 -152l-93 -653h-90l129 920h90zM236 -352l22 78q85 -11 132.5 20t47.5 78q0 57 -80 49l21 72q153 15 153 -125q0 -27 -8 -53
t-28 -53.5t-54 -44.5t-85 -25.5t-121 4.5z" />
    <glyph glyph-name="Ncaron" unicode="&#x147;" horiz-adv-x="1384" 
d="M1354 1397l-199 -1409h-43l-766 1204l-168 -1192h-96l197 1397h55l756 -1196l167 1196h97zM745 1491l-184 270h107l155 -178l307 178h105l-326 -270h-164z" />
    <glyph glyph-name="ncaron" unicode="&#x148;" horiz-adv-x="935" 
d="M276 920l-20 -152l4 -4q174 174 350 174q114 0 179.5 -90.5t48.5 -216.5l-88 -631h-91l86 618q16 116 -29.5 176t-129.5 60q-82 0 -164 -49t-182 -152l-93 -653h-90l129 920h90zM483 1036l-18 404h74l43 -277l305 277h80l-369 -404h-115z" />
    <glyph glyph-name="napostrophe" unicode="&#x149;" horiz-adv-x="987" 
d="M324 920l-25 -158q56 65 154 120.5t200 55.5q98 0 165 -70t67 -174q0 -63 -6 -94l-95 -600h-88l88 563q11 69 11 123q0 81 -48 124.5t-114 43.5q-47 0 -100 -20.5t-94 -48t-78 -58.5t-55.5 -49.5t-22.5 -24.5l-97 -653h-90l137 920h91zM238 1397l-17 -123
q-11 -77 -35.5 -136t-54.5 -90.5t-53 -47.5t-43 -23l8 59q80 72 88 174h-43l29 187h121z" />
    <glyph glyph-name="Eng" unicode="&#x14a;" horiz-adv-x="1363" 
d="M729 -4l-10 94q67 -14 117 -14q85 0 135.5 28.5t82.5 100t52 203.5l65 448q12 82 -4 162.5t-58 149.5t-121.5 112t-184.5 43q-135 0 -258 -81t-215 -232l-154 -1010h-96l209 1397h96l-31 -213q184 231 480 231q98 0 185 -41.5t149.5 -115.5t90.5 -185t9 -239l-76 -498
q-28 -187 -114.5 -270.5t-229.5 -83.5q-47 0 -119 14z" />
    <glyph glyph-name="eng" unicode="&#x14b;" horiz-adv-x="937" 
d="M309 -453l17 80q56 -16 90 -16q106 0 157 94q35 59 66 262l98 596q11 88 11 115q0 49 -16.5 85t-36.5 52.5t-47.5 26t-40.5 11t-23 1.5q-47 0 -99.5 -20.5t-93.5 -48t-77.5 -58.5t-55 -49.5t-22.5 -24.5l-97 -653h-92l137 920h90l-22 -158q56 65 154 120.5t200 55.5
q97 0 164.5 -70t67.5 -174q0 -40 -7 -94l-92 -600q-33 -212 -60 -288q-44 -127 -139 -165q-52 -20 -122 -20q-55 0 -109 20z" />
    <glyph glyph-name="Omacron" unicode="&#x14c;" horiz-adv-x="1286" 
d="M1245 850q0 -139 -30.5 -269.5t-89 -238.5t-138 -189t-183 -126t-218.5 -45q-237 0 -365.5 152.5t-128.5 426.5q0 74 11 152.5t36.5 162.5t62 161.5t91 146.5t121 120t155 81t189.5 30q226 0 356.5 -151.5t130.5 -413.5zM1139 872q0 207 -103 328t-278 121
q-89 0 -166.5 -29.5t-133.5 -78.5t-101 -115.5t-74 -138.5t-48.5 -150t-27.5 -147t-8 -132q0 -218 102 -336t287 -118q128 0 234 65t174.5 175t105.5 253.5t37 302.5zM1153 1630l-18 -102h-654l19 102h653z" />
    <glyph glyph-name="omacron" unicode="&#x14d;" horiz-adv-x="862" 
d="M793 553q0 -134 -38 -245t-101 -180.5t-140.5 -107.5t-159.5 -38q-134 0 -225.5 100.5t-91.5 286.5q0 251 121 410t311 159q149 0 236.5 -104t87.5 -281zM696 553q0 138 -62.5 219.5t-168.5 81.5q-80 0 -144.5 -41.5t-104.5 -111t-61.5 -155.5t-21.5 -179
q0 -139 58.5 -220t158.5 -81q95 0 174.5 65t125.5 177t46 245zM821 1276l-14 -105h-547l14 105h547z" />
    <glyph glyph-name="Obreve" unicode="&#x14e;" horiz-adv-x="1343" 
d="M1270 850q0 -139 -30.5 -269.5t-89.5 -238.5t-138.5 -189t-183 -126t-218.5 -45q-237 0 -365 152.5t-128 426.5q0 74 11 152.5t36 162.5t61.5 161.5t91.5 146.5t121 120t154.5 81t189.5 30q226 0 357 -151.5t131 -413.5zM1163 872q0 207 -103 328t-278 121
q-89 0 -166.5 -29.5t-133.5 -78.5t-101 -115.5t-74 -138.5t-48.5 -150t-27.5 -147t-8 -132q0 -218 102 -336t287 -118q128 0 234 65t174.5 175t105.5 253.5t37 302.5zM510 1733h113q21 -64 76 -101t112 -37q133 0 260 138h115q-68 -109 -173 -175.5t-212 -66.5
q-106 0 -189.5 65t-101.5 177z" />
    <glyph glyph-name="obreve" unicode="&#x14f;" horiz-adv-x="917" 
d="M829 553q0 -134 -38 -245t-100.5 -180.5t-140 -107.5t-159.5 -38q-134 0 -225.5 100.5t-91.5 286.5q0 251 121 410t311 159q149 0 236 -104t87 -281zM733 553q0 138 -62.5 219.5t-168.5 81.5q-80 0 -144.5 -41.5t-104.5 -111t-61.5 -155.5t-21.5 -179q0 -139 58.5 -220
t158.5 -81q95 0 174.5 65t125.5 177t46 245zM745 1296h74q-37 -120 -113 -190t-169 -70q-98 0 -159.5 71.5t-62.5 188.5h84q4 -81 39 -125.5t94 -44.5q57 0 116.5 48t96.5 122z" />
    <glyph glyph-name="Ohungarumlaut" unicode="&#x150;" horiz-adv-x="1286" 
d="M1245 850q0 -139 -30.5 -269.5t-89 -238.5t-138 -189t-183 -126t-218.5 -45q-237 0 -365.5 152.5t-128.5 426.5q0 74 11 152.5t36.5 162.5t62 161.5t91 146.5t121 120t155 81t189.5 30q226 0 356.5 -151.5t130.5 -413.5zM1139 872q0 207 -103 328t-278 121
q-89 0 -166.5 -29.5t-133.5 -78.5t-101 -115.5t-74 -138.5t-48.5 -150t-27.5 -147t-8 -132q0 -218 102 -336t287 -118q128 0 234 65t174.5 175t105.5 253.5t37 302.5zM942 1755l-297 -264h-76l158 264h215zM1243 1755l-297 -264h-76l160 264h213z" />
    <glyph glyph-name="ohungarumlaut" unicode="&#x151;" horiz-adv-x="862" 
d="M793 553q0 -134 -38 -245t-101 -180.5t-140.5 -107.5t-159.5 -38q-134 0 -225.5 100.5t-91.5 286.5q0 251 121 410t311 159q149 0 236.5 -104t87.5 -281zM696 553q0 138 -62.5 219.5t-168.5 81.5q-80 0 -144.5 -41.5t-104.5 -111t-61.5 -155.5t-21.5 -179
q0 -139 58.5 -220t158.5 -81q95 0 174.5 65t125.5 177t46 245zM952 1352l-311 -316h-68l215 316h164zM678 1352l-311 -316h-68l215 316h164z" />
    <glyph glyph-name="OE" unicode="&#x152;" horiz-adv-x="1990" 
d="M1911 1397l-15 -94h-618l-78 -545h584l-12 -94h-586l-80 -570h833l-12 -94h-1167q-153 0 -274 39t-195.5 100.5t-124 144t-69 163t-19.5 163.5q0 177 70.5 336t152.5 238q138 134 324.5 184.5t519.5 28.5h766zM1010 94l172 1209q-222 8 -285 6q-357 -11 -522 -193
q-191 -212 -191 -506q0 -239 146.5 -377.5t417.5 -138.5h262z" />
    <glyph glyph-name="oe" unicode="&#x153;" horiz-adv-x="1431" 
d="M1294 195l-14 -109q-69 -49 -152 -76.5t-163 -27.5q-112 0 -193.5 56t-116.5 157q-123 -213 -317 -213q-133 0 -221 109.5t-88 275.5q0 151 59.5 283t160 210t214.5 78q95 0 164 -52.5t104 -152.5q55 100 134 152.5t173 52.5q73 0 135 -28t108 -85t62.5 -143t-0.5 -201
h-604q-10 -85 -10 -135q0 -129 66 -204.5t178 -75.5q74 0 149.5 30t171.5 99zM752 561h514q15 121 -47 207t-170 86q-109 0 -193 -82t-104 -211zM655 594q0 120 -53.5 190t-144.5 70q-88 0 -164.5 -64.5t-122 -174.5t-45.5 -236q0 -140 60.5 -226.5t156.5 -86.5q97 0 170 78
t108 196t35 254z" />
    <glyph glyph-name="Racute" unicode="&#x154;" 
d="M276 1397h320q178 0 277.5 -102t99.5 -261q0 -144 -87 -246t-235 -133q31 -21 63 -66.5t81 -133.5l254 -455h-113l-234 418q-14 25 -33.5 60.5t-28 51t-22.5 38.5t-21 32t-20 22t-22 16.5t-24 9t-30.5 6.5t-37.5 1h-31h-162l-92 -655h-96zM360 1307l-77 -562h211h43
q154 0 241.5 77t87.5 210q0 46 -13.5 90.5t-43 88t-86.5 70t-135 26.5h-228zM1014 1751l-414 -260h-94l250 260h258z" />
    <glyph glyph-name="racute" unicode="&#x155;" horiz-adv-x="632" 
d="M276 920l-34 -252l4 -4q109 156 174.5 215t148.5 59q47 0 90 -18v-91q-54 25 -94 25q-133 0 -340 -307l-78 -547h-90l129 920h90zM702 1352l-311 -316h-67l215 316h163z" />
    <glyph glyph-name="Rcommaaccent" unicode="&#x156;" 
d="M276 1397h320q178 0 277.5 -102t99.5 -261q0 -144 -87 -246t-235 -133q31 -21 63 -66.5t81 -133.5l254 -455h-113l-234 418q-14 25 -33.5 60.5t-28 51t-22.5 38.5t-21 32t-20 22t-22 16.5t-24 9t-30.5 6.5t-37.5 1h-31h-162l-92 -655h-96zM360 1307l-77 -562h211h43
q154 0 241.5 77t87.5 210q0 46 -13.5 90.5t-43 88t-86.5 70t-135 26.5h-228zM250 -387l26 72q65 -5 114 0.5t75.5 16.5t43 28t21.5 32t5 31q0 45 -50.5 62.5t-158.5 11.5l14 76q33 4 61 4q43 0 79.5 -6t73 -20.5t58 -44.5t21.5 -73q0 -40 -15 -72.5t-36.5 -52.5t-54.5 -34.5
t-59 -21.5t-61 -10.5t-49.5 -4t-33.5 -0.5q-5 0 -74 6z" />
    <glyph glyph-name="rcommaaccent" unicode="&#x157;" horiz-adv-x="632" 
d="M276 920l-34 -252l4 -4q109 156 174.5 215t148.5 59q47 0 90 -18v-91q-54 25 -94 25q-133 0 -340 -307l-78 -547h-90l129 920h90zM-66 -352l23 78q85 -11 132.5 20t47.5 78q0 57 -80 49l21 72q153 15 153 -125q0 -27 -8 -53t-28.5 -53.5t-54 -44.5t-85 -25.5t-121.5 4.5z
" />
    <glyph glyph-name="Rcaron" unicode="&#x158;" 
d="M276 1397h320q178 0 277.5 -102t99.5 -261q0 -144 -87 -246t-235 -133q31 -21 63 -66.5t81 -133.5l254 -455h-113l-234 418q-14 25 -33.5 60.5t-28 51t-22.5 38.5t-21 32t-20 22t-22 16.5t-24 9t-30.5 6.5t-37.5 1h-31h-162l-92 -655h-96zM360 1307l-77 -562h211h43
q154 0 241.5 77t87.5 210q0 46 -13.5 90.5t-43 88t-86.5 70t-135 26.5h-228zM463 1491l-184 270h106l156 -178l307 178h104l-325 -270h-164z" />
    <glyph glyph-name="rcaron" unicode="&#x159;" horiz-adv-x="632" 
d="M276 920l-34 -252l4 -4q109 156 174.5 215t148.5 59q47 0 90 -18v-91q-54 25 -94 25q-133 0 -340 -307l-78 -547h-90l129 920h90zM346 1036l-18 404h73l43 -277l306 277h79l-368 -404h-115z" />
    <glyph glyph-name="Sacute" unicode="&#x15a;" horiz-adv-x="833" 
d="M797 1337l-25 -88q-83 42 -131 57t-100 15q-106 0 -182 -77.5t-76 -186.5q0 -64 25 -116.5t65.5 -91t89 -74.5t97 -75t89 -84t65.5 -111.5t25 -146.5q0 -162 -109 -269t-274 -107q-70 0 -157 28t-138 66l25 94q84 -53 141 -73.5t119 -20.5q121 0 204 74.5t83 209.5
q0 63 -25 118t-65.5 96t-89.5 79.5t-97.5 78.5t-89 83t-65.5 102t-25 127q0 158 105 264.5t260 106.5q69 0 142 -22t114 -56zM938 1751l-414 -260h-94l250 260h258z" />
    <glyph glyph-name="sacute" unicode="&#x15b;" horiz-adv-x="724" 
d="M678 852v-100q-163 102 -299 102q-77 0 -133 -38t-56 -93q0 -47 46 -92t111 -84.5t130.5 -82.5t111.5 -105.5t46 -135.5q0 -101 -87.5 -171t-213.5 -70q-170 0 -309 120l28 97q124 -133 285 -133q87 0 144 41.5t57 105.5q0 52 -45 101t-108.5 90t-127.5 83.5t-109 100
t-45 121.5q0 98 84 163.5t209 65.5q145 0 281 -86zM762 1352l-311 -316h-68l215 316h164z" />
    <glyph glyph-name="Scircumflex" unicode="&#x15c;" horiz-adv-x="833" 
d="M797 1337l-25 -88q-83 42 -131 57t-100 15q-106 0 -182 -77.5t-76 -186.5q0 -64 25 -116.5t65.5 -91t89 -74.5t97 -75t89 -84t65.5 -111.5t25 -146.5q0 -162 -109 -269t-274 -107q-70 0 -157 28t-138 66l25 94q84 -53 141 -73.5t119 -20.5q121 0 204 74.5t83 209.5
q0 63 -25 118t-65.5 96t-89.5 79.5t-97.5 78.5t-89 83t-65.5 102t-25 127q0 158 105 264.5t260 106.5q69 0 142 -22t114 -56zM733 1761l185 -270h-107l-156 178l-307 -178h-104l325 270h164z" />
    <glyph glyph-name="scircumflex" unicode="&#x15d;" horiz-adv-x="724" 
d="M678 852v-100q-163 102 -299 102q-77 0 -133 -38t-56 -93q0 -47 46 -92t111 -84.5t130.5 -82.5t111.5 -105.5t46 -135.5q0 -101 -87.5 -171t-213.5 -70q-170 0 -309 120l28 97q124 -133 285 -133q87 0 144 41.5t57 105.5q0 52 -45 101t-108.5 90t-127.5 83.5t-109 100
t-45 121.5q0 98 84 163.5t209 65.5q145 0 281 -86zM659 1440l19 -404h-74l-43 277l-305 -277h-80l369 404h114z" />
    <glyph glyph-name="uni015E" unicode="&#x15e;" horiz-adv-x="833" 
d="M416 -14l-25 -49q34 -13 54 -38.5t25 -44t5 -34.5q0 -7 -0.5 -15t-6.5 -29t-16.5 -39t-32.5 -40t-52.5 -37.5t-80 -26t-110.5 -10.5q-52 0 -92 4l29 74q121 -9 188.5 23.5t67.5 89.5q0 61 -105 73l58 97q-66 6 -141.5 34t-114.5 58l24 94q77 -49 135 -72.5t123 -23.5
q125 0 207 78t82 202q0 48 -14 91t-31.5 72.5t-52.5 63t-58 52t-67 49.5q-129 92 -181.5 183t-52.5 186q0 62 23.5 124.5t67 117t115.5 88.5t159 34q88 0 156.5 -26.5t99.5 -51.5l-25 -88q-69 37 -121.5 55.5t-107.5 18.5q-114 0 -188 -80.5t-74 -183.5q0 -37 7 -68.5
t24.5 -61t33.5 -51t49.5 -50.5t55.5 -46.5t67 -50.5q31 -23 51 -40t56 -55t57.5 -75t39 -92.5t17.5 -114.5q0 -45 -11 -91t-36.5 -92t-62 -83.5t-93 -65t-124.5 -36.5z" />
    <glyph glyph-name="uni015F" unicode="&#x15f;" horiz-adv-x="724" 
d="M322 -18l-29 -64q58 -16 86.5 -53.5t28.5 -81.5q0 -59 -35.5 -99t-82 -56.5t-105.5 -22.5t-90.5 -5t-53.5 3l29 65q23 0 37 0.5t42 2.5t46.5 6t42 12.5t37.5 20.5t24 30.5t10 42.5q0 21 -8.5 36t-18 22.5t-28.5 12t-29 5.5t-30 2l57 129q-130 28 -227 112l28 97
q42 -44 88.5 -73t87 -40.5t64.5 -15.5t45 -4q57 0 99 16t62.5 41t30 47.5t9.5 42.5q0 34 -19.5 67.5t-55.5 64t-80.5 61.5t-99.5 66q-8 5 -12 7q-168 106 -168 230q0 96 83.5 162.5t211.5 66.5q142 0 279 -86v-100q-163 102 -297 102q-80 0 -133 -40.5t-53 -92.5
q0 -28 14 -53.5t45 -51.5t58 -44.5t75 -47.5q44 -27 69 -44t64 -49t60.5 -59.5t38 -67t16.5 -81.5q0 -109 -94 -176.5t-219 -64.5z" />
    <glyph glyph-name="Scaron" unicode="&#x160;" horiz-adv-x="833" 
d="M797 1337l-25 -88q-83 42 -131 57t-100 15q-106 0 -182 -77.5t-76 -186.5q0 -64 25 -116.5t65.5 -91t89 -74.5t97 -75t89 -84t65.5 -111.5t25 -146.5q0 -162 -109 -269t-274 -107q-70 0 -157 28t-138 66l25 94q84 -53 141 -73.5t119 -20.5q121 0 204 74.5t83 209.5
q0 63 -25 118t-65.5 96t-89.5 79.5t-97.5 78.5t-89 83t-65.5 102t-25 127q0 158 105 264.5t260 106.5q69 0 142 -22t114 -56zM459 1491l-185 270h107l156 -178l307 178h104l-325 -270h-164z" />
    <glyph glyph-name="scaron" unicode="&#x161;" horiz-adv-x="724" 
d="M678 852v-100q-163 102 -299 102q-77 0 -133 -38t-56 -93q0 -47 46 -92t111 -84.5t130.5 -82.5t111.5 -105.5t46 -135.5q0 -101 -87.5 -171t-213.5 -70q-170 0 -309 120l28 97q124 -133 285 -133q87 0 144 41.5t57 105.5q0 52 -45 101t-108.5 90t-127.5 83.5t-109 100
t-45 121.5q0 98 84 163.5t209 65.5q145 0 281 -86zM375 1036l-19 404h74l43 -277l305 277h80l-369 -404h-114z" />
    <glyph glyph-name="Tcommaaccent" unicode="&#x162;" horiz-adv-x="937" 
d="M1059 1397l-12 -94h-414l-184 -1303h-97l185 1303h-414l12 94h924zM186 -387l27 72q80 -6 135 3t80 28t34 37.5t9 39.5q0 45 -50.5 62.5t-158.5 11.5l14 76q33 4 62 4q43 0 79.5 -6t73 -20.5t57.5 -44.5t21 -73q0 -40 -15 -72.5t-36.5 -52.5t-54.5 -34.5t-59 -21.5
t-61 -10.5t-49.5 -4t-33.5 -0.5q-5 0 -74 6z" />
    <glyph glyph-name="tcommaaccent" unicode="&#x163;" horiz-adv-x="595" 
d="M74 -352l22 78q85 -11 132.5 20t47.5 78q0 57 -79 49l20 72q83 8 118.5 -27t35.5 -98q0 -27 -8 -53t-28.5 -53.5t-54 -44.5t-85 -25.5t-121.5 4.5zM575 920l-10 -68h-258l-88 -594q-6 -40 -6 -74q0 -65 30.5 -98t98.5 -33q91 0 170 76v-84q-79 -65 -184 -65
q-203 0 -203 204q0 41 6 88l88 580h-168l10 68h168l31 210h86l-31 -210h260z" />
    <glyph glyph-name="Tcaron" unicode="&#x164;" horiz-adv-x="937" 
d="M1059 1397l-12 -94h-414l-184 -1303h-97l185 1303h-414l12 94h924zM502 1491l-185 270h107l156 -178l307 178h104l-325 -270h-164z" />
    <glyph glyph-name="tcaron" unicode="&#x165;" horiz-adv-x="806" 
d="M840 1397l-17 -123q-10 -77 -34.5 -136t-55 -91t-53.5 -47.5t-43 -22.5l10 59q78 70 86 174h-41l29 187h119zM575 920l-10 -68h-258l-88 -594q-6 -40 -6 -74q0 -65 30.5 -98t98.5 -33q91 0 170 76v-84q-79 -65 -184 -65q-203 0 -203 204q0 41 6 88l88 580h-168l10 68h168
l31 210h86l-31 -210h260z" />
    <glyph glyph-name="Tbar" unicode="&#x166;" horiz-adv-x="937" 
d="M551 743h369l-15 -90h-366l-101 -653h-96l98 653h-368l14 90h367l84 568h-414l14 86h922l-15 -86h-407z" />
    <glyph glyph-name="tbar" unicode="&#x167;" horiz-adv-x="575" 
d="M283 590h260l-17 -82h-260l-16 -86q-27 -148 -27 -213q0 -76 46.5 -117t97.5 -41q90 0 182 78v-84q-96 -63 -191 -63q-16 0 -37.5 3.5t-56.5 18.5t-62.5 39t-48 71.5t-20.5 110.5q0 52 27 207l14 76h-180l14 82h180l52 260h-179l15 70h174l39 210h90l-37 -210h248
l-10 -70h-250z" />
    <glyph glyph-name="Utilde" unicode="&#x168;" horiz-adv-x="1300" 
d="M1284 1397l-129 -903q-15 -107 -56 -194.5t-97 -145.5t-126 -97.5t-143 -57t-149 -17.5q-100 0 -189 37.5t-153 103t-94.5 165t-14.5 214.5l127 895h96l-125 -881q-16 -111 9 -198t80 -138.5t126 -77.5t154 -26q85 0 157 25t123 66.5t89 97.5t59.5 115t30.5 122l129 895
h96zM563 1491h-84q4 66 8.5 89.5t16.5 51.5q25 43 65.5 74t96.5 31q34 0 65.5 -10t53 -21.5t73.5 -42.5q2 -1 15 -8t22 -12t24.5 -12t27.5 -11.5t26 -8t24 -3.5q22 0 37.5 10t24 31.5t12.5 39t8 46.5h78q4 -123 -51 -185.5t-133 -62.5q-38 0 -76 14.5t-102 48.5
q-89 48 -110.5 58t-39.5 10q-23 0 -40 -13.5t-25.5 -35.5t-12 -41t-4.5 -37z" />
    <glyph glyph-name="utilde" unicode="&#x169;" horiz-adv-x="937" 
d="M868 920l-129 -920h-90l25 162l-4 4q-172 -184 -357 -184q-46 0 -89 17t-77 49.5t-50.5 87.5t-6.5 124l92 660h90l-92 -656q-12 -91 32 -144.5t130 -53.5q82 0 164 51.5t184 167.5l88 635h90zM829 1329h64q-18 -194 -164 -194q-61 0 -186 51q-120 49 -174 49
q-39 0 -59 -19.5t-23 -78.5h-64q-11 91 41.5 145.5t128.5 54.5q56 0 176 -49q115 -45 157 -50q9 -1 17 -1q42 0 61 20t25 72z" />
    <glyph glyph-name="Umacron" unicode="&#x16a;" horiz-adv-x="1300" 
d="M1284 1397l-129 -903q-15 -107 -56 -194.5t-97 -145.5t-126 -97.5t-143 -57t-149 -17.5q-100 0 -189 37.5t-153 103t-94.5 165t-14.5 214.5l127 895h96l-125 -881q-16 -111 9 -198t80 -138.5t126 -77.5t154 -26q85 0 157 25t123 66.5t89 97.5t59.5 115t30.5 122l129 895
h96zM1143 1630l-19 -102h-653l18 102h654z" />
    <glyph glyph-name="umacron" unicode="&#x16b;" horiz-adv-x="937" 
d="M868 920l-129 -920h-90l25 162l-4 4q-172 -184 -357 -184q-46 0 -89 17t-77 49.5t-50.5 87.5t-6.5 124l92 660h90l-92 -656q-12 -91 32 -144.5t130 -53.5q82 0 164 51.5t184 167.5l88 635h90zM848 1276l-14 -105h-547l14 105h547z" />
    <glyph glyph-name="Ubreve" unicode="&#x16c;" horiz-adv-x="1300" 
d="M1284 1397l-129 -903q-15 -107 -56 -194.5t-97 -145.5t-126 -97.5t-143 -57t-149 -17.5q-100 0 -189 37.5t-153 103t-94.5 165t-14.5 214.5l127 895h96l-125 -881q-16 -111 9 -198t80 -138.5t126 -77.5t154 -26q85 0 157 25t123 66.5t89 97.5t59.5 115t30.5 122l129 895
h96zM487 1733h113q21 -64 76 -101t112 -37q27 0 57.5 6t90 39.5t113.5 92.5h114q-68 -109 -173 -175.5t-212 -66.5q-106 0 -189.5 65t-101.5 177z" />
    <glyph glyph-name="ubreve" unicode="&#x16d;" horiz-adv-x="937" 
d="M868 920l-129 -920h-90l25 162l-4 4q-172 -184 -357 -184q-46 0 -89 17t-77 49.5t-50.5 87.5t-6.5 124l92 660h90l-92 -656q-12 -91 32 -144.5t130 -53.5q82 0 164 51.5t184 167.5l88 635h90zM756 1296h73q-37 -120 -113 -190t-169 -70q-98 0 -158.5 71.5t-62.5 188.5h84
q4 -81 39 -125.5t94 -44.5q57 0 116.5 48t96.5 122z" />
    <glyph glyph-name="Uring" unicode="&#x16e;" horiz-adv-x="1300" 
d="M1284 1397l-129 -903q-15 -107 -56 -194.5t-97 -145.5t-126 -97.5t-143 -57t-149 -17.5q-100 0 -189 37.5t-153 103t-94.5 165t-14.5 214.5l127 895h96l-125 -881q-16 -111 9 -198t80 -138.5t126 -77.5t154 -26q85 0 157 25t123 66.5t89 97.5t59.5 115t30.5 122l129 895
h96zM807 1917q88 0 150.5 -62t62.5 -151q0 -88 -62.5 -150.5t-150.5 -62.5q-89 0 -151 62.5t-62 150.5q0 89 62.5 151t150.5 62zM805 1851q-61 0 -104.5 -42.5t-43.5 -104.5q0 -60 43.5 -104t104.5 -44t105 44t44 104q0 62 -43.5 104.5t-105.5 42.5z" />
    <glyph glyph-name="uring" unicode="&#x16f;" horiz-adv-x="937" 
d="M868 920l-129 -920h-90l25 162l-4 4q-172 -184 -357 -184q-46 0 -89 17t-77 49.5t-50.5 87.5t-6.5 124l92 660h90l-92 -656q-12 -91 32 -144.5t130 -53.5q82 0 164 51.5t184 167.5l88 635h90zM442 1212q0 -49 34.5 -83.5t84.5 -34.5t84.5 34.5t34.5 83.5q0 50 -35 84.5
t-84 34.5t-84 -34.5t-35 -84.5zM385 1212q0 72 52 124.5t124 52.5t124 -52.5t52 -124.5t-52 -124t-124 -52t-124 52t-52 124z" />
    <glyph glyph-name="Uhungarumlaut" unicode="&#x170;" horiz-adv-x="1300" 
d="M1284 1397l-129 -903q-15 -107 -56 -194.5t-97 -145.5t-126 -97.5t-143 -57t-149 -17.5q-100 0 -189 37.5t-153 103t-94.5 165t-14.5 214.5l127 895h96l-125 -881q-16 -111 9 -198t80 -138.5t126 -77.5t154 -26q85 0 157 25t123 66.5t89 97.5t59.5 115t30.5 122l129 895
h96zM944 1755l-297 -264h-76l158 264h215zM1245 1755l-297 -264h-76l160 264h213z" />
    <glyph glyph-name="uhungarumlaut" unicode="&#x171;" horiz-adv-x="937" 
d="M868 920l-129 -920h-90l25 162l-4 4q-172 -184 -357 -184q-46 0 -89 17t-77 49.5t-50.5 87.5t-6.5 124l92 660h90l-92 -656q-12 -91 32 -144.5t130 -53.5q82 0 164 51.5t184 167.5l88 635h90zM999 1352l-311 -316h-67l215 316h163zM725 1352l-311 -316h-68l215 316h164z
" />
    <glyph glyph-name="Uogonek" unicode="&#x172;" horiz-adv-x="1294" 
d="M1040 -272l-12 -93q-58 -16 -110 -16q-102 0 -161 55t-59 121q0 105 105 232q-123 -45 -221 -45q-104 0 -192 36.5t-145 95.5t-88.5 132.5t-31.5 148.5q0 83 16 189l123 813h98l-124 -838q-15 -105 -15 -164q0 -103 56 -179t139 -111t178 -35q101 0 197.5 43t158.5 131
q42 61 69 129t44 186l123 838h98l-125 -850q-22 -151 -60 -233.5t-136 -213.5q-83 -112 -115.5 -168.5t-32.5 -107.5q0 -43 35.5 -75t93.5 -32q14 0 94 11z" />
    <glyph glyph-name="uogonek" unicode="&#x173;" horiz-adv-x="937" 
d="M874 -246l-12 -84q-58 -14 -98 -14q-91 0 -144 50t-53 110q0 95 84 196l23 154q-41 -39 -68.5 -62t-77 -56t-104.5 -49.5t-115 -16.5q-37 0 -74 13t-71.5 39t-56 71t-21.5 102q0 45 14 133l86 580h90l-90 -590q-10 -50 -10 -119t44.5 -111.5t117.5 -42.5q86 0 168 54.5
t184 173.5l92 635h90l-131 -920q-67 -91 -67 -158q0 -38 31.5 -67t85.5 -29q33 0 83 8z" />
    <glyph glyph-name="Wcircumflex" unicode="&#x174;" horiz-adv-x="1847" 
d="M1960 1397l-680 -1415h-41l-217 1165h-4l-533 -1165h-43l-303 1415h97l247 -1178h4l543 1178h39l219 -1178h4l563 1178h105zM1225 1761l184 -270h-106l-156 178l-307 -178h-105l326 270h164z" />
    <glyph glyph-name="wcircumflex" unicode="&#x175;" horiz-adv-x="1259" 
d="M838 182l376 738h91l-486 -938h-33l-122 725h-5l-360 -725h-33l-215 938h86l170 -738h4l365 738h37l121 -738h4zM926 1440l18 -404h-74l-43 277l-305 -277h-80l369 404h115z" />
    <glyph glyph-name="Ycircumflex" unicode="&#x176;" horiz-adv-x="944" 
d="M1083 1397l-522 -674l-100 -723h-96l100 723l-350 674h104l305 -578l443 578h116zM764 1761l184 -270h-106l-156 178l-307 -178h-105l326 270h164z" />
    <glyph glyph-name="ycircumflex" unicode="&#x177;" horiz-adv-x="768" 
d="M811 920l-727 -1391h-100l256 483l-174 908h90l145 -785h4l410 785h96zM688 1440l19 -404h-74l-43 277l-305 -277h-80l368 404h115z" />
    <glyph glyph-name="Ydieresis" unicode="&#x178;" horiz-adv-x="944" 
d="M1083 1397l-522 -674l-100 -723h-96l100 723l-350 674h104l305 -578l443 578h116zM961 1579q0 -34 -26.5 -63t-66.5 -29q-37 0 -63.5 26.5t-26.5 63.5t25.5 63.5t62.5 26.5q41 0 68 -26t27 -62zM457 1579q0 -37 -25 -63.5t-65 -26.5q-37 0 -62.5 26t-25.5 64t25 64t61 26
q40 0 66 -27t26 -63z" />
    <glyph glyph-name="Zacute" unicode="&#x179;" horiz-adv-x="1273" 
d="M168 94h989l-12 -94h-1159v33l1167 1270h-944l12 94h1114v-33zM1151 1751l-414 -260h-94l250 260h258z" />
    <glyph glyph-name="zacute" unicode="&#x17a;" horiz-adv-x="874" 
d="M893 920v-39l-760 -801h643l-12 -80h-801v37l770 803h-602l12 80h750zM805 1352l-311 -316h-68l215 316h164z" />
    <glyph glyph-name="Zdotaccent" unicode="&#x17b;" horiz-adv-x="1273" 
d="M168 94h989l-12 -94h-1159v33l1167 1270h-944l12 94h1114v-33zM905 1579q0 -36 -25.5 -63t-64.5 -27q-38 0 -64 26t-26 64t25.5 64t62.5 26q39 0 65.5 -27t26.5 -63z" />
    <glyph glyph-name="zdotaccent" unicode="&#x17c;" horiz-adv-x="874" 
d="M893 920v-39l-760 -801h643l-12 -80h-801v37l770 803h-602l12 80h750zM537 1305q37 0 63.5 -27t26.5 -64t-26.5 -63.5t-63.5 -26.5t-64 26.5t-27 63.5t27 64t64 27z" />
    <glyph glyph-name="Zcaron" unicode="&#x17d;" horiz-adv-x="1273" 
d="M168 94h989l-12 -94h-1159v33l1167 1270h-944l12 94h1114v-33zM672 1491l-185 270h107l156 -178l307 178h104l-325 -270h-164z" />
    <glyph glyph-name="zcaron" unicode="&#x17e;" horiz-adv-x="874" 
d="M893 920v-39l-760 -801h643l-12 -80h-801v37l770 803h-602l12 80h750zM449 1036l-19 404h74l43 -277l305 277h80l-369 -404h-114z" />
    <glyph glyph-name="uni018f" unicode="&#x18f;" horiz-adv-x="1286" 
d="M92 561q0 88 19 199h1022q6 55 6 112q0 207 -103 328t-278 121q-101 0 -216.5 -39.5t-224.5 -110.5l17 115q98 58 214.5 93.5t209.5 35.5q226 0 356.5 -151.5t130.5 -413.5q0 -139 -30.5 -269.5t-89 -238.5t-138 -189t-183 -126t-218.5 -45q-237 0 -365.5 152.5
t-128.5 426.5zM588 76q107 0 198.5 45.5t158 126t111 187t64.5 231.5h-913q-8 -65 -8 -136q0 -218 102 -336t287 -118z" />
    <glyph glyph-name="florin" unicode="&#x192;" horiz-adv-x="1130" 
d="M735 1067h223l-22 -96h-219l-248 -1141q-31 -142 -93.5 -201t-182.5 -59q-80 0 -179 31l23 100q95 -23 145 -23q70 0 107 33t55 117l246 1143h-168l18 96h168l49 213q10 40 27.5 75t47.5 68t79 52.5t111 19.5q61 0 182 -33l-21 -98q-81 20 -153 20q-74 0 -106.5 -39
t-55.5 -139z" />
    <glyph glyph-name="AEacute" unicode="&#x1fc;" horiz-adv-x="1599" 
d="M1561 1397l-13 -94h-598l-78 -547h558l-13 -94h-557l-82 -568h809l-12 -94h-905l94 662h-354l-418 -662h-109l881 1397h797zM854 1303h-39l-346 -547h307zM1608 1751l-414 -260h-94l250 260h258z" />
    <glyph glyph-name="aeacute" unicode="&#x1fd;" horiz-adv-x="1343" 
d="M1210 193l-14 -105q-59 -43 -151 -74.5t-162 -31.5q-95 0 -179 50t-112 124q-74 -76 -174 -125t-182 -49q-89 0 -147 53.5t-58 136.5q0 139 158 238t409 116l14 125q10 88 -32 145.5t-136 57.5q-155 0 -323 -160l-19 86q175 158 355 158q149 0 223 -145
q61 76 125.5 110.5t144.5 34.5q110 0 188.5 -62t110.5 -166t15 -229h-588q-29 -174 -29 -219q0 -87 63.5 -141.5t163.5 -54.5q164 0 336 127zM684 561h498q14 125 -50 209t-176 84q-105 0 -177 -74t-95 -219zM553 215l33 238q-127 -13 -230.5 -47t-171 -94.5t-67.5 -137.5
q0 -45 37 -76.5t90 -31.5q60 0 142.5 39.5t166.5 109.5zM1040 1352l-311 -316h-67l215 316h163z" />
    <glyph glyph-name="Oslashacute" unicode="&#x1fe;" horiz-adv-x="1286" 
d="M303 57l-82 -127l-59 37l88 135q-67 59 -112.5 176.5t-45.5 282.5q0 74 11 152.5t36.5 162.5t62 161.5t91 146.5t121 120t155 81t189.5 30q88 0 167.5 -26t116.5 -62l68 105l53 -35l-69 -109q73 -76 112 -190.5t39 -247.5q0 -139 -30.5 -269.5t-89 -238.5t-138 -189
t-183 -126t-218.5 -45q-89 0 -153.5 19t-129.5 56zM305 190l684 1055q-95 76 -231 76q-89 0 -166.5 -29.5t-133.5 -78.5t-101 -115.5t-74 -138.5t-48.5 -150t-27.5 -147t-8 -132q0 -215 106 -340zM1036 1198l-676 -1053q85 -69 228 -69q128 0 234 65t174.5 175t105.5 253.5
t37 302.5q0 208 -103 326zM1149 1751l-414 -260h-94l250 260h258z" />
    <glyph glyph-name="oslashacute" unicode="&#x1ff;" horiz-adv-x="862" 
d="M649 889l84 131l64 -43l-90 -141q90 -104 90 -283q0 -134 -38 -245t-101 -180.5t-140.5 -107.5t-159.5 -38q-37 0 -71.5 8.5t-51.5 16.5t-47 24l-86 -133l-65 39l94 145q-90 111 -90 287q0 251 121 410t311 159q102 0 176 -49zM651 752l-415 -650q63 -36 118 -36
q95 0 174.5 65t125.5 177t46 245q0 123 -49 199zM184 166l416 647q-64 41 -131 41q-80 0 -144.5 -41.5t-104.5 -111t-61.5 -155.5t-21.5 -179q0 -128 47 -201zM795 1352l-312 -316h-67l215 316h164z" />
    <glyph glyph-name="uni0218" unicode="&#x218;" horiz-adv-x="833" 
d="M797 1337l-25 -88q-83 42 -131 57t-100 15q-106 0 -182 -77.5t-76 -186.5q0 -64 25 -116.5t65.5 -91t89 -74.5t97 -75t89 -84t65.5 -111.5t25 -146.5q0 -162 -109 -269t-274 -107q-70 0 -157 28t-138 66l25 94q84 -53 141 -73.5t119 -20.5q121 0 204 74.5t83 209.5
q0 63 -25 118t-65.5 96t-89.5 79.5t-97.5 78.5t-89 83t-65.5 102t-25 127q0 158 105 264.5t260 106.5q69 0 142 -22t114 -56zM102 -387l27 72q80 -6 135 3t80 28t34 37.5t9 39.5q0 45 -50.5 62.5t-158.5 11.5l15 76q33 4 61 4q43 0 79.5 -6t73 -20.5t57.5 -44.5t21 -73
q0 -40 -15 -72.5t-36.5 -52.5t-54.5 -34.5t-59 -21.5t-61 -10.5t-49.5 -4t-33.5 -0.5q-5 0 -74 6z" />
    <glyph glyph-name="uni0219" unicode="&#x219;" horiz-adv-x="724" 
d="M678 852v-100q-163 102 -299 102q-77 0 -133 -38t-56 -93q0 -47 46 -92t111 -84.5t130.5 -82.5t111.5 -105.5t46 -135.5q0 -101 -87.5 -171t-213.5 -70q-170 0 -309 120l28 97q124 -133 285 -133q87 0 144 41.5t57 105.5q0 52 -45 101t-108.5 90t-127.5 83.5t-109 100
t-45 121.5q0 98 84 163.5t209 65.5q145 0 281 -86zM94 -352l23 78q85 -11 132.5 20t47.5 78q0 57 -80 49l21 72q153 15 153 -125q0 -27 -8 -53t-28.5 -53.5t-54 -44.5t-85 -25.5t-121.5 4.5z" />
    <glyph glyph-name="uni021A" unicode="&#x21a;" horiz-adv-x="937" 
d="M1059 1397l-12 -94h-414l-184 -1303h-97l185 1303h-414l12 94h924zM186 -387l27 72q80 -6 135 3t80 28t34 37.5t9 39.5q0 45 -50.5 62.5t-158.5 11.5l14 76q33 4 62 4q43 0 79.5 -6t73 -20.5t57.5 -44.5t21 -73q0 -40 -15 -72.5t-36.5 -52.5t-54.5 -34.5t-59 -21.5
t-61 -10.5t-49.5 -4t-33.5 -0.5q-5 0 -74 6z" />
    <glyph glyph-name="uni021B" unicode="&#x21b;" horiz-adv-x="595" 
d="M74 -352l22 78q85 -11 132.5 20t47.5 78q0 57 -79 49l20 72q83 8 118.5 -27t35.5 -98q0 -27 -8 -53t-28.5 -53.5t-54 -44.5t-85 -25.5t-121.5 4.5zM575 920l-10 -68h-258l-88 -594q-6 -40 -6 -74q0 -65 30.5 -98t98.5 -33q91 0 170 76v-84q-79 -65 -184 -65
q-203 0 -203 204q0 41 6 88l88 580h-168l10 68h168l31 210h86l-31 -210h260z" />
    <glyph glyph-name="uni0259" unicode="&#x259;" horiz-adv-x="862" 
d="M37 369q0 97 22 190h637q-2 135 -64.5 215t-166.5 80q-110 0 -281 -76l15 96q131 64 270 64q149 0 236.5 -104t87.5 -281q0 -134 -38 -245t-101 -180.5t-140.5 -107.5t-159.5 -38q-134 0 -225.5 100.5t-91.5 286.5zM350 66q130 0 226.5 117.5t115.5 295.5h-551
q-8 -49 -8 -112q0 -139 58.5 -220t158.5 -81z" />
    <glyph glyph-name="circumflex" unicode="&#x2c6;" horiz-adv-x="681" 
d="M637 1440l18 -404h-73l-43 277l-306 -277h-79l368 404h115z" />
    <glyph glyph-name="caron" unicode="&#x2c7;" horiz-adv-x="681" 
d="M352 1036l-18 404h74l43 -277l305 277h80l-369 -404h-115z" />
    <glyph glyph-name="uni02C9" unicode="&#x2c9;" horiz-adv-x="681" 
d="M719 1276l-14 -105h-547l14 105h547z" />
    <glyph glyph-name="breve" unicode="&#x2d8;" horiz-adv-x="681" 
d="M627 1296h73q-37 -120 -113 -190t-169 -70q-98 0 -158.5 71.5t-62.5 188.5h84q4 -81 39 -125.5t94 -44.5q57 0 116.5 48t96.5 122z" />
    <glyph glyph-name="dotaccent" unicode="&#x2d9;" horiz-adv-x="681" 
d="M440 1305q37 0 63.5 -27t26.5 -64t-26.5 -63.5t-63.5 -26.5t-63.5 26.5t-26.5 63.5t26.5 64t63.5 27z" />
    <glyph glyph-name="ring" unicode="&#x2da;" horiz-adv-x="681" 
d="M313 1212q0 -49 34.5 -83.5t84.5 -34.5t84.5 34.5t34.5 83.5q0 50 -34.5 84.5t-84.5 34.5t-84.5 -34.5t-34.5 -84.5zM256 1212q0 72 52 124.5t124 52.5t124 -52.5t52 -124.5t-52 -124t-124 -52t-124 52t-52 124z" />
    <glyph glyph-name="ogonek" unicode="&#x2db;" horiz-adv-x="681" 
d="M412 -246l-13 -84q-57 -14 -98 -14q-85 0 -141 46.5t-56 115.5q0 91 91 202h98q-90 -115 -90 -182q0 -41 35.5 -69.5t87.5 -28.5q26 0 86 14z" />
    <glyph glyph-name="tilde" unicode="&#x2dc;" horiz-adv-x="681" 
d="M700 1329h64q-18 -194 -164 -194q-61 0 -186 51q-120 49 -174 49q-39 0 -59 -19.5t-23 -78.5h-64q-11 91 41.5 145.5t128.5 54.5q56 0 176 -49q115 -45 157 -50q9 -1 17 -1q42 0 61 20t25 72z" />
    <glyph glyph-name="hungarumlaut" unicode="&#x2dd;" horiz-adv-x="681" 
d="M870 1352l-311 -316h-67l215 316h163zM596 1352l-311 -316h-68l215 316h164z" />
    <glyph glyph-name="uni03A9" unicode="&#x3a9;" horiz-adv-x="1372" 
d="M1262 0h-416v88q46 41 82.5 80t82 103.5t75 133t50.5 165.5t21 204q0 171 -52.5 304t-160.5 211.5t-256 78.5q-144 0 -254 -77t-168.5 -211t-58.5 -304q0 -104 19.5 -198t49.5 -163t74 -134t83.5 -107.5t88.5 -85.5v-88h-418v88h304q-42 36 -79.5 77.5t-80.5 107
t-74 137.5t-51.5 169.5t-20.5 202.5q0 190 73 344t207.5 243t305.5 89q176 0 307 -85t199 -237t68 -352q0 -119 -27.5 -230t-73.5 -198t-97 -152.5t-108 -115.5h306v-88z" />
    <glyph glyph-name="uni03BC" unicode="&#x3bc;" horiz-adv-x="972" 
d="M160 80l-115 -430h-90l326 1270h90l-156 -609q-26 -105 26.5 -175t161.5 -70q92 0 170 36t135.5 101t98.5 146t67 179l103 392h90l-236 -920h-90l43 166l-4 4q-91 -97 -186.5 -142.5t-210.5 -45.5q-72 0 -121 22t-102 76z" />
    <glyph glyph-name="pi" unicode="&#x3c0;" horiz-adv-x="1204" 
d="M1128 10q-39 -22 -106 -22q-108 0 -160.5 67.5t-52.5 175.5v705h-420v-676q0 -155 -24 -260h-105q27 111 27 260v676q-44 -2 -103 -14t-98 -29q-9 25 -33 84q110 47 258 47h815v-88h-213v-696q0 -164 129 -164q27 0 62 14q20 -68 24 -80z" />
    <glyph glyph-name="Wgrave" unicode="&#x1e80;" horiz-adv-x="1847" 
d="M1960 1397l-680 -1415h-41l-217 1165h-4l-533 -1165h-43l-303 1415h97l247 -1178h4l543 1178h39l219 -1178h4l563 1178h105zM725 1751h258l250 -260h-94z" />
    <glyph glyph-name="wgrave" unicode="&#x1e81;" horiz-adv-x="1259" 
d="M838 182l376 738h91l-486 -938h-33l-122 725h-5l-360 -725h-33l-215 938h86l170 -738h4l365 738h37l121 -738h4zM449 1352h163l215 -316h-67z" />
    <glyph glyph-name="Wacute" unicode="&#x1e82;" horiz-adv-x="1847" 
d="M1960 1397l-680 -1415h-41l-217 1165h-4l-533 -1165h-43l-303 1415h97l247 -1178h4l543 1178h39l219 -1178h4l563 1178h105zM1419 1751l-413 -260h-95l250 260h258z" />
    <glyph glyph-name="wacute" unicode="&#x1e83;" horiz-adv-x="1259" 
d="M838 182l376 738h91l-486 -938h-33l-122 725h-5l-360 -725h-33l-215 938h86l170 -738h4l365 738h37l121 -738h4zM997 1352l-311 -316h-68l216 316h163z" />
    <glyph glyph-name="Wdieresis" unicode="&#x1e84;" horiz-adv-x="1847" 
d="M1960 1397l-680 -1415h-41l-217 1165h-4l-533 -1165h-43l-303 1415h97l247 -1178h4l543 1178h39l219 -1178h4l563 1178h105zM1425 1579q0 -34 -26 -63t-66 -29q-37 0 -63.5 26.5t-26.5 63.5t25.5 63.5t62.5 26.5q40 0 67 -26t27 -62zM922 1579q0 -37 -25.5 -63.5
t-65.5 -26.5q-37 0 -62.5 26t-25.5 64t25 64t61 26q40 0 66.5 -27t26.5 -63z" />
    <glyph glyph-name="wdieresis" unicode="&#x1e85;" horiz-adv-x="1259" 
d="M838 182l376 738h91l-486 -938h-33l-122 725h-5l-360 -725h-33l-215 938h86l170 -738h4l365 738h37l121 -738h4zM555 1305q37 0 63.5 -27t26.5 -64t-26.5 -63.5t-63.5 -26.5t-63.5 26.5t-26.5 63.5t26.5 64t63.5 27zM879 1305q37 0 63.5 -27t26.5 -64t-26.5 -63.5
t-63.5 -26.5t-64 26.5t-27 63.5t27 64t64 27z" />
    <glyph glyph-name="Ygrave" unicode="&#x1ef2;" horiz-adv-x="944" 
d="M1083 1397l-522 -674l-100 -723h-96l100 723l-350 674h104l305 -578l443 578h116zM199 1751h258l250 -260h-95z" />
    <glyph glyph-name="ygrave" unicode="&#x1ef3;" horiz-adv-x="768" 
d="M811 920l-727 -1391h-100l256 483l-174 908h90l145 -785h4l410 785h96zM203 1352h164l215 -316h-68z" />
    <glyph glyph-name="endash" unicode="&#x2013;" horiz-adv-x="1024" 
d="M1036 551v-68h-1048v68h1048z" />
    <glyph glyph-name="emdash" unicode="&#x2014;" horiz-adv-x="2048" 
d="M2060 551v-68h-2072v68h2072z" />
    <glyph glyph-name="quoteleft" unicode="&#x2018;" horiz-adv-x="342" 
d="M328 1165l-25 -182h-121l23 162q11 82 62 159t116 93l-8 -60q-76 -62 -88 -172h41z" />
    <glyph glyph-name="quoteright" unicode="&#x2019;" horiz-adv-x="342" 
d="M219 1214l25 183h121l-23 -162q-11 -82 -62 -159t-116 -93l8 59q76 62 88 172h-41z" />
    <glyph glyph-name="quotesinglbase" unicode="&#x201a;" horiz-adv-x="342" 
d="M49 0l25 182h121l-23 -162q-7 -52 -31 -105t-63.5 -94t-83.5 -52l8 59q76 62 88 172h-41z" />
    <glyph glyph-name="quotedblleft" unicode="&#x201c;" horiz-adv-x="768" 
d="M766 1165l-25 -182h-120l22 162q11 82 62 159t116 93l-8 -60q-76 -62 -88 -172h41zM403 1165l-24 -182h-121l23 162q11 82 62 159t116 93l-8 -60q-77 -63 -89 -172h41z" />
    <glyph glyph-name="quotedblright" unicode="&#x201d;" horiz-adv-x="768" 
d="M594 1214l24 183h121l-22 -162q-11 -82 -62 -159t-116 -93l8 59q76 62 88 172h-41zM229 1214l25 183h121l-23 -162q-11 -82 -62 -159t-116 -93l8 59q76 62 88 172h-41z" />
    <glyph glyph-name="quotedblbase" unicode="&#x201e;" horiz-adv-x="768" 
d="M438 0l25 182h121l-23 -162q-7 -52 -31 -105t-63.5 -94t-83.5 -52l8 59q76 62 88 172h-41zM74 0l24 182h121l-22 -162q-7 -52 -31.5 -105t-64 -94t-83.5 -52l9 59q76 62 88 172h-41z" />
    <glyph glyph-name="dagger" unicode="&#x2020;" horiz-adv-x="980" 
d="M975 854l-14 -102l-396 16l-153 -1239h-131l219 1239l-412 -16l14 102l406 -20l61 581h125l-121 -581z" />
    <glyph glyph-name="daggerdbl" unicode="&#x2021;" horiz-adv-x="917" 
d="M909 920l-14 -113l-373 16l-24 -381l-76 -329l377 16l-15 -104l-372 22l-43 -518h-123l100 518l-373 -22l17 104l366 -16l25 376l76 334l-373 -16l16 113l365 -29l45 524h135l-115 -524z" />
    <glyph glyph-name="bullet" unicode="&#x2022;" horiz-adv-x="1026" 
d="M543 948q103 0 176.5 -73.5t73.5 -176.5t-73.5 -176t-176.5 -73t-176.5 73t-73.5 176t73.5 176.5t176.5 73.5z" />
    <glyph glyph-name="ellipsis" unicode="&#x2026;" horiz-adv-x="2048" 
d="M1698 199v-199h-133v199h133zM1016 199v-199h-133v199h133zM334 199v-199h-133v199h133z" />
    <glyph glyph-name="perthousand" unicode="&#x2030;" horiz-adv-x="2152" 
d="M2152 305q0 -136 -97 -233t-232 -97q-137 0 -233.5 96.5t-96.5 233.5t96.5 233.5t233.5 96.5q135 0 232 -97t97 -233zM2064 305q0 100 -70.5 171t-170.5 71q-99 0 -170.5 -71.5t-71.5 -170.5q0 -101 71 -171.5t171 -70.5t170.5 71t70.5 171zM1393 305q0 -136 -97.5 -233
t-232.5 -97q-137 0 -233.5 96.5t-96.5 233.5t96.5 233.5t233.5 96.5q135 0 232.5 -97t97.5 -233zM1305 305q0 100 -71 171t-171 71q-99 0 -170.5 -71.5t-71.5 -170.5q0 -101 71 -171.5t171 -70.5t171 71t71 171zM723 1085q0 -136 -97.5 -232.5t-232.5 -96.5
q-137 0 -233.5 96.5t-96.5 232.5q0 137 96.5 233.5t233.5 96.5q135 0 232.5 -97t97.5 -233zM635 1085q0 100 -71 171t-171 71q-99 0 -170 -71.5t-71 -170.5q0 -101 70.5 -171t170.5 -70t171 70.5t71 170.5zM1323 1409l-1124 -1432h-103l1127 1432h100z" />
    <glyph glyph-name="guilsinglleft" unicode="&#x2039;" horiz-adv-x="468" 
d="M444 934l-335 -467l180 -453h-96l-181 457l336 463h96z" />
    <glyph glyph-name="guilsinglright" unicode="&#x203a;" horiz-adv-x="468" 
d="M-23 14l336 467l-180 453h96l181 -457l-336 -463h-97z" />
    <glyph glyph-name="fraction" unicode="&#x2044;" horiz-adv-x="342" 
d="M760 1415l-1100 -1470h-80l1100 1470h80z" />
    <glyph glyph-name="Euro" unicode="&#x20ac;" horiz-adv-x="1030" 
d="M309 860h627l-18 -92h-637q-15 -63 -21 -135h627l-19 -92h-612q9 -223 103.5 -345t228.5 -122q57 0 112.5 12.5t106 37t75 38.5t62.5 39l-14 -115q-181 -104 -348 -104q-82 0 -156.5 35.5t-134.5 103t-97 176.5t-40 244h-117l18 92h103q5 67 20 135h-141l18 92h150
q46 139 120.5 247t163.5 174t185.5 100t195.5 34q25 0 48 -1.5t46.5 -6t34 -6.5t35 -8.5t25.5 -6.5l-23 -90q-94 29 -166 29q-183 0 -335 -130t-226 -335z" />
    <glyph glyph-name="afii61289" unicode="&#x2113;" horiz-adv-x="950" 
d="M778 115q-116 -140 -248 -140q-90 0 -143 56q-70 73 -70 227v277q-21 -23 -61 -71t-61 -71q-52 46 -62 58q31 37 92.5 109.5t91.5 109.5v497q0 161 56 242.5t157 81.5q86 0 130.5 -61t44.5 -136q0 -135 -58 -266.5t-166 -284.5q-25 -39 -61 -84v-415q0 -93 35 -137
t90 -44q50 0 93 30t89 81q8 -10 25.5 -29.5t25.5 -29.5zM606 1286q0 47 -19 82t-59 35q-51 0 -79.5 -54t-28.5 -190v-354q23 31 37 53q149 237 149 428z" />
    <glyph glyph-name="trademark" unicode="&#x2122;" horiz-adv-x="1921" 
d="M205 1462h635v-84h-265v-729h-104v729h-266v84zM934 1462h153l203 -649h4l213 649h154v-813h-92v729h-4l-240 -729h-70l-225 729h-4v-729h-92v813z" />
    <glyph glyph-name="Omega" unicode="&#x2126;" horiz-adv-x="1372" 
d="M1262 0h-416v88q46 41 82.5 80t82 103.5t75 133t50.5 165.5t21 204q0 171 -52.5 304t-160.5 211.5t-256 78.5q-144 0 -254 -77t-168.5 -211t-58.5 -304q0 -104 19.5 -198t49.5 -163t74 -134t83.5 -107.5t88.5 -85.5v-88h-418v88h304q-42 36 -79.5 77.5t-80.5 107
t-74 137.5t-51.5 169.5t-20.5 202.5q0 190 73 344t207.5 243t305.5 89q176 0 307 -85t199 -237t68 -352q0 -119 -27.5 -230t-73.5 -198t-97 -152.5t-108 -115.5h306v-88z" />
    <glyph glyph-name="estimated" unicode="&#x212e;" horiz-adv-x="1304" 
d="M1231 584h-899v-402q131 -131 317 -131q275 0 430 266q45 -28 74 -45q-98 -148 -214.5 -222.5t-289.5 -74.5q-169 0 -300 82.5t-199 220t-68 306.5q0 170 67.5 307t198.5 219t303 82q132 0 241 -47.5t181 -130t112.5 -192.5t45.5 -238zM973 659v324q-136 133 -324 133
q-192 0 -317 -131v-326h641z" />
    <glyph glyph-name="onethird" unicode="&#x2153;" horiz-adv-x="1662" 
d="M506 1407l-123 -727h-80l127 727h76zM1421 1415l-1099 -1470h-80l1099 1470h80zM1008 49l10 60q102 -64 203 -64q55 0 97.5 17t66 44.5t34.5 56.5t11 58q0 26 -8.5 46.5t-19 34t-30.5 24t-33 15t-37.5 8.5t-32 4.5t-28.5 2.5l8 45q99 0 146 23q37 17 62.5 49t25.5 74
q0 19 -7.5 39.5t-25 43.5t-54.5 37.5t-89 14.5q-49 0 -83.5 -12t-88.5 -41l10 65l49.5 21t51.5 14.5t71 7.5q111 0 176.5 -57t65.5 -131q0 -15 -3 -29.5t-16 -44.5t-48.5 -57t-90.5 -45q110 -53 110 -154q0 -92 -76 -160.5t-208 -68.5q-124 0 -219 59z" />
    <glyph glyph-name="twothirds" unicode="&#x2154;" horiz-adv-x="1662" 
d="M1446 1415l-1100 -1470h-80l1100 1470h80zM598 739l-10 -59h-504q178 156 334 334q58 66 88.5 116.5t35.5 71t5 43.5q0 34 -13.5 58.5t-35.5 35t-40.5 15t-35.5 4.5q-36 0 -72 -10.5t-61 -23.5t-86 -46l14 76q124 61 215 61q34 0 66.5 -9t62 -27.5t48 -52t18.5 -77.5
q0 -47 -25 -99t-98 -140q-71 -88 -254 -271h348zM1008 49l10 60q102 -64 203 -64q55 0 97.5 17t66 44.5t34.5 56.5t11 58q0 26 -8.5 46.5t-19 34t-30.5 24t-33 15t-37.5 8.5t-32 4.5t-28.5 2.5l8 45q99 0 148 23q36 17 61 49t25 74q0 19 -7.5 39.5t-24.5 43.5t-54 37.5
t-88 14.5t-85.5 -12t-88.5 -41l10 65q32 14 49 21t52.5 14.5t72.5 7.5q109 0 174.5 -57t65.5 -131q0 -15 -3 -29.5t-16 -44.5t-48.5 -57t-90.5 -45q110 -53 110 -154q0 -92 -76 -160.5t-208 -68.5q-124 0 -219 59z" />
    <glyph glyph-name="oneeighth" unicode="&#x215b;" horiz-adv-x="1662" 
d="M1468 381q44 -16 71 -46t34.5 -55t7.5 -49q0 -93 -82 -167t-205 -74q-104 0 -173.5 58.5t-69.5 144.5q0 23 6.5 47t23.5 55t56 57.5t96 40.5q-25 12 -42 24.5t-34.5 42t-17.5 68.5q0 88 75.5 148.5t180.5 60.5q106 0 161.5 -54.5t55.5 -125.5q0 -11 -1 -21.5t-9 -33.5
t-21.5 -42.5t-43 -41.5t-69.5 -37zM1528 555q0 47 -32 85t-103 38q-74 0 -121 -46.5t-47 -105.5q0 -49 40 -80.5t103 -31.5q78 0 119 43.5t41 97.5zM1497 227q0 19 -7 39t-23.5 42t-51.5 36t-82 14q-98 0 -149 -52.5t-51 -117.5q0 -60 42 -102.5t119 -42.5q84 0 143.5 52.5
t59.5 131.5zM1421 1415l-1099 -1470h-80l1099 1470h80zM510 1407l-127 -727h-80l129 727h78z" />
    <glyph glyph-name="threeeighths" unicode="&#x215c;" horiz-adv-x="1662" 
d="M1468 381q44 -16 71 -46t34.5 -55t7.5 -49q0 -100 -85.5 -170.5t-201.5 -70.5q-104 0 -173.5 58.5t-69.5 144.5q0 11 1 23t11 40.5t27 51.5t54.5 47.5t88.5 37.5q-92 45 -92 135q0 88 74.5 148.5t179.5 60.5q106 0 162.5 -54.5t56.5 -125.5q0 -15 -3 -30t-15 -44
t-45 -56.5t-83 -45.5zM1528 555q0 47 -32 85t-103 38q-74 0 -121 -46.5t-47 -105.5q0 -49 40 -80.5t103 -31.5q44 0 77 15t50 38t25 45.5t8 42.5zM1497 227q0 19 -7 39t-23.5 42t-51.5 36t-82 14q-97 0 -148.5 -53t-51.5 -117q0 -60 42 -102.5t121 -42.5q83 0 142 53t59 131
zM1446 1415l-1100 -1470h-80l1100 1470h80zM100 727l11 59q33 -18 53 -28t63 -21.5t86 -11.5q56 0 98.5 17t65.5 44.5t34 56.5t11 58q0 126 -186 133l6 47q98 0 147 23q36 17 61 48.5t25 74.5q0 15 -4 30.5t-16 34.5t-30 33.5t-50.5 24.5t-73.5 10q-51 0 -85.5 -11.5
t-88.5 -41.5l11 65q32 14 49 21t52.5 14.5t72.5 7.5q110 0 175.5 -56t65.5 -130q0 -11 -1 -21t-9.5 -34t-23.5 -43.5t-47.5 -42t-77.5 -37.5q110 -53 110 -154q0 -92 -76 -159.5t-209 -67.5q-123 0 -219 57z" />
    <glyph glyph-name="fiveeighths" unicode="&#x215d;" horiz-adv-x="1662" 
d="M1468 381q44 -16 71 -46t34.5 -55t7.5 -49q0 -100 -85.5 -170.5t-201.5 -70.5q-104 0 -173.5 58.5t-69.5 144.5q0 11 1 23t11 40.5t27 51.5t54.5 47.5t88.5 37.5q-25 12 -42 24.5t-34.5 42t-17.5 68.5q0 88 75.5 148.5t180.5 60.5q106 0 161.5 -54.5t55.5 -125.5
q0 -11 -1 -21.5t-9 -33.5t-21.5 -42.5t-43 -41.5t-69.5 -37zM1528 555q0 47 -32 85t-103 38q-74 0 -121 -46.5t-47 -105.5q0 -49 40 -80.5t103 -31.5q44 0 77 15t50 38t25 45.5t8 42.5zM1497 227q0 19 -7 39t-23.5 42t-51.5 36t-82 14q-98 0 -149 -52.5t-51 -117.5
q0 -60 42 -102.5t119 -42.5q84 0 143.5 52.5t59.5 131.5zM664 1407l-11 -57h-295l-36 -209q69 5 123 -9t85 -37.5t51 -55.5t26.5 -59t6.5 -52q0 -105 -87.5 -181.5t-217.5 -76.5q-126 0 -219 65l31 51q31 -18 53 -29t58.5 -20.5t74.5 -9.5q90 0 157.5 57t67.5 146
q0 77 -53.5 117t-132.5 40q-42 0 -115 -18l60 338h373zM1421 1415l-1099 -1470h-80l1099 1470h80z" />
    <glyph glyph-name="seveneighths" unicode="&#x215e;" horiz-adv-x="1662" 
d="M1468 381q44 -16 71 -46t34.5 -55t7.5 -49q0 -100 -85.5 -170.5t-201.5 -70.5q-104 0 -173.5 58.5t-69.5 144.5q0 11 1 23t11 40.5t27 51.5t54.5 47.5t88.5 37.5q-25 12 -42 24.5t-34.5 42t-17.5 68.5q0 88 75.5 148.5t180.5 60.5q106 0 161.5 -54.5t55.5 -125.5
q0 -11 -1 -21.5t-9 -33.5t-21.5 -42.5t-43 -41.5t-69.5 -37zM1528 555q0 47 -32 85t-103 38q-74 0 -121 -46.5t-47 -105.5q0 -49 40 -80.5t103 -31.5q44 0 77 15t50 38t25 45.5t8 42.5zM1497 227q0 19 -7 39t-23.5 42t-51.5 36t-82 14q-98 0 -149 -52.5t-51 -117.5
q0 -60 42 -102.5t119 -42.5q84 0 143.5 52.5t59.5 131.5zM702 1407l-432 -727h-82l398 672h-398l7 55h507zM1409 1415l-1100 -1470h-80l1100 1470h80z" />
    <glyph glyph-name="partialdiff" unicode="&#x2202;" horiz-adv-x="1099" 
d="M997 1034q0 -189 -53 -407q-23 -92 -54 -178t-79.5 -173.5t-106 -151t-136 -104t-165.5 -40.5q-140 0 -225.5 98t-85.5 262q0 185 73 344t194 250.5t257 91.5q97 0 163.5 -43.5t99.5 -110.5h4q12 90 12 162q0 363 -277 363q-93 0 -178 -51q-20 54 -32 79
q36 23 100.5 41.5t120.5 18.5q174 0 271 -114.5t97 -336.5zM864 748q-23 87 -87 138.5t-165 51.5q-110 0 -206.5 -83.5t-153.5 -222t-57 -294.5q0 -126 59.5 -198t155.5 -72q152 0 271.5 179t182.5 501z" />
    <glyph glyph-name="Delta" unicode="&#x2206;" horiz-adv-x="1144" 
d="M1102 0h-1059v61q81 229 240.5 686t240.5 687h103q190 -545 475 -1373v-61zM983 90q-64 185 -190 553t-189 553q-8 23 -29 109h-4q-22 -87 -30 -109q-63 -185 -189 -553.5t-190 -552.5h821z" />
    <glyph glyph-name="product" unicode="&#x220f;" horiz-adv-x="1366" 
d="M1192 -471h-102v1814h-811v-1814h-103v1905h1016v-1905z" />
    <glyph glyph-name="summation" unicode="&#x2211;" horiz-adv-x="1206" 
d="M1149 -471h-1102v39q335 460 672 921q-103 148 -310.5 446.5t-310.5 446.5v52h998v-88h-856q115 -167 328.5 -475t262.5 -379q-568 -784 -634 -875h952v-88z" />
    <glyph glyph-name="minus" unicode="&#x2212;" horiz-adv-x="1351" 
d="M166 764h1073v-90h-1073v90z" />
    <glyph glyph-name="uni2215" unicode="&#x2215;" horiz-adv-x="342" 
d="M760 1415l-1100 -1470h-80l1100 1470h80z" />
    <glyph glyph-name="uni2219" unicode="&#x2219;" horiz-adv-x="575" 
d="M319 819q46 0 78.5 -32t32.5 -78t-32.5 -78.5t-78.5 -32.5t-78 32.5t-32 78.5t32 78t78 32z" />
    <glyph glyph-name="radical" unicode="&#x221a;" horiz-adv-x="944" 
d="M969 1491q-64 -253 -191 -758t-192 -758h-86q-40 105 -134 354t-145 382q-20 -10 -57 -31t-49 -27q-33 70 -37 76q102 53 201 105q43 -115 130 -344.5t130 -344.5q56 224 167 672.5t168 673.5h95z" />
    <glyph glyph-name="infinity" unicode="&#x221e;" horiz-adv-x="1480" 
d="M1370 602q0 -129 -80.5 -217t-208.5 -88q-112 0 -199 62t-143 157h-4q-61 -96 -145.5 -157.5t-179.5 -61.5q-139 0 -220 84t-81 211q0 134 78.5 219.5t213.5 85.5q62 0 117 -20t96.5 -54.5t70 -69t52.5 -73.5h4q141 217 330 217q130 0 214.5 -81t84.5 -214zM1270 600
q0 91 -51.5 150t-147.5 59q-86 0 -154 -54t-133 -157q58 -102 132.5 -157.5t152.5 -55.5q98 0 149.5 61t51.5 154zM694 598q-52 93 -130.5 152t-155.5 59q-100 0 -149.5 -60.5t-49.5 -156.5q0 -93 56 -150t143 -57q154 0 286 213z" />
    <glyph glyph-name="integral" unicode="&#x222b;" horiz-adv-x="946" 
d="M782 1425q-38 19 -88 19q-84 0 -127 -54.5t-43 -154.5v-1387q0 -140 -73 -218.5t-197 -78.5q-73 0 -117 21q1 3 10.5 35t14.5 49q50 -16 88 -16q172 0 172 206v1391q0 137 72.5 216t199.5 79q32 0 65.5 -7t47.5 -16q-4 -14 -12.5 -42t-12.5 -42z" />
    <glyph glyph-name="approxequal" unicode="&#x2248;" horiz-adv-x="1351" 
d="M1147 860q-114 -166 -268 -166q-108 0 -217 70q-114 70 -191 70q-55 0 -107 -37t-92 -99l-65 66q53 77 115 120.5t151 43.5q112 0 217 -68q116 -72 191 -72q110 0 200 136zM1147 434q-115 -164 -268 -164q-108 0 -217 70q-114 70 -191 70q-55 0 -107.5 -37t-91.5 -101
l-65 68q53 77 115 120.5t151 43.5q109 0 217 -70q111 -69 191 -69q56 0 107.5 36t92.5 99z" />
    <glyph glyph-name="notequal" unicode="&#x2260;" horiz-adv-x="1351" 
d="M1122 338h-530l-139 -291h-99l142 291h-265v94h312l159 332h-471v94h517l139 291h98l-141 -291h278v-94h-323l-160 -332h483v-94z" />
    <glyph glyph-name="lessequal" unicode="&#x2264;" horiz-adv-x="1351" 
d="M1122 0h-891v94h891v-94zM1122 264l-891 424v45l891 422v-106l-723 -336v-4l723 -338v-107z" />
    <glyph glyph-name="greaterequal" unicode="&#x2265;" horiz-adv-x="1351" 
d="M1122 0h-891v94h891v-94zM1122 688l-891 -424v107l723 336v4l-723 338v106l891 -422v-45z" />
    <glyph glyph-name="lozenge" unicode="&#x25ca;" horiz-adv-x="1056" 
d="M940 717q-64 -120 -191.5 -358.5t-191.5 -358.5h-61q-64 119 -191.5 357.5t-191.5 357.5q63 120 191.5 359.5t191.5 359.5h61q63 -120 191 -358.5t192 -358.5zM840 717q-39 74 -148 273.5t-166 309.5q-52 -98 -156.5 -292t-156.5 -291q52 -97 155.5 -291.5t155.5 -292.5
q76 142 316 584z" />
    <glyph glyph-name="one.alt" unicode="&#xe000;" horiz-adv-x="1069" 
d="M557 0h-94l182 1229l-4 4q-71 -75 -139.5 -130.5t-179.5 -131.5l24 131q162 121 228.5 180.5t125.5 132.5h68z" />
    <glyph glyph-name="zero.fitted" unicode="&#xf639;" 
d="M1012 932q0 -177 -38.5 -346t-107.5 -304t-175.5 -217.5t-231.5 -82.5q-169 0 -258.5 133.5t-89.5 355.5q0 72 9 154t30 174t51 179t76 167t101 139.5t130 95t160 35.5q76 0 136.5 -29t99 -75.5t63.5 -110.5t35 -130t10 -138zM915 922q0 193 -66.5 300t-186.5 107
q-77 0 -145 -44t-116.5 -117.5t-86.5 -164.5t-61 -189.5t-34.5 -188.5t-11.5 -166q0 -184 67.5 -287.5t186.5 -103.5q71 0 133.5 35.5t107.5 93.5t82 134.5t61 157t40 163t23 150t7 120.5z" />
    <glyph glyph-name="two.fitted" unicode="&#xf63a;" horiz-adv-x="925" 
d="M811 86l-12 -86h-799q98 93 204.5 215.5t153 182t160.5 206.5q131 170 189.5 281.5t58.5 208.5q0 106 -63.5 170.5t-167.5 64.5q-76 0 -155.5 -31.5t-186.5 -105.5l16 108q101 60 176.5 87.5t165.5 27.5q140 0 226.5 -87t86.5 -228q0 -46 -10 -93.5t-36.5 -104.5
t-52.5 -105.5t-78 -120.5t-91 -125t-114.5 -143.5t-126.5 -150.5t-146 -171h602z" />
    <glyph glyph-name="three.fitted" unicode="&#xf63b;" horiz-adv-x="958" 
d="M219 1249l12 90q138 76 279 76q163 0 273 -101.5t110 -252.5q0 -59 -17 -109.5t-41 -83.5t-63.5 -64.5t-70 -48.5t-74.5 -38q186 -107 186 -305q0 -186 -132 -308t-333 -122t-348 104l12 84q165 -102 328 -102q165 0 270 99t105 255q0 126 -86.5 198t-231.5 74l11 66
q84 -1 152 16t112.5 45.5t74.5 67.5t43 80.5t13 85.5q0 118 -88.5 196t-222.5 78q-130 0 -273 -80z" />
    <glyph glyph-name="four.fitted" unicode="&#xf63c;" horiz-adv-x="962" 
d="M918 545l-9 -68h-229l-68 -477h-92l68 477h-572l7 39l757 899h31l-121 -870h228zM682 1190l-541 -645h457l88 641z" />
    <glyph glyph-name="five.fitted" unicode="&#xf63d;" horiz-adv-x="976" 
d="M936 1397l-12 -86h-502l-62 -439q61 9 95 9q175 0 287 -114.5t112 -293.5q0 -134 -66 -247t-180.5 -178.5t-251.5 -65.5q-94 0 -185.5 30.5t-160.5 85.5l39 76q141 -106 305 -106q166 0 284 118t118 285q0 148 -92 236t-244 88q-85 0 -166 -25l88 627h594z" />
    <glyph glyph-name="six.fitted" unicode="&#xf63e;" horiz-adv-x="991" 
d="M750 1397l-435 -625l4 -4q68 45 130 66.5t141 21.5q146 0 232.5 -89t86.5 -241q0 -106 -39.5 -206.5t-104.5 -174.5t-152.5 -118.5t-180.5 -44.5q-149 0 -248.5 107.5t-99.5 270.5q0 126 55.5 252.5t155.5 272.5l352 512h103zM811 535q0 106 -61 170.5t-162 64.5
q-169 0 -287.5 -121t-118.5 -293q0 -134 67.5 -211t180.5 -77q101 0 189.5 64t140 172t51.5 231z" />
    <glyph glyph-name="seven.fitted" unicode="&#xf63f;" horiz-adv-x="909" 
d="M977 1397l-717 -1397h-98l672 1311h-684l12 86h815z" />
    <glyph glyph-name="eight.fitted" unicode="&#xf640;" 
d="M741 733v2v-4q100 -23 156.5 -102t56.5 -193q0 -123 -63.5 -227.5t-170.5 -165.5t-231 -61q-164 0 -277.5 107.5t-113.5 270.5q0 62 19 122.5t57 116t103 97t149 56.5v4q-176 73 -176 264q0 166 118.5 280.5t290.5 114.5q154 0 252.5 -94t98.5 -242q0 -114 -70 -212
t-199 -134zM911 1073q0 114 -70.5 185t-181.5 71q-129 0 -220 -90t-91 -217q0 -104 74.5 -170t191.5 -66q72 0 130.5 26.5t94 69.5t54 92.5t18.5 98.5zM856 426q0 123 -82.5 198.5t-216.5 75.5q-157 0 -258.5 -97.5t-101.5 -248.5q0 -132 85 -210t207 -76q153 2 260 105.5
t107 252.5z" />
    <glyph glyph-name="nine.fitted" unicode="&#xf641;" horiz-adv-x="991" 
d="M305 0l455 651l-4 4q-130 -110 -279 -110q-143 0 -232 90.5t-89 236.5q0 65 18 137t57.5 144.5t94.5 130.5t135.5 94.5t173.5 36.5q154 0 250 -104.5t96 -274.5q0 -216 -193 -493l-376 -543h-107zM883 1044q0 129 -67 207t-179 78q-153 0 -268 -139t-115 -322
q0 -109 60 -173t163 -64q167 0 286.5 122t119.5 291z" />
    <glyph glyph-name="zero.taboldstyle" unicode="&#xf643;" horiz-adv-x="1021" 
d="M61 360q0 83 18 164t58 156t96.5 132t140 91.5t183.5 34.5q78 0 143.5 -20.5t120 -64t85 -120t30.5 -178.5q0 -41 -5.5 -86.5t-20.5 -102.5t-38 -109t-62.5 -103t-89.5 -88.5t-123 -60.5t-159 -23q-104 0 -180 32t-117.5 88t-60.5 120t-19 138zM172 369q0 -83 23 -144
t63 -94t86 -48t100 -15q72 0 132.5 24t100.5 64t70 89t46.5 104.5t24 103.5t7.5 92q0 61 -13 112t-43 97t-87 72t-137 26q-90 0 -163 -41.5t-118 -110.5t-68.5 -154t-23.5 -177z" />
    <glyph glyph-name="one.taboldstyle" unicode="&#xf644;" horiz-adv-x="1021" 
d="M520 0h-94l115 774l-265 -199l25 130l311 233h45z" />
    <glyph glyph-name="two.taboldstyle" unicode="&#xf645;" horiz-adv-x="1021" 
d="M815 84l-12 -84h-678q25 20 85 66.5t99.5 77.5t99.5 81t100.5 88.5t86.5 89t74 92t46.5 88t18.5 87.5q0 30 -10 59.5t-31 59t-61.5 47.5t-95.5 18q-56 0 -108.5 -15.5t-96 -45t-69.5 -51.5t-58 -54v98q33 31 55.5 49t67 46t98.5 42.5t115 14.5q79 0 138.5 -25.5t91 -66.5
t46 -82.5t14.5 -81.5q0 -59 -24 -120t-62 -114.5t-103.5 -118.5t-128 -118t-155.5 -127h457z" />
    <glyph glyph-name="three.taboldstyle" unicode="&#xf646;" horiz-adv-x="1021" 
d="M731 836h-532l8 84h700l-493 -617q50 1 99 -12t93.5 -42.5t79 -72t54.5 -103.5t20 -134q0 -121 -60 -216t-154.5 -144.5t-203.5 -49.5q-30 0 -60 3t-56.5 8.5t-50 11.5t-46.5 15.5t-39.5 16t-36 17t-28.5 15.5t-24 14t-17 10l26 84q184 -111 324 -111q137 0 228 86.5
t91 224.5q0 80 -24.5 140t-68 95t-97 51.5t-117.5 16.5q-52 0 -106 -10z" />
    <glyph glyph-name="four.taboldstyle" unicode="&#xf647;" horiz-adv-x="1021" 
d="M786 938l-124 -864h229l-10 -74h-230l-69 -471h-95l68 471h-584v27l795 911h20zM567 74l95 631l-547 -631h452z" />
    <glyph glyph-name="five.taboldstyle" unicode="&#xf648;" horiz-adv-x="1021" 
d="M901 920l-14 -84h-412l-162 -531q81 17 125 17q175 0 284 -97t109 -264q0 -100 -40.5 -183.5t-107 -136.5t-149 -82.5t-169.5 -29.5q-176 0 -353 117l33 80q164 -113 324 -113q107 0 190.5 50.5t125.5 126.5t42 161q0 33 -8.5 68.5t-31 76t-56.5 72t-91.5 52t-129.5 20.5
q-115 0 -240 -54l238 734h493z" />
    <glyph glyph-name="six.taboldstyle" unicode="&#xf649;" horiz-adv-x="1021" 
d="M725 1356l-422 -615q39 31 69.5 50.5t94 42t129.5 22.5q35 0 72 -7t82.5 -29t79.5 -56.5t57.5 -95.5t23.5 -140q0 -138 -63 -264t-173.5 -204t-238.5 -78q-105 0 -185 54t-120.5 139t-40.5 185q0 80 24 164t72.5 174t86 148.5t100.5 148.5l278 402zM815 535
q0 107 -63 172t-160 65q-78 0 -146 -26.5t-114.5 -69.5t-80.5 -98t-49.5 -112t-15.5 -110q0 -63 17.5 -113t44 -80.5t61 -50.5t65.5 -28t60 -8q74 0 137.5 29t107.5 77t75.5 108.5t46 123t14.5 121.5z" />
    <glyph glyph-name="seven.taboldstyle" unicode="&#xf64a;" horiz-adv-x="1021" 
d="M934 920l-719 -1391l-80 39l668 1268h-647l10 84h768z" />
    <glyph glyph-name="eight.taboldstyle" unicode="&#xf64b;" horiz-adv-x="1021" 
d="M680 737q113 -26 172 -109.5t59 -191.5q0 -185 -137 -319.5t-328 -134.5q-170 0 -280.5 109.5t-110.5 266.5q0 153 96.5 260.5t249.5 131.5q-98 39 -147 105t-49 169q0 162 120 276.5t289 114.5q78 0 141 -23t101.5 -59t64.5 -81.5t36 -88t10 -82.5q0 -129 -80.5 -220.5
t-206.5 -123.5zM864 1077q0 110 -70.5 182t-177.5 72q-75 0 -136 -30t-97.5 -76.5t-56 -98.5t-19.5 -102q0 -104 74.5 -170t189.5 -66q120 0 206.5 83.5t86.5 205.5zM809 430q0 27 -6 57.5t-25 71t-50 71.5t-86.5 53t-127.5 22q-84 0 -153 -29.5t-112.5 -79t-67 -111
t-23.5 -127.5q0 -37 8 -75t28.5 -78.5t51.5 -71t83 -50.5t117 -20q90 0 161.5 34t114 88.5t65 117.5t22.5 127z" />
    <glyph glyph-name="nine.taboldstyle" unicode="&#xf64c;" horiz-adv-x="1021" 
d="M266 -416l432 598q-32 -25 -50.5 -37.5t-59.5 -36t-86.5 -34.5t-95.5 -11q-35 0 -72.5 7t-82.5 29t-79.5 56.5t-58 95.5t-23.5 140q0 138 63 264t173.5 204.5t238.5 78.5q64 0 124.5 -23.5t110.5 -68.5t80.5 -119.5t30.5 -167.5q0 -131 -57 -256.5t-172 -294.5
q-116 -170 -340 -479zM186 385q0 -107 63.5 -172.5t160.5 -65.5q72 0 134 21.5t105 57t76 79.5t52 91.5t28.5 89.5t9.5 77q0 63 -17.5 113t-44.5 80.5t-61 51t-65 28.5t-60 8q-109 0 -198 -69t-136 -173.5t-47 -216.5z" />
    <glyph glyph-name="zero.denominator" unicode="&#xf655;" horiz-adv-x="661" 
d="M625 483q0 -66 -13 -133.5t-40.5 -132t-66.5 -115t-95.5 -81.5t-122.5 -31q-22 0 -45.5 4t-56 20t-56.5 42t-41.5 76t-17.5 116q0 54 10.5 115t36.5 128.5t63.5 121.5t97 89t132.5 35q100 0 157.5 -66t57.5 -188zM543 481q0 93 -35 146t-100 53q-59 0 -109.5 -43.5
t-81.5 -110.5t-48 -142t-17 -144q0 -56 13 -96t35 -59.5t44 -27.5t45 -8q63 0 114.5 47.5t80.5 118t44 140.5t15 126z" />
    <glyph glyph-name="one.denominator" unicode="&#xf656;" horiz-adv-x="661" 
d="M449 727l-127 -727h-80l129 727h78z" />
    <glyph glyph-name="two.denominator" unicode="&#xf657;" horiz-adv-x="661" 
d="M514 59l-10 -59h-504q178 156 334 334q58 67 88.5 117.5t35.5 70.5t5 43q0 34 -13.5 58.5t-35.5 35t-40.5 15t-35.5 4.5q-36 0 -72 -10.5t-61 -23.5t-86 -46l14 76q40 19 63 29.5t67 22t85 11.5q45 0 87.5 -15.5t75 -55t32.5 -97.5q0 -46 -25 -98t-98 -141
q-82 -99 -254 -271h348z" />
    <glyph glyph-name="three.denominator" unicode="&#xf658;" horiz-adv-x="661" 
d="M4 49l10 60q107 -64 203 -64q56 0 98.5 17t65.5 44.5t34 56.5t11 58q0 30 -9 53t-28.5 37t-34.5 23t-43 13.5t-38 5.5t-33 3l6 45q98 0 147 23q36 17 61 48.5t25 74.5q0 19 -7.5 39.5t-24.5 43.5t-54 37.5t-88 14.5q-35 0 -66 -7.5t-49.5 -16t-58.5 -29.5l10 65
q32 14 49 21t52.5 14.5t72.5 7.5q110 0 176 -57t66 -131q0 -11 -1 -21t-9.5 -33.5t-23.5 -43t-48 -42t-78 -36.5q111 -54 111 -154q0 -92 -76 -160.5t-209 -68.5q-124 0 -219 59z" />
    <glyph glyph-name="four.denominator" unicode="&#xf659;" horiz-adv-x="661" 
d="M522 737l-73 -444h135l-9 -49h-135l-41 -244h-80l41 244h-329v28l452 465h39zM369 291l49 295l-285 -295h236z" />
    <glyph glyph-name="five.denominator" unicode="&#xf65a;" horiz-adv-x="661" 
d="M602 727l-10 -57h-293l-37 -209q69 5 123 -9t85 -37.5t51 -55t27 -59t7 -52.5q0 -104 -88 -181t-217 -77q-128 0 -219 65l30 54q34 -20 53 -30t57 -21t77 -11q89 0 157 57t68 146q0 78 -53.5 118t-134.5 40q-36 0 -113 -19l59 338h371z" />
    <glyph glyph-name="six.denominator" unicode="&#xf65b;" horiz-adv-x="661" 
d="M481 727l-245 -309q76 33 133 33q23 0 47.5 -4.5t53 -16.5t49.5 -30.5t35.5 -50.5t14.5 -73q0 -111 -86.5 -198.5t-206.5 -87.5q-100 0 -158.5 60.5t-58.5 137.5q0 73 36 141t106 154l194 244h86zM487 279q0 60 -36.5 88t-83.5 28q-86 0 -157 -58t-71 -149
q0 -66 39.5 -101.5t95.5 -35.5q91 0 152 70t61 158z" />
    <glyph glyph-name="seven.denominator" unicode="&#xf65c;" horiz-adv-x="661" 
d="M606 727l-430 -727h-84l397 672h-397l6 55h508z" />
    <glyph glyph-name="eight.denominator" unicode="&#xf65d;" horiz-adv-x="661" 
d="M465 381q44 -16 71 -46t34.5 -55t7.5 -49q0 -100 -85 -170.5t-202 -70.5q-104 0 -173 58t-69 145q0 11 1 23t10.5 40.5t27 51.5t54 47.5t87.5 37.5q-92 45 -92 135q0 88 74.5 148.5t179.5 60.5q106 0 162.5 -54.5t56.5 -125.5q0 -15 -3 -30t-14.5 -44t-44.5 -56.5
t-83 -45.5zM526 555q0 44 -32 83.5t-103 39.5q-76 0 -123 -46.5t-47 -105.5q0 -49 40.5 -80.5t103.5 -31.5q45 0 78.5 15.5t50 39t24.5 45.5t8 41zM494 227q0 19 -7 39t-23.5 42t-51.5 36t-82 14q-97 0 -148 -53t-51 -117q0 -60 42 -102.5t120 -42.5q83 0 142 53t59 131z
" />
    <glyph glyph-name="nine.denominator" unicode="&#xf65e;" horiz-adv-x="661" 
d="M166 0l246 309q-66 -30 -127 -30q-102 0 -152.5 53.5t-50.5 118.5q0 48 20.5 97.5t57.5 92t94 69.5t123 27q96 0 155.5 -56t59.5 -146q0 -56 -25.5 -115.5t-91.5 -140.5l-221 -279h-88zM512 541q0 70 -40 103.5t-93 33.5q-94 0 -154.5 -72.5t-60.5 -156.5q0 -15 4 -31.5
t15 -37t37 -33.5t63 -13q93 0 161 60t68 147z" />
    <glyph glyph-name="zero.numerator" unicode="&#xf661;" horiz-adv-x="661" 
d="M686 1163q0 -84 -21.5 -168.5t-61.5 -158t-107 -120t-150 -46.5q-22 0 -45.5 4t-56 20t-56.5 42t-41.5 75t-17.5 115q0 54 11 115.5t37 129t63.5 121t97 88.5t131.5 35q101 0 159 -65.5t58 -186.5zM604 1161q0 92 -36 145.5t-101 53.5q-77 0 -137.5 -74.5t-88.5 -173
t-28 -192.5q0 -56 13 -96.5t35 -60t43 -28t44 -8.5q52 0 96 32t73 81t49 109t29 114t9 98z" />
    <glyph glyph-name="one.numerator" unicode="&#xf662;" horiz-adv-x="661" 
d="M510 1407l-127 -727h-80l129 727h78z" />
    <glyph glyph-name="two.numerator" unicode="&#xf663;" horiz-adv-x="661" 
d="M598 739l-8 -59h-506q232 207 347.5 345.5t115.5 219.5q0 52 -33 82.5t-90 30.5q-37 0 -80 -14t-65 -25.5t-74 -40.5l12 76q71 35 117 48t96 13q88 0 142.5 -46.5t54.5 -121.5q0 -80 -80.5 -186t-296.5 -322h348z" />
    <glyph glyph-name="three.numerator" unicode="&#xf664;" horiz-adv-x="661" 
d="M229 1307l9 65q94 43 174 43q103 0 172 -54t69 -134q0 -58 -42 -104.5t-117 -71.5q59 -29 83.5 -65.5t24.5 -92.5q0 -98 -78 -160.5t-200 -62.5q-128 0 -220 65l7 60q104 -60 204 -60q99 0 153 43.5t54 118.5q0 137 -186 137l6 47q117 -6 173 38t58 108q1 58 -46.5 94.5
t-125.5 36.5q-48 0 -80.5 -9t-91.5 -42z" />
    <glyph glyph-name="four.numerator" unicode="&#xf665;" horiz-adv-x="661" 
d="M584 1415l-74 -444h135l-8 -47h-137l-39 -244h-80l39 244h-330v26l453 465h41zM430 971l49 293l-286 -293h237z" />
    <glyph glyph-name="five.numerator" unicode="&#xf666;" horiz-adv-x="661" 
d="M664 1407l-11 -57h-295l-34 -209q68 5 122 -9t84.5 -37.5t50.5 -55.5t26.5 -59t6.5 -52q0 -105 -87.5 -181.5t-217.5 -76.5q-126 0 -219 65l31 51q34 -19 54 -29t57 -20t75 -10q90 0 157.5 57t67.5 146q0 77 -53.5 117t-132.5 40q-39 0 -115 -18l60 338h373z" />
    <glyph glyph-name="six.numerator" unicode="&#xf667;" horiz-adv-x="661" 
d="M555 1407l-246 -309q74 32 133 32q24 0 48 -4t52 -16t49.5 -30.5t35.5 -50.5t14 -73q0 -111 -86.5 -198.5t-206.5 -87.5q-100 0 -158.5 59.5t-58.5 136.5q0 73 36 140.5t107 156.5l195 244h86zM559 958q0 60 -36 87.5t-83 27.5q-86 0 -156.5 -57t-70.5 -148
q0 -68 39 -102.5t96 -34.5q90 0 150.5 70t60.5 157z" />
    <glyph glyph-name="seven.numerator" unicode="&#xf668;" horiz-adv-x="661" 
d="M702 1407l-430 -727h-84l398 672h-398l7 55h507z" />
    <glyph glyph-name="eight.numerator" unicode="&#xf669;" horiz-adv-x="661" 
d="M526 1061q63 -23 87 -66.5t24 -83.5q0 -101 -85 -171t-202 -70q-103 0 -172 57.5t-69 142.5q0 11 1 23t11 41t27 52.5t54.5 48.5t88.5 38q-94 41 -94 133q0 89 75 149t181 60t161.5 -54t55.5 -124q0 -12 -1 -22.5t-8.5 -33.5t-21.5 -42t-43.5 -41t-69.5 -37zM586 1233
q0 19 -6 39t-20 40t-42.5 33t-66.5 13q-75 0 -122.5 -47t-47.5 -105q0 -50 40.5 -81t104.5 -31q44 0 77.5 15.5t50 38.5t24.5 44.5t8 40.5zM555 905q0 19 -7 39t-23.5 42t-51.5 36t-82 14q-99 0 -150 -52t-51 -118q0 -60 42 -101.5t120 -41.5q84 0 143.5 52.5t59.5 129.5z
" />
    <glyph glyph-name="nine.numerator" unicode="&#xf66a;" horiz-adv-x="661" 
d="M238 680l247 309q-1 -1 -13 -6t-14.5 -6t-13.5 -5.5t-15.5 -5.5t-15 -3.5t-18 -3.5t-18 -2t-21.5 -1q-53 0 -94 16.5t-63 43.5t-32.5 56t-10.5 58q0 103 83 194t212 91q96 0 155.5 -55.5t59.5 -145.5q0 -55 -25.5 -115t-91.5 -143l-223 -276h-88zM586 1219
q0 71 -40.5 105t-94.5 34q-93 0 -154 -73.5t-61 -156.5q0 -15 4 -31.5t15 -36.5t36.5 -33t62.5 -13q94 0 163 59.5t69 145.5z" />
    <glyph glyph-name="abreve.sc" unicode="&#xf66d;" horiz-adv-x="815" 
d="M719 0h-92l-78 348h-330l-160 -348h-92l453 1001h76zM530 434l-90 402l-182 -402h272zM164 1341h112q20 -63 75.5 -99t113.5 -36q135 0 260 135h115q-68 -108 -172.5 -174.5t-212.5 -66.5q-106 0 -189.5 64.5t-101.5 176.5z" />
    <glyph glyph-name="amacron.sc" unicode="&#xf66e;" horiz-adv-x="815" 
d="M719 0h-92l-78 348h-330l-160 -348h-92l453 1001h76zM530 434l-90 402l-182 -402h272zM813 1241l-18 -102h-654l19 102h653z" />
    <glyph glyph-name="aogonek.sc" unicode="&#xf66f;" horiz-adv-x="815" 
d="M858 -246l-12 -84q-57 -14 -98 -14q-85 0 -141 46.5t-56 115.5q0 82 76 184l-78 346h-330l-160 -348h-92l453 1001h76l223 -1001q-70 -101 -70 -162q0 -41 35.5 -69.5t87.5 -28.5q26 0 86 14zM530 434l-90 402l-182 -402h272z" />
    <glyph glyph-name="aeacute.sc" unicode="&#xf670;" horiz-adv-x="1216" 
d="M1133 86l-13 -86h-633l64 459h-217l-281 -459h-102l606 991h557l-12 -86h-402l-49 -360h375l-12 -86h-375l-51 -373h545zM610 905h-4l-217 -360h172zM1274 1360l-414 -260h-94l250 260h258z" />
    <glyph glyph-name="cacute.sc" unicode="&#xf671;" horiz-adv-x="825" 
d="M801 985l-10 -82q-88 12 -123 12q-148 0 -269.5 -76t-186.5 -192.5t-65 -243.5q0 -139 82.5 -234t204.5 -95q144 0 314 114l-17 -106q-70 -43 -151 -68.5t-146 -25.5q-68 0 -135 27.5t-123 78t-90.5 131t-34.5 176.5q0 112 46 220t125.5 192.5t197 136t250.5 51.5
q60 0 131 -16zM975 1360l-414 -260h-94l250 260h258z" />
    <glyph glyph-name="ccaron.sc" unicode="&#xf672;" horiz-adv-x="825" 
d="M801 985l-10 -82q-88 12 -123 12q-148 0 -269.5 -76t-186.5 -192.5t-65 -243.5q0 -139 82.5 -234t204.5 -95q144 0 314 114l-17 -106q-70 -43 -151 -68.5t-146 -25.5q-68 0 -135 27.5t-123 78t-90.5 131t-34.5 176.5q0 112 46 220t125.5 192.5t197 136t250.5 51.5
q60 0 131 -16zM516 1100l-184 270h106l156 -178l307 178h105l-326 -270h-164z" />
    <glyph glyph-name="ccircumflex.sc" unicode="&#xf673;" horiz-adv-x="825" 
d="M801 985l-10 -82q-88 12 -123 12q-148 0 -269.5 -76t-186.5 -192.5t-65 -243.5q0 -139 82.5 -234t204.5 -95q144 0 314 114l-17 -106q-70 -43 -151 -68.5t-146 -25.5q-68 0 -135 27.5t-123 78t-90.5 131t-34.5 176.5q0 112 46 220t125.5 192.5t197 136t250.5 51.5
q60 0 131 -16zM725 1370l184 -270h-106l-156 178l-307 -178h-104l325 270h164z" />
    <glyph glyph-name="cdotaccent.sc" unicode="&#xf674;" horiz-adv-x="825" 
d="M801 985l-10 -82q-88 12 -123 12q-148 0 -269.5 -76t-186.5 -192.5t-65 -243.5q0 -139 82.5 -234t204.5 -95q144 0 314 114l-17 -106q-70 -43 -151 -68.5t-146 -25.5q-68 0 -135 27.5t-123 78t-90.5 131t-34.5 176.5q0 112 46 220t125.5 192.5t197 136t250.5 51.5
q60 0 131 -16zM729 1239q0 -35 -26 -62.5t-64 -27.5t-64 27t-26 65t25.5 64t62.5 26q39 0 65.5 -28t26.5 -64z" />
    <glyph glyph-name="dcaron.sc" unicode="&#xf675;" horiz-adv-x="886" 
d="M838 485q0 -215 -141 -350t-355 -135h-313l135 991h178q73 0 144.5 -20.5t135 -63.5t111.5 -102t76.5 -142t28.5 -178zM741 485q0 126 -58.5 223t-155.5 147t-214 50h-67l-115 -819h186q94 0 169.5 25.5t122 65.5t77.5 94t43 107t12 107zM373 1100l-185 270h107l156 -178
l307 178h104l-325 -270h-164z" />
    <glyph glyph-name="dcroat.sc" unicode="&#xf676;" horiz-adv-x="886" 
d="M12 537h90l62 454h178q73 0 144.5 -20.5t135 -63.5t111.5 -102t76.5 -142t28.5 -178q0 -215 -141 -350t-355 -135h-313l61 449h-90zM195 537h307l-13 -88h-307l-51 -363h186q94 0 169.5 25.5t122 65.5t77.5 94t43 107t12 107q0 126 -58.5 223t-155.5 147t-214 50h-67z
" />
    <glyph glyph-name="ebreve.sc" unicode="&#xf677;" horiz-adv-x="770" 
d="M684 86l-10 -86h-645l135 991h504l-13 -86h-413l-49 -356h393l-15 -86h-389l-53 -377h555zM184 1341h113q20 -63 75.5 -99t112.5 -36q135 0 260 135h115q-68 -108 -172.5 -174.5t-212.5 -66.5q-106 0 -189.5 64.5t-101.5 176.5z" />
    <glyph glyph-name="ecaron.sc" unicode="&#xf678;" horiz-adv-x="770" 
d="M684 86l-10 -86h-645l135 991h504l-13 -86h-413l-49 -356h393l-15 -86h-389l-53 -377h555zM367 1100l-185 270h107l155 -178l308 178h104l-326 -270h-163z" />
    <glyph glyph-name="edotaccent.sc" unicode="&#xf679;" horiz-adv-x="770" 
d="M684 86l-10 -86h-645l135 991h504l-13 -86h-413l-49 -356h393l-15 -86h-389l-53 -377h555zM600 1239q0 -35 -26 -62.5t-64 -27.5t-64 27t-26 65t25.5 64t62.5 26q39 0 65.5 -28t26.5 -64z" />
    <glyph glyph-name="emacron.sc" unicode="&#xf67a;" horiz-adv-x="770" 
d="M684 86l-10 -86h-645l135 991h504l-13 -86h-413l-49 -356h393l-15 -86h-389l-53 -377h555zM852 1241l-18 -102h-654l19 102h653z" />
    <glyph glyph-name="eng.sc" unicode="&#xf67b;" horiz-adv-x="927" 
d="M489 -8l-14 90q47 -14 96 -14q77 0 115 51t55 174l39 270q24 159 -38.5 255.5t-194.5 96.5q-96 0 -177 -58t-134 -150l-105 -707h-92l147 989h90l-18 -117q129 129 295 129q72 0 135 -26.5t111.5 -78t69 -138t3.5 -197.5l-45 -297q-24 -157 -84 -219.5t-163 -62.5
q-49 0 -91 10z" />
    <glyph glyph-name="eogonek.sc" unicode="&#xf67c;" horiz-adv-x="770" 
d="M684 86l-10 -86h-172q-74 -99 -74 -162q0 -41 35.5 -69.5t87.5 -28.5q26 0 86 14l-12 -84q-57 -14 -99 -14q-84 0 -140 46.5t-56 115.5q0 88 73 182h-374l135 991h504l-13 -86h-413l-49 -356h393l-15 -86h-389l-53 -377h555z" />
    <glyph glyph-name="gbreve.sc" unicode="&#xf67d;" horiz-adv-x="921" 
d="M915 975l-12 -84q-112 24 -182 24q-129 0 -236 -41t-177 -110.5t-108 -160t-38 -191.5q0 -148 88.5 -241t228.5 -93q96 0 217 59l27 195h-211l12 86h301l-47 -328q-68 -49 -150 -75.5t-157 -26.5t-146.5 28.5t-129.5 80.5t-93.5 136t-35.5 185q0 88 27.5 173t83.5 159
t133.5 130t185 88.5t231.5 32.5q89 0 188 -26zM322 1341h112q20 -63 75.5 -99t113.5 -36q135 0 260 135h114q-68 -108 -172.5 -174.5t-212.5 -66.5q-106 0 -189 64.5t-101 176.5z" />
    <glyph glyph-name="gcircumflex.sc" unicode="&#xf67e;" horiz-adv-x="921" 
d="M915 975l-12 -84q-112 24 -182 24q-129 0 -236 -41t-177 -110.5t-108 -160t-38 -191.5q0 -148 88.5 -241t228.5 -93q96 0 217 59l27 195h-211l12 86h301l-47 -328q-68 -49 -150 -75.5t-157 -26.5t-146.5 28.5t-129.5 80.5t-93.5 136t-35.5 185q0 88 27.5 173t83.5 159
t133.5 130t185 88.5t231.5 32.5q89 0 188 -26zM750 1370l184 -270h-107l-155 178l-307 -178h-105l326 270h164z" />
    <glyph glyph-name="gcommaaccent.sc" unicode="&#xf67f;" horiz-adv-x="921" 
d="M915 975l-12 -84q-112 24 -182 24q-129 0 -236 -41t-177 -110.5t-108 -160t-38 -191.5q0 -148 88.5 -241t228.5 -93q96 0 217 59l27 195h-211l12 86h301l-47 -328q-68 -49 -150 -75.5t-157 -26.5t-146.5 28.5t-129.5 80.5t-93.5 136t-35.5 185q0 88 27.5 173t83.5 159
t133.5 130t185 88.5t231.5 32.5q89 0 188 -26zM178 -387l27 72q80 -6 135 3t80 28t34 37.5t9 39.5q0 45 -50.5 62.5t-158.5 11.5l14 76q33 4 62 4q43 0 79.5 -6t73 -20.5t57.5 -44.5t21 -73q0 -40 -15 -72.5t-36.5 -52.5t-54.5 -34.5t-59 -21.5t-61 -10.5t-49.5 -4
t-33.5 -0.5q-5 0 -74 6z" />
    <glyph glyph-name="gdotaccent.sc" unicode="&#xf680;" horiz-adv-x="921" 
d="M915 975l-12 -84q-112 24 -182 24q-129 0 -236 -41t-177 -110.5t-108 -160t-38 -191.5q0 -148 88.5 -241t228.5 -93q96 0 217 59l27 195h-211l12 86h301l-47 -328q-68 -49 -150 -75.5t-157 -26.5t-146.5 28.5t-129.5 80.5t-93.5 136t-35.5 185q0 88 27.5 173t83.5 159
t133.5 130t185 88.5t231.5 32.5q89 0 188 -26zM768 1239q0 -35 -26 -62.5t-64 -27.5t-64 27t-26 65t25.5 64t62.5 26q39 0 65.5 -28t26.5 -64z" />
    <glyph glyph-name="hbar.sc" unicode="&#xf681;" horiz-adv-x="962" 
d="M1010 807l-11 -76h-100l-100 -731h-88l61 461h-592l-61 -461h-90l98 731h-100l10 76h100l25 182h90l-25 -182h594l25 182h88l-25 -182h101zM809 731h-592l-24 -184h591z" />
    <glyph glyph-name="hcircumflex.sc" unicode="&#xf682;" horiz-adv-x="962" 
d="M934 989l-135 -989h-88l61 461h-592l-61 -461h-90l133 989h90l-59 -442h591l62 442h88zM692 1370l185 -270h-107l-156 178l-307 -178h-104l325 270h164z" />
    <glyph glyph-name="ibreve.sc" unicode="&#xf683;" horiz-adv-x="282" 
d="M254 989l-135 -989h-90l135 989h90zM-61 1341h112q20 -63 75.5 -99t113.5 -36q135 0 260 135h114q-68 -108 -172.5 -174.5t-212.5 -66.5q-106 0 -189 64.5t-101 176.5z" />
    <glyph glyph-name="i_j.sc" unicode="&#xf684;" horiz-adv-x="606" 
d="M254 989l-135 -989h-90l135 989h90zM578 989l-148 -1071q-19 -131 -84 -187.5t-153 -56.5q-41 0 -91 15l-18 98q59 -20 106 -20q72 0 108.5 47.5t53.5 169.5l137 1005h89z" />
    <glyph glyph-name="imacron.sc" unicode="&#xf685;" horiz-adv-x="282" 
d="M254 989l-135 -989h-90l135 989h90zM608 1241l-18 -102h-653l18 102h653z" />
    <glyph glyph-name="iogonek.sc" unicode="&#xf686;" horiz-adv-x="282" 
d="M119 0q-68 -98 -68 -164q0 -41 35.5 -69.5t87.5 -28.5q26 0 86 14l-12 -84q-57 -14 -98 -14q-85 0 -141 46.5t-56 115.5q0 82 76 184l135 989h90z" />
    <glyph glyph-name="itilde.sc" unicode="&#xf687;" horiz-adv-x="282" 
d="M254 989l-135 -989h-90l135 989h90zM-2 1116h-84q4 67 8.5 89.5t16.5 49.5q58 105 161 105q49 0 86 -15t107 -57q2 -1 15 -8t22 -12t24.5 -12t27.5 -11.5t26 -8t24 -3.5q22 0 37.5 10t24.5 31t12.5 38.5t7.5 45.5h78q4 -121 -51 -183.5t-133 -62.5q-39 0 -78.5 15
t-100.5 49q-80 45 -104.5 56t-44.5 11q-23 0 -40 -13.5t-25.5 -35.5t-12 -41t-4.5 -37z" />
    <glyph glyph-name="jcircumflex.sc" unicode="&#xf688;" horiz-adv-x="323" 
d="M295 989l-148 -1071q-19 -131 -84 -187.5t-153 -56.5q-40 0 -90 15l-19 98q59 -20 107 -20q72 0 108.5 47.5t53.5 169.5l137 1005h88zM414 1370l184 -270h-106l-156 178l-307 -178h-105l326 270h164z" />
    <glyph glyph-name="kcommaaccent.sc" unicode="&#xf689;" horiz-adv-x="837" 
d="M819 991l-536 -456l505 -535h-116l-484 510l-69 -510h-90l135 991h90l-55 -413l487 413h133zM135 -387l27 72q80 -6 135 3t80 28t34 37.5t9 39.5q0 45 -50.5 62.5t-158.5 11.5l14 76q33 4 62 4q43 0 79.5 -6t73 -20.5t57.5 -44.5t21 -73q0 -40 -15 -72.5t-36.5 -52.5
t-54.5 -34.5t-59 -21.5t-61 -10.5t-49.5 -4t-33.5 -0.5q-5 0 -74 6z" />
    <glyph glyph-name="lacute.sc" unicode="&#xf68a;" horiz-adv-x="669" 
d="M584 90l-13 -90h-510l136 989h90l-125 -899h422zM795 1360l-414 -260h-94l250 260h258z" />
    <glyph glyph-name="lcaron.sc" unicode="&#xf68b;" horiz-adv-x="669" 
d="M584 90l-13 -90h-510l136 989h90l-125 -899h422zM563 989l-16 -123q-8 -62 -27 -113.5t-39.5 -82t-45.5 -53.5t-42 -33t-33 -15l11 60q78 70 86 174h-41l28 186h119z" />
    <glyph glyph-name="lcommaaccent.sc" unicode="&#xf68c;" horiz-adv-x="669" 
d="M584 90l-13 -90h-510l136 989h90l-125 -899h422zM51 -387l27 72q80 -6 135 3t80 28t34 37.5t9 39.5q0 45 -50.5 62.5t-158.5 11.5l14 76q33 4 62 4q43 0 79.5 -6t73 -20.5t57.5 -44.5t21 -73q0 -40 -15 -72.5t-36.5 -52.5t-54.5 -34.5t-59 -21.5t-61 -10.5t-49.5 -4
t-33.5 -0.5q-5 0 -74 6z" />
    <glyph glyph-name="ldot.sc" unicode="&#xf68d;" horiz-adv-x="669" 
d="M584 90l-13 -90h-510l136 989h90l-125 -899h422zM440 621q37 0 63.5 -26t26.5 -63t-26.5 -62.5t-63.5 -25.5t-62.5 25.5t-25.5 62.5q0 36 26 62.5t62 26.5z" />
    <glyph glyph-name="nacute.sc" unicode="&#xf68e;" horiz-adv-x="940" 
d="M911 989l-135 -997h-47l-500 807l-110 -799h-90l137 989h53l494 -803l110 803h88zM971 1360l-414 -260h-94l250 260h258z" />
    <glyph glyph-name="ncaron.sc" unicode="&#xf68f;" horiz-adv-x="940" 
d="M911 989l-135 -997h-47l-500 807l-110 -799h-90l137 989h53l494 -803l110 803h88zM471 1100l-184 270h106l156 -178l307 178h105l-326 -270h-164z" />
    <glyph glyph-name="ncommaaccent.sc" unicode="&#xf690;" horiz-adv-x="940" 
d="M911 989l-135 -997h-47l-500 807l-110 -799h-90l137 989h53l494 -803l110 803h88zM186 -387l27 72q80 -6 135 3t80 28t34 37.5t9 39.5q0 45 -50.5 62.5t-158.5 11.5l14 76q33 4 62 4q43 0 79.5 -6t73 -20.5t57.5 -44.5t21 -73q0 -40 -15 -72.5t-36.5 -52.5t-54.5 -34.5
t-59 -21.5t-61 -10.5t-49.5 -4t-33.5 -0.5q-5 0 -74 6z" />
    <glyph glyph-name="obreve.sc" unicode="&#xf691;" horiz-adv-x="903" 
d="M852 598q0 -163 -56.5 -302t-162.5 -223.5t-238 -84.5q-165 0 -254.5 109t-89.5 302q0 60 11 125t33 133.5t60 129.5t87 109t119 76.5t151 28.5q158 0 249 -109t91 -294zM756 614q0 138 -66.5 217.5t-177.5 79.5q-80 0 -144.5 -37t-104.5 -94t-67.5 -130t-38 -140.5
t-10.5 -130.5q0 -146 66 -223.5t184 -77.5q109 0 192 73.5t125 194.5t42 268zM281 1341h112q20 -63 75.5 -99t113.5 -36q135 0 260 135h114q-68 -108 -172.5 -174.5t-212.5 -66.5q-106 0 -189 64.5t-101 176.5z" />
    <glyph glyph-name="ohungarumlaut.sc" unicode="&#xf692;" horiz-adv-x="903" 
d="M852 598q0 -163 -56.5 -302t-162.5 -223.5t-238 -84.5q-165 0 -254.5 109t-89.5 302q0 60 11 125t33 133.5t60 129.5t87 109t119 76.5t151 28.5q158 0 249 -109t91 -294zM756 614q0 138 -66.5 217.5t-177.5 79.5q-80 0 -144.5 -37t-104.5 -94t-67.5 -130t-38 -140.5
t-10.5 -130.5q0 -146 66 -223.5t184 -77.5q109 0 192 73.5t125 194.5t42 268zM684 1364l-297 -264h-76l158 264h215zM985 1364l-297 -264h-76l160 264h213z" />
    <glyph glyph-name="omacron.sc" unicode="&#xf693;" horiz-adv-x="903" 
d="M852 598q0 -163 -56.5 -302t-162.5 -223.5t-238 -84.5q-165 0 -254.5 109t-89.5 302q0 60 11 125t33 133.5t60 129.5t87 109t119 76.5t151 28.5q158 0 249 -109t91 -294zM756 614q0 138 -66.5 217.5t-177.5 79.5q-80 0 -144.5 -37t-104.5 -94t-67.5 -130t-38 -140.5
t-10.5 -130.5q0 -146 66 -223.5t184 -77.5q109 0 192 73.5t125 194.5t42 268zM897 1241l-18 -102h-654l19 102h653z" />
    <glyph glyph-name="oslashacute.sc" unicode="&#xf694;" horiz-adv-x="903" 
d="M856 1042l-96 -149q92 -109 92 -295q0 -163 -56.5 -302t-162.5 -223.5t-238 -84.5q-111 0 -190 51l-90 -139l-66 39l98 151q-96 110 -96 309q0 60 11 125t33 133.5t60 129.5t87 109t119 76.5t151 28.5q114 0 190 -55l91 139zM756 614q0 124 -49 197l-451 -694
q56 -39 141 -39q109 0 192 73.5t125 194.5t42 268zM651 868q-58 43 -139 43q-80 0 -144.5 -37t-104.5 -94t-67.5 -130t-38 -140.5t-10.5 -130.5q0 -131 54 -207zM952 1360l-413 -260h-95l250 260h258z" />
    <glyph glyph-name="racute.sc" unicode="&#xf695;" horiz-adv-x="794" 
d="M748 0h-101l-162 295q-3 6 -20 39t-30.5 56t-24.5 36q-22 27 -74 27h-119l-61 -453h-90l133 991h227q124 0 194 -76t70 -190q0 -98 -55.5 -169t-149.5 -97q25 -25 82 -127zM594 725q0 69 -41 124.5t-133 55.5h-141l-50 -366h156q99 0 154 50t55 136zM836 1360l-414 -260
h-94l250 260h258z" />
    <glyph glyph-name="rcaron.sc" unicode="&#xf696;" horiz-adv-x="794" 
d="M748 0h-101l-162 295q-3 6 -20 39t-30.5 56t-24.5 36q-22 27 -74 27h-119l-61 -453h-90l133 991h227q124 0 194 -76t70 -190q0 -98 -55.5 -169t-149.5 -97q25 -25 82 -127zM594 725q0 69 -41 124.5t-133 55.5h-141l-50 -366h156q99 0 154 50t55 136zM379 1100l-184 270
h106l156 -178l307 178h104l-325 -270h-164z" />
    <glyph glyph-name="rcommaaccent.sc" unicode="&#xf697;" horiz-adv-x="794" 
d="M748 0h-101l-162 295q-3 6 -20 39t-30.5 56t-24.5 36q-22 27 -74 27h-119l-61 -453h-90l133 991h227q124 0 194 -76t70 -190q0 -98 -55.5 -169t-149.5 -97q25 -25 82 -127zM594 725q0 69 -41 124.5t-133 55.5h-141l-50 -366h156q99 0 154 50t55 136zM115 -387l26 72
q80 -6 135 3t80 28t34 37.5t9 39.5q0 45 -50.5 62.5t-158.5 11.5l15 76q33 4 61 4q43 0 79.5 -6t73 -20.5t58 -44.5t21.5 -73q0 -40 -15 -72.5t-36.5 -52.5t-55 -34.5t-59.5 -21.5t-61 -10.5t-49.5 -4t-33.5 -0.5q-4 0 -73 6z" />
    <glyph glyph-name="sacute.sc" unicode="&#xf698;" horiz-adv-x="610" 
d="M557 940l-22 -82q-63 33 -97 44t-67 11q-66 0 -115 -51t-49 -121q0 -42 17 -77.5t44.5 -61.5t60.5 -51t66.5 -52.5t61 -59t44.5 -77.5t17 -102q0 -117 -77 -194.5t-193 -77.5q-51 0 -112.5 20t-100.5 51l22 88q65 -41 105 -56t80 -15q77 0 130.5 48t53.5 136
q0 49 -23 91.5t-57.5 71.5t-75 62.5t-75 65t-57.5 79t-23 103.5q0 114 73.5 191t182.5 77q49 0 101 -16.5t85 -44.5zM774 1360l-414 -260h-94l250 260h258z" />
    <glyph glyph-name="scedilla.sc" unicode="&#xf699;" horiz-adv-x="610" 
d="M557 940l-22 -82q-63 33 -97 44t-67 11q-66 0 -115 -51t-49 -121q0 -42 17 -77.5t44.5 -61.5t60.5 -51t66.5 -52.5t61 -59t44.5 -77.5t17 -102q0 -112 -71 -188t-179 -84l-24 -58q33 -10 53 -39.5t20 -66.5q0 -85 -58 -131.5t-157 -46.5q-32 0 -69 6l20 65q14 -2 43 -2
q73 0 110.5 30.5t37.5 78.5q0 56 -84 59l45 109q-100 14 -170 67l22 88q65 -41 105 -56t80 -15q77 0 130.5 48t53.5 136q0 49 -23 91.5t-57.5 71.5t-75 62.5t-75 65t-57.5 79t-23 103.5q0 114 73.5 191t182.5 77q49 0 101 -16.5t85 -44.5z" />
    <glyph glyph-name="scircumflex.sc" unicode="&#xf69a;" horiz-adv-x="610" 
d="M557 940l-22 -82q-63 33 -97 44t-67 11q-66 0 -115 -51t-49 -121q0 -42 17 -77.5t44.5 -61.5t60.5 -51t66.5 -52.5t61 -59t44.5 -77.5t17 -102q0 -117 -77 -194.5t-193 -77.5q-51 0 -112.5 20t-100.5 51l22 88q65 -41 105 -56t80 -15q77 0 130.5 48t53.5 136
q0 49 -23 91.5t-57.5 71.5t-75 62.5t-75 65t-57.5 79t-23 103.5q0 114 73.5 191t182.5 77q49 0 101 -16.5t85 -44.5zM557 1370l184 -270h-106l-156 178l-307 -178h-104l325 270h164z" />
    <glyph glyph-name="scommaaccent.sc" unicode="&#xf69b;" horiz-adv-x="610" 
d="M557 940l-22 -82q-63 33 -97 44t-67 11q-66 0 -115 -51t-49 -121q0 -42 17 -77.5t44.5 -61.5t60.5 -51t66.5 -52.5t61 -59t44.5 -77.5t17 -102q0 -117 -77 -194.5t-193 -77.5q-51 0 -112.5 20t-100.5 51l22 88q65 -41 105 -56t80 -15q77 0 130.5 48t53.5 136
q0 49 -23 91.5t-57.5 71.5t-75 62.5t-75 65t-57.5 79t-23 103.5q0 114 73.5 191t182.5 77q49 0 101 -16.5t85 -44.5zM23 -387l26 72q80 -6 135 3t80 28t34 37.5t9 39.5q0 45 -50.5 62.5t-158.5 11.5l15 76q33 4 61 4q43 0 79.5 -6t73 -20.5t58 -44.5t21.5 -73
q0 -40 -15 -72.5t-36.5 -52.5t-55 -34.5t-59.5 -21.5t-61 -10.5t-49.5 -4t-33.5 -0.5q-4 0 -73 6z" />
    <glyph glyph-name="tbar.sc" unicode="&#xf69c;" horiz-adv-x="690" 
d="M741 989l-10 -84h-278l-45 -319h219l-11 -76h-219l-69 -510h-88l69 510h-217l10 76h217l43 319h-276l10 84h645z" />
    <glyph glyph-name="tcaron.sc" unicode="&#xf69d;" horiz-adv-x="690" 
d="M741 989l-10 -84h-278l-125 -905h-88l122 905h-276l10 84h645zM346 1100l-184 270h106l156 -178l307 178h105l-326 -270h-164z" />
    <glyph glyph-name="tcommaaccent.sc" unicode="&#xf69e;" horiz-adv-x="690" 
d="M741 989l-10 -84h-278l-125 -905h-88l122 905h-276l10 84h645zM61 -387l27 72q80 -6 135 3t80 28t34 37.5t9 39.5q0 45 -50.5 62.5t-158.5 11.5l15 76q33 4 61 4q43 0 79.5 -6t73 -20.5t57.5 -44.5t21 -73q0 -40 -15 -72.5t-36.5 -52.5t-54.5 -34.5t-59 -21.5t-61 -10.5
t-49.5 -4t-33.5 -0.5q-5 0 -74 6z" />
    <glyph glyph-name="ubreve.sc" unicode="&#xf69f;" horiz-adv-x="905" 
d="M877 989l-89 -639q-11 -76 -39 -138t-67 -103t-87.5 -69t-98.5 -40t-103 -12q-146 0 -241.5 104t-73.5 268l86 629h90l-86 -622q-20 -144 50.5 -218.5t184.5 -74.5q67 0 122 25.5t89.5 67.5t55.5 91t28 102l90 629h89zM262 1341h113q20 -63 75.5 -99t112.5 -36
q135 0 260 135h115q-68 -108 -172.5 -174.5t-212.5 -66.5q-106 0 -189.5 64.5t-101.5 176.5z" />
    <glyph glyph-name="uhungarumlaut.sc" unicode="&#xf6a0;" horiz-adv-x="905" 
d="M877 989l-89 -639q-11 -76 -39 -138t-67 -103t-87.5 -69t-98.5 -40t-103 -12q-146 0 -241.5 104t-73.5 268l86 629h90l-86 -622q-20 -144 50.5 -218.5t184.5 -74.5q67 0 122 25.5t89.5 67.5t55.5 91t28 102l90 629h89zM686 1364l-297 -264h-76l158 264h215zM987 1364
l-297 -264h-76l160 264h213z" />
    <glyph glyph-name="umacron.sc" unicode="&#xf6a1;" horiz-adv-x="905" 
d="M877 989l-89 -639q-11 -76 -39 -138t-67 -103t-87.5 -69t-98.5 -40t-103 -12q-146 0 -241.5 104t-73.5 268l86 629h90l-86 -622q-20 -144 50.5 -218.5t184.5 -74.5q67 0 122 25.5t89.5 67.5t55.5 91t28 102l90 629h89zM920 1241l-19 -102h-653l18 102h654z" />
    <glyph glyph-name="uogonek.sc" unicode="&#xf6a2;" horiz-adv-x="905" 
d="M877 989l-89 -639q-13 -93 -51 -164t-93 -112.5t-116 -62.5t-127 -23q-65 -88 -65 -150q0 -41 35.5 -69.5t87.5 -28.5q26 0 86 14l-13 -84q-57 -14 -98 -14q-84 0 -140 46.5t-56 115.5q0 85 71 180q-116 29 -183 126t-48 236l86 629h90l-86 -622q-20 -144 50.5 -218.5
t184.5 -74.5q67 0 122 25.5t89.5 67.5t55.5 91t28 102l90 629h89z" />
    <glyph glyph-name="uring.sc" unicode="&#xf6a3;" horiz-adv-x="905" 
d="M877 989l-89 -639q-11 -76 -39 -138t-67 -103t-87.5 -69t-98.5 -40t-103 -12q-146 0 -241.5 104t-73.5 268l86 629h90l-86 -622q-20 -144 50.5 -218.5t184.5 -74.5q67 0 122 25.5t89.5 67.5t55.5 91t28 102l90 629h89zM578 1528q88 0 150.5 -62.5t62.5 -152.5
q0 -88 -62.5 -150.5t-150.5 -62.5q-89 0 -151 62.5t-62 150.5q0 90 62.5 152.5t150.5 62.5zM575 1462q-60 0 -103.5 -43t-43.5 -104q0 -62 43 -106t104 -44t105.5 44.5t44.5 105.5t-44 104t-106 43z" />
    <glyph glyph-name="utilde.sc" unicode="&#xf6a4;" horiz-adv-x="905" 
d="M877 989l-89 -639q-11 -76 -39 -138t-67 -103t-87.5 -69t-98.5 -40t-103 -12q-146 0 -241.5 104t-73.5 268l86 629h90l-86 -622q-20 -144 50.5 -218.5t184.5 -74.5q67 0 122 25.5t89.5 67.5t55.5 91t28 102l90 629h89zM342 1116h-84q4 67 8.5 89.5t16.5 49.5
q58 105 161 105q49 0 86 -15t107 -57q2 -1 15 -8t22 -12t24.5 -12t27.5 -11.5t26 -8t24 -3.5q22 0 37.5 10t24.5 31t12.5 38.5t7.5 45.5h78q4 -121 -51 -183.5t-133 -62.5q-39 0 -78.5 15t-100.5 49q-80 45 -104.5 56t-44.5 11q-23 0 -40 -13.5t-25.5 -35.5t-12 -41
t-4.5 -37z" />
    <glyph glyph-name="wacute.sc" unicode="&#xf6a5;" horiz-adv-x="1333" 
d="M1364 989l-469 -1001h-45l-141 778l-349 -778h-47l-209 1001h91l161 -790l355 790h45l143 -790l367 790h98zM1167 1360l-413 -260h-95l250 260h258z" />
    <glyph glyph-name="wcircumflex.sc" unicode="&#xf6a6;" horiz-adv-x="1333" 
d="M1364 989l-469 -1001h-45l-141 778l-349 -778h-47l-209 1001h91l161 -790l355 790h45l143 -790l367 790h98zM918 1370l184 -270h-107l-155 178l-308 -178h-104l326 270h164z" />
    <glyph glyph-name="wdieresis.sc" unicode="&#xf6a7;" horiz-adv-x="1333" 
d="M1364 989l-469 -1001h-45l-141 778l-349 -778h-47l-209 1001h91l161 -790l355 790h45l143 -790l367 790h98zM1174 1239q0 -32 -26.5 -62t-66.5 -30q-37 0 -63.5 27.5t-26.5 64.5t25.5 62.5t62.5 25.5q41 0 68 -25.5t27 -62.5zM670 1239q0 -36 -25 -63t-65 -27
q-37 0 -62.5 27t-25.5 65t25 64t61 26q40 0 66 -27.5t26 -64.5z" />
    <glyph glyph-name="wgrave.sc" unicode="&#xf6a8;" horiz-adv-x="1333" 
d="M1364 989l-469 -1001h-45l-141 778l-349 -778h-47l-209 1001h91l161 -790l355 790h45l143 -790l367 790h98zM463 1360h258l250 -260h-94z" />
    <glyph glyph-name="ycircumflex.sc" unicode="&#xf6a9;" horiz-adv-x="747" 
d="M786 989l-364 -483l-68 -506h-90l68 510l-242 479h98l199 -389l289 389h110zM604 1370l184 -270h-106l-156 178l-307 -178h-104l325 270h164z" />
    <glyph glyph-name="ygrave.sc" unicode="&#xf6aa;" horiz-adv-x="747" 
d="M786 989l-364 -483l-68 -506h-90l68 510l-242 479h98l199 -389l289 389h110zM170 1360h258l250 -260h-94z" />
    <glyph glyph-name="zacute.sc" unicode="&#xf6ab;" horiz-adv-x="931" 
d="M934 948l-768 -862h649l-10 -86h-803v39l770 866h-620l10 84h772v-41zM987 1360l-414 -260h-94l250 260h258z" />
    <glyph glyph-name="zdotaccent.sc" unicode="&#xf6ac;" horiz-adv-x="931" 
d="M934 948l-768 -862h649l-10 -86h-803v39l770 866h-620l10 84h772v-41zM721 1239q0 -35 -26 -62.5t-64 -27.5t-64 27t-26 65t25.5 64t62.5 26q39 0 65.5 -28t26.5 -64z" />
    <glyph glyph-name="idotaccent.sc" unicode="&#xf6ad;" horiz-adv-x="282" 
d="M254 989l-135 -989h-90l135 989h90zM365 1239q0 -35 -26.5 -62.5t-64.5 -27.5t-64 27t-26 65t25.5 64t62.5 26q39 0 66 -28t27 -64z" />
    <glyph glyph-name="one.fitted" unicode="&#xf6dc;" horiz-adv-x="468" 
d="M412 1397l-207 -1397h-94l211 1397h90z" />
    <glyph glyph-name="lslash.sc" unicode="&#xf6f9;" horiz-adv-x="669" 
d="M584 90l-13 -90h-510l58 424l-137 -96l12 80l137 96l66 485h90l-58 -416l254 179l-10 -80l-256 -178l-55 -404h422z" />
    <glyph glyph-name="oe.sc" unicode="&#xf6fa;" horiz-adv-x="1413" 
d="M1329 86l-12 -86h-795q-105 0 -188.5 28t-135.5 71.5t-86 102.5t-47.5 116t-13.5 116q0 124 48.5 235.5t105.5 168.5q91 89 214 121t361 32h529l-13 -86h-415l-50 -360h394l-13 -86h-393l-51 -373h561zM791 905q-139 4 -177 2q-232 -7 -342 -133q-125 -143 -125 -340
q0 -160 95 -254t272 -94h166z" />
    <glyph glyph-name="scaron.sc" unicode="&#xf6fd;" horiz-adv-x="610" 
d="M557 940l-22 -82q-63 33 -97 44t-67 11q-66 0 -115 -51t-49 -121q0 -42 17 -77.5t44.5 -61.5t60.5 -51t66.5 -52.5t61 -59t44.5 -77.5t17 -102q0 -117 -77 -194.5t-193 -77.5q-51 0 -112.5 20t-100.5 51l22 88q65 -41 105 -56t80 -15q77 0 130.5 48t53.5 136
q0 49 -23 91.5t-57.5 71.5t-75 62.5t-75 65t-57.5 79t-23 103.5q0 114 73.5 191t182.5 77q49 0 101 -16.5t85 -44.5zM307 1100l-184 270h106l156 -178l307 178h105l-326 -270h-164z" />
    <glyph glyph-name="zcaron.sc" unicode="&#xf6ff;" horiz-adv-x="931" 
d="M934 948l-768 -862h649l-10 -86h-803v39l770 866h-620l10 84h772v-41zM467 1100l-184 270h106l156 -178l307 178h104l-325 -270h-164z" />
    <glyph glyph-name="ampersand.sc" unicode="&#xf726;" horiz-adv-x="905" 
d="M872 80l-47 -90q-136 -14 -260 98q-66 -54 -124 -77t-130 -23q-123 0 -205.5 76.5t-82.5 191.5q0 182 227 297q-60 126 -60 213q0 101 62.5 168t157.5 67q83 0 141.5 -59.5t58.5 -142.5q0 -159 -237 -285q104 -182 192 -299q51 52 101.5 127t85.5 150h96
q-59 -159 -217 -342q115 -97 241 -70zM516 805q0 45 -29 76.5t-79 31.5q-58 0 -92.5 -39.5t-34.5 -97.5q0 -82 51 -182q98 53 141 103t43 108zM502 152q-89 108 -209 323q-174 -99 -174 -219q0 -77 54 -127.5t138 -50.5q99 0 191 74z" />
    <glyph glyph-name="zero.oldstyle" unicode="&#xf730;" horiz-adv-x="997" 
d="M49 360q0 83 18 164t58 156t96.5 132t140 91.5t183.5 34.5q78 0 143.5 -20.5t120 -64t85 -120t30.5 -178.5q0 -41 -5.5 -86.5t-20.5 -102.5t-38 -109t-62.5 -103t-89.5 -88.5t-123 -60.5t-159 -23q-104 0 -180 32t-117.5 88t-60.5 120t-19 138zM160 369q0 -83 23 -144
t63 -94t86 -48t100 -15q72 0 132.5 24t100.5 64t70 89t46.5 104.5t24 103.5t7.5 92q0 48 -7.5 90t-27.5 82.5t-50.5 69.5t-80.5 47t-115 18q-90 0 -163 -41.5t-117.5 -110.5t-68 -154t-23.5 -177z" />
    <glyph glyph-name="one.oldstyle" unicode="&#xf731;" horiz-adv-x="598" 
d="M293 0h-94l114 774l-264 -199l25 130l311 233h45z" />
    <glyph glyph-name="two.oldstyle" unicode="&#xf732;" horiz-adv-x="899" 
d="M754 82l-13 -82h-678q284 228 358 291t138 137q47 52 81 118t34 124q0 89 -56.5 138.5t-142.5 49.5q-59 0 -112.5 -16.5t-97.5 -48t-67 -52t-55 -53.5v98q33 31 55.5 49t67 46t98.5 42.5t115 14.5q64 0 115.5 -17.5t83.5 -44.5t53.5 -62t30 -67.5t8.5 -64.5
q0 -59 -24 -120t-62 -115.5t-103 -119t-128 -118.5t-156 -127h457z" />
    <glyph glyph-name="three.oldstyle" unicode="&#xf733;" horiz-adv-x="835" 
d="M639 838h-533l9 82h700l-493 -617q38 -5 61 -10t61.5 -19t71.5 -36q68 -44 110 -119t42 -180q0 -122 -61 -218t-155.5 -145t-201.5 -49q-176 0 -359 111l27 83q183 -110 324 -110q138 0 229.5 87.5t91.5 225.5q0 99 -44.5 170.5t-115 105t-155.5 33.5q-43 0 -101 -16z
" />
    <glyph glyph-name="four.oldstyle" unicode="&#xf734;" horiz-adv-x="933" 
d="M743 938l-125 -864h230l-10 -74h-230l-69 -471h-95l68 471h-584v27l795 911h20zM524 74l94 631l-546 -631h452z" />
    <glyph glyph-name="five.oldstyle" unicode="&#xf735;" horiz-adv-x="950" 
d="M864 920l-14 -82h-412l-162 -533q86 14 125 14q186 0 290 -105t104 -253q0 -83 -33.5 -161t-92.5 -138t-148 -96.5t-193 -36.5q-176 0 -353 117l33 80q167 -115 324 -115q142 0 250 95.5t108 244.5q0 54 -16.5 103t-50.5 91.5t-93.5 67.5t-138.5 25q-60 0 -246 -29
l226 711h493z" />
    <glyph glyph-name="six.oldstyle" unicode="&#xf736;" horiz-adv-x="942" 
d="M684 1356l-422 -615q39 31 69.5 50.5t94 42t129.5 22.5q35 0 72 -7t82.5 -29t79.5 -56.5t57.5 -95.5t23.5 -140q0 -138 -63 -264t-173.5 -204t-238.5 -78q-105 0 -185 54t-120.5 139t-40.5 185q0 80 24 164t72.5 174t86 148.5t100.5 148.5l278 402zM774 535
q0 117 -66 177t-157 60q-72 0 -144 -28.5t-131 -80t-96 -132.5t-37 -177q0 -134 73 -207t177 -73q80 0 151.5 39.5t121.5 103.5t79 147.5t29 170.5z" />
    <glyph glyph-name="seven.oldstyle" unicode="&#xf737;" horiz-adv-x="847" 
d="M848 920l-719 -1391l-80 39l668 1270h-647l10 82h768z" />
    <glyph glyph-name="eight.oldstyle" unicode="&#xf738;" horiz-adv-x="1021" 
d="M680 737q113 -26 172 -109.5t59 -191.5q0 -185 -137 -319.5t-328 -134.5q-170 0 -280.5 109.5t-110.5 266.5q0 93 44.5 182t127.5 142q78 50 174 68q-31 14 -50.5 24.5t-50.5 34.5t-49 50.5t-32 69.5t-14 95q0 162 120 276.5t289 114.5q78 0 141 -23t101.5 -59
t64.5 -81.5t36 -88t10 -82.5q0 -81 -40 -157.5t-112 -126.5q-52 -35 -135 -60zM864 1073q0 45 -14 88.5t-42.5 81.5t-78 61t-113.5 23q-93 0 -165.5 -47.5t-108 -116.5t-35.5 -143q0 -104 74.5 -170t189.5 -66q76 0 135.5 29.5t92 75t49 93t16.5 91.5zM811 426q0 50 -16 96
t-49.5 87t-93.5 66t-138 25q-88 0 -159 -31t-113.5 -81.5t-65 -110.5t-22.5 -123q0 -123 78 -209t214 -86q155 0 260 108.5t105 258.5z" />
    <glyph glyph-name="nine.oldstyle" unicode="&#xf739;" horiz-adv-x="944" 
d="M225 -418l430 600q-38 -32 -64.5 -51t-88.5 -41t-131 -22q-73 0 -131 22.5t-92.5 57t-58 79.5t-32 86t-8.5 80q0 73 20.5 149t62 146.5t97.5 126.5t133.5 89.5t163.5 33.5q159 0 252.5 -107.5t93.5 -273.5q0 -120 -55 -249t-205 -343l-307 -436zM778 567
q0 74 -22.5 130.5t-59 89t-79.5 49t-89 16.5q-111 0 -201.5 -73t-137 -178.5t-46.5 -213.5q0 -41 12 -80t36.5 -75t70 -58t105.5 -22q167 0 289 121t122 294z" />
    <glyph glyph-name="a.sc" unicode="&#xf761;" horiz-adv-x="815" 
d="M719 0h-92l-78 348h-330l-160 -348h-92l453 1001h76zM530 434l-90 402l-182 -402h272z" />
    <glyph glyph-name="b.sc" unicode="&#xf762;" horiz-adv-x="751" 
d="M670 293q0 -130 -101.5 -211.5t-263.5 -81.5h-276l135 991h102q82 0 146 -21.5t102.5 -57.5t58 -80t19.5 -93q0 -118 -109 -190q88 -33 137.5 -99.5t49.5 -156.5zM496 739q0 76 -55 121t-152 45h-49l-43 -330h82q105 0 161 43.5t56 120.5zM573 289q0 88 -64.5 144
t-166.5 56h-156l-57 -403h168q77 0 133.5 18.5t86 49t43 64.5t13.5 71z" />
    <glyph glyph-name="c.sc" unicode="&#xf763;" horiz-adv-x="825" 
d="M801 985l-10 -82q-88 12 -123 12q-148 0 -269.5 -76t-186.5 -192.5t-65 -243.5q0 -139 82.5 -234t204.5 -95q144 0 314 114l-17 -106q-70 -43 -151 -68.5t-146 -25.5q-68 0 -135 27.5t-123 78t-90.5 131t-34.5 176.5q0 112 46 220t125.5 192.5t197 136t250.5 51.5
q60 0 131 -16z" />
    <glyph glyph-name="d.sc" unicode="&#xf764;" horiz-adv-x="886" 
d="M838 485q0 -215 -141 -350t-355 -135h-313l135 991h178q73 0 144.5 -20.5t135 -63.5t111.5 -102t76.5 -142t28.5 -178zM741 485q0 126 -58.5 223t-155.5 147t-214 50h-67l-115 -819h186q94 0 169.5 25.5t122 65.5t77.5 94t43 107t12 107z" />
    <glyph glyph-name="e.sc" unicode="&#xf765;" horiz-adv-x="770" 
d="M684 86l-10 -86h-645l135 991h504l-13 -86h-413l-49 -356h393l-15 -86h-389l-53 -377h555z" />
    <glyph glyph-name="f.sc" unicode="&#xf766;" horiz-adv-x="616" 
d="M621 991l-13 -86h-364l-49 -360h340l-11 -86h-342l-63 -459h-90l137 991h455z" />
    <glyph glyph-name="g.sc" unicode="&#xf767;" horiz-adv-x="921" 
d="M915 975l-12 -84q-112 24 -182 24q-129 0 -236 -41t-177 -110.5t-108 -160t-38 -191.5q0 -148 88.5 -241t228.5 -93q96 0 217 59l27 195h-211l12 86h301l-47 -328q-68 -49 -150 -75.5t-157 -26.5t-146.5 28.5t-129.5 80.5t-93.5 136t-35.5 185q0 88 27.5 173t83.5 159
t133.5 130t185 88.5t231.5 32.5q89 0 188 -26z" />
    <glyph glyph-name="h.sc" unicode="&#xf768;" horiz-adv-x="962" 
d="M934 989l-135 -989h-88l61 461h-592l-61 -461h-90l133 989h90l-59 -442h591l62 442h88z" />
    <glyph glyph-name="i.sc" unicode="&#xf769;" horiz-adv-x="282" 
d="M254 989l-135 -989h-90l135 989h90z" />
    <glyph glyph-name="j.sc" unicode="&#xf76a;" horiz-adv-x="323" 
d="M295 989l-148 -1071q-19 -131 -84 -187.5t-153 -56.5q-40 0 -90 15l-19 98q59 -20 107 -20q72 0 108.5 47.5t53.5 169.5l137 1005h88z" />
    <glyph glyph-name="k.sc" unicode="&#xf76b;" horiz-adv-x="837" 
d="M819 991l-536 -456l505 -535h-116l-484 510l-69 -510h-90l135 991h90l-55 -413l487 413h133z" />
    <glyph glyph-name="l.sc" unicode="&#xf76c;" horiz-adv-x="669" 
d="M584 90l-13 -90h-510l136 989h90l-125 -899h422z" />
    <glyph glyph-name="m.sc" unicode="&#xf76d;" horiz-adv-x="1132" 
d="M1032 0h-92v778l-399 -778h-41l-162 788l-254 -788h-94l319 989h74l162 -790l407 790h80v-989z" />
    <glyph glyph-name="n.sc" unicode="&#xf76e;" horiz-adv-x="940" 
d="M911 989l-135 -997h-47l-500 807l-110 -799h-90l137 989h53l494 -803l110 803h88z" />
    <glyph glyph-name="o.sc" unicode="&#xf76f;" horiz-adv-x="903" 
d="M852 598q0 -163 -56.5 -302t-162.5 -223.5t-238 -84.5q-165 0 -254.5 109t-89.5 302q0 60 11 125t33 133.5t60 129.5t87 109t119 76.5t151 28.5q158 0 249 -109t91 -294zM756 614q0 138 -66.5 217.5t-177.5 79.5q-80 0 -144.5 -37t-104.5 -94t-67.5 -130t-38 -140.5
t-10.5 -130.5q0 -146 66 -223.5t184 -77.5q109 0 192 73.5t125 194.5t42 268z" />
    <glyph glyph-name="p.sc" unicode="&#xf770;" horiz-adv-x="700" 
d="M672 721q0 -54 -17.5 -103t-54 -91.5t-101.5 -67.5t-151 -25h-137l-59 -434h-91l136 991h198q124 0 200.5 -75.5t76.5 -194.5zM575 717q0 84 -51 136t-137 52h-113l-53 -385h121q68 0 116 18t72 49t34.5 62.5t10.5 67.5z" />
    <glyph glyph-name="q.sc" unicode="&#xf771;" horiz-adv-x="903" 
d="M879 25q6 -81 -17 -147.5t-79 -109t-138 -42.5q-103 0 -191.5 73.5t-125.5 188.5q-75 11 -131 51.5t-86.5 100t-45 123t-14.5 132.5q0 83 17.5 167t55.5 163t91.5 140.5t131.5 98.5t169 37q160 0 248 -108t88 -297q0 -104 -26 -205.5t-75.5 -189.5t-132.5 -146t-186 -67
q79 -166 225 -166q79 0 128.5 54.5t50.5 148.5h43zM756 612q0 142 -64 220.5t-180 78.5q-109 0 -193 -73t-128 -194.5t-44 -268.5q0 -142 67.5 -219.5t188.5 -77.5q83 0 151.5 47.5t111.5 124.5t66.5 171t23.5 191z" />
    <glyph glyph-name="r.sc" unicode="&#xf772;" horiz-adv-x="794" 
d="M748 0h-101l-162 295q-3 6 -20 39t-30.5 56t-24.5 36q-22 27 -74 27h-119l-61 -453h-90l133 991h227q124 0 194 -76t70 -190q0 -98 -55.5 -169t-149.5 -97q25 -25 82 -127zM594 725q0 69 -41 124.5t-133 55.5h-141l-50 -366h156q99 0 154 50t55 136z" />
    <glyph glyph-name="s.sc" unicode="&#xf773;" horiz-adv-x="610" 
d="M557 940l-22 -82q-63 33 -97 44t-67 11q-66 0 -115 -51t-49 -121q0 -42 17 -77.5t44.5 -61.5t60.5 -51t66.5 -52.5t61 -59t44.5 -77.5t17 -102q0 -117 -77 -194.5t-193 -77.5q-51 0 -112.5 20t-100.5 51l22 88q65 -41 105 -56t80 -15q77 0 130.5 48t53.5 136
q0 49 -23 91.5t-57.5 71.5t-75 62.5t-75 65t-57.5 79t-23 103.5q0 114 73.5 191t182.5 77q49 0 101 -16.5t85 -44.5z" />
    <glyph glyph-name="t.sc" unicode="&#xf774;" horiz-adv-x="690" 
d="M741 989l-10 -84h-278l-125 -905h-88l122 905h-276l10 84h645z" />
    <glyph glyph-name="u.sc" unicode="&#xf775;" horiz-adv-x="905" 
d="M877 989l-89 -639q-11 -76 -39 -138t-67 -103t-87.5 -69t-98.5 -40t-103 -12q-146 0 -241.5 104t-73.5 268l86 629h90l-86 -622q-20 -144 50.5 -218.5t184.5 -74.5q67 0 122 25.5t89.5 67.5t55.5 91t28 102l90 629h89z" />
    <glyph glyph-name="v.sc" unicode="&#xf776;" horiz-adv-x="757" 
d="M788 989l-436 -1001h-45l-203 1001h91l151 -784l348 784h94z" />
    <glyph glyph-name="w.sc" unicode="&#xf777;" horiz-adv-x="1333" 
d="M1364 989l-469 -1001h-45l-141 778l-349 -778h-47l-209 1001h91l161 -790l355 790h45l143 -790l367 790h98z" />
    <glyph glyph-name="x.sc" unicode="&#xf778;" horiz-adv-x="1013" 
d="M1016 989l-443 -475l336 -514h-106l-293 442l-412 -442h-121l484 516l-309 473h106l268 -401l371 401h119z" />
    <glyph glyph-name="y.sc" unicode="&#xf779;" horiz-adv-x="747" 
d="M786 989l-364 -483l-68 -506h-90l68 510l-242 479h98l199 -389l289 389h110z" />
    <glyph glyph-name="z.sc" unicode="&#xf77a;" horiz-adv-x="931" 
d="M934 948l-768 -862h649l-10 -86h-803v39l770 866h-620l10 84h772v-41z" />
    <glyph glyph-name="agrave.sc" unicode="&#xf7e0;" horiz-adv-x="815" 
d="M719 0h-92l-78 348h-330l-160 -348h-92l453 1001h76zM530 434l-90 402l-182 -402h272zM121 1360h258l250 -260h-94z" />
    <glyph glyph-name="aacute.sc" unicode="&#xf7e1;" horiz-adv-x="815" 
d="M719 0h-92l-78 348h-330l-160 -348h-92l453 1001h76zM530 434l-90 402l-182 -402h272zM848 1360l-414 -260h-94l250 260h258z" />
    <glyph glyph-name="acircumflex.sc" unicode="&#xf7e2;" horiz-adv-x="815" 
d="M719 0h-92l-78 348h-330l-160 -348h-92l453 1001h76zM530 434l-90 402l-182 -402h272zM580 1370l184 -270h-107l-155 178l-307 -178h-105l326 270h164z" />
    <glyph glyph-name="atilde.sc" unicode="&#xf7e3;" horiz-adv-x="815" 
d="M719 0h-92l-78 348h-330l-160 -348h-92l453 1001h76zM530 434l-90 402l-182 -402h272zM203 1116h-84q5 68 8.5 90.5t15.5 48.5q24 44 65 74.5t97 30.5q49 0 86 -15t107 -57q2 -1 15 -8t22 -12t24.5 -12t27.5 -11.5t26 -8t24 -3.5q22 0 37.5 10t24.5 31t12.5 38.5
t7.5 45.5h78q4 -121 -51.5 -183.5t-133.5 -62.5q-39 0 -78 14.5t-100 49.5q-80 45 -104.5 56t-44.5 11q-23 0 -40 -13.5t-25.5 -35.5t-12 -41t-4.5 -37z" />
    <glyph glyph-name="adieresis.sc" unicode="&#xf7e4;" horiz-adv-x="815" 
d="M719 0h-92l-78 348h-330l-160 -348h-92l453 1001h76zM530 434l-90 402l-182 -402h272zM831 1239q0 -33 -26 -62.5t-66 -29.5q-37 0 -63.5 27.5t-26.5 64.5t25.5 62.5t62.5 25.5q41 0 67.5 -25.5t26.5 -62.5zM328 1239q0 -36 -25 -63t-65 -27q-37 0 -62.5 27t-25.5 65
t25 64t61 26q40 0 66 -27.5t26 -64.5z" />
    <glyph glyph-name="aring.sc" unicode="&#xf7e5;" horiz-adv-x="815" 
d="M719 0h-92l-78 348h-330l-160 -348h-92l453 1001h76zM530 434l-90 402l-182 -402h272zM463 1528q88 0 150.5 -62.5t62.5 -152.5q0 -88 -62.5 -150.5t-150.5 -62.5q-89 0 -151 62.5t-62 150.5q0 90 62.5 152.5t150.5 62.5zM461 1462q-60 0 -104 -43t-44 -104
q0 -62 43.5 -106t104.5 -44t105 44t44 106q0 61 -43.5 104t-105.5 43z" />
    <glyph glyph-name="ae.sc" unicode="&#xf7e6;" horiz-adv-x="1216" 
d="M1133 86l-13 -86h-633l64 459h-217l-281 -459h-102l606 991h557l-12 -86h-402l-49 -360h375l-12 -86h-375l-51 -373h545zM610 905h-4l-217 -360h172z" />
    <glyph glyph-name="ccedilla.sc" unicode="&#xf7e7;" horiz-adv-x="825" 
d="M801 985l-10 -86q-88 12 -123 12q-111 0 -210 -44t-166 -115.5t-106 -163t-39 -185.5q0 -139 82.5 -232t204.5 -93q143 0 314 115l-17 -111q-136 -82 -268 -92l-25 -60q34 -10 54 -39.5t20 -66.5q0 -100 -79 -145.5t-206 -26.5l21 65q95 -10 142.5 20.5t47.5 86.5t-84 59
l45 107q-65 7 -125.5 37.5t-111 80.5t-81 126.5t-30.5 166.5q0 112 46 220t125.5 192.5t197 136t250.5 51.5q60 0 131 -16z" />
    <glyph glyph-name="egrave.sc" unicode="&#xf7e8;" horiz-adv-x="770" 
d="M684 86l-10 -86h-645l135 991h504l-13 -86h-413l-49 -356h393l-15 -86h-389l-53 -377h555zM119 1360h258l250 -260h-95z" />
    <glyph glyph-name="eacute.sc" unicode="&#xf7e9;" horiz-adv-x="770" 
d="M684 86l-10 -86h-645l135 991h504l-13 -86h-413l-49 -356h393l-15 -86h-389l-53 -377h555zM846 1360l-414 -260h-94l250 260h258z" />
    <glyph glyph-name="ecircumflex.sc" unicode="&#xf7ea;" horiz-adv-x="770" 
d="M684 86l-10 -86h-645l135 991h504l-13 -86h-413l-49 -356h393l-15 -86h-389l-53 -377h555zM573 1370l185 -270h-107l-155 178l-308 -178h-104l326 270h163z" />
    <glyph glyph-name="edieresis.sc" unicode="&#xf7eb;" horiz-adv-x="770" 
d="M684 86l-10 -86h-645l135 991h504l-13 -86h-413l-49 -356h393l-15 -86h-389l-53 -377h555zM829 1239q0 -33 -26 -62.5t-66 -29.5q-37 0 -63.5 27.5t-26.5 64.5t25.5 62.5t62.5 25.5q41 0 67.5 -25.5t26.5 -62.5zM326 1239q0 -36 -25 -63t-65 -27q-37 0 -63 27t-26 65
t25 64t61 26q40 0 66.5 -27.5t26.5 -64.5z" />
    <glyph glyph-name="igrave.sc" unicode="&#xf7ec;" horiz-adv-x="282" 
d="M254 989l-135 -989h-90l135 989h90zM-125 1360h258l250 -260h-94z" />
    <glyph glyph-name="iacute.sc" unicode="&#xf7ed;" horiz-adv-x="282" 
d="M254 989l-135 -989h-90l135 989h90zM643 1360l-414 -260h-94l250 260h258z" />
    <glyph glyph-name="icircumflex.sc" unicode="&#xf7ee;" horiz-adv-x="282" 
d="M254 989l-135 -989h-90l135 989h90zM330 1370l184 -270h-106l-156 178l-307 -178h-105l326 270h164z" />
    <glyph glyph-name="idieresis.sc" unicode="&#xf7ef;" horiz-adv-x="282" 
d="M254 989l-135 -989h-90l135 989h90zM616 1239q0 -33 -26 -62.5t-66 -29.5q-37 0 -63.5 27.5t-26.5 64.5t25.5 62.5t62.5 25.5q41 0 67.5 -25.5t26.5 -62.5zM113 1239q0 -36 -25 -63t-65 -27q-37 0 -63 27t-26 65t25 64t61 26q40 0 66.5 -27.5t26.5 -64.5z" />
    <glyph glyph-name="eth.sc" unicode="&#xf7f0;" horiz-adv-x="886" 
d="M12 537h90l62 454h178q73 0 144.5 -20.5t135 -63.5t111.5 -102t76.5 -142t28.5 -178q0 -215 -141 -350t-355 -135h-313l61 449h-90zM195 537h307l-13 -88h-307l-51 -363h186q94 0 169.5 25.5t122 65.5t77.5 94t43 107t12 107q0 126 -58.5 223t-155.5 147t-214 50h-67z
" />
    <glyph glyph-name="ntilde.sc" unicode="&#xf7f1;" horiz-adv-x="940" 
d="M911 989l-135 -997h-47l-500 807l-110 -799h-90l137 989h53l494 -803l110 803h88zM328 1116h-84q5 68 8.5 90.5t15.5 48.5q24 44 65 74.5t97 30.5q49 0 86 -15t107 -57q2 -1 15 -8t22 -12t24.5 -12t27.5 -11.5t26 -8t24 -3.5q22 0 37.5 10t24.5 31t12.5 38.5t7.5 45.5h78
q4 -121 -51.5 -183.5t-133.5 -62.5q-39 0 -78 14.5t-100 49.5q-80 45 -104.5 56t-44.5 11q-23 0 -40 -13.5t-25.5 -35.5t-12 -41t-4.5 -37z" />
    <glyph glyph-name="ograve.sc" unicode="&#xf7f2;" horiz-adv-x="903" 
d="M852 598q0 -163 -56.5 -302t-162.5 -223.5t-238 -84.5q-165 0 -254.5 109t-89.5 302q0 60 11 125t33 133.5t60 129.5t87 109t119 76.5t151 28.5q158 0 249 -109t91 -294zM756 614q0 138 -66.5 217.5t-177.5 79.5q-80 0 -144.5 -37t-104.5 -94t-67.5 -130t-38 -140.5
t-10.5 -130.5q0 -146 66 -223.5t184 -77.5q109 0 192 73.5t125 194.5t42 268zM197 1360h258l250 -260h-95z" />
    <glyph glyph-name="oacute.sc" unicode="&#xf7f3;" horiz-adv-x="903" 
d="M852 598q0 -163 -56.5 -302t-162.5 -223.5t-238 -84.5q-165 0 -254.5 109t-89.5 302q0 60 11 125t33 133.5t60 129.5t87 109t119 76.5t151 28.5q158 0 249 -109t91 -294zM756 614q0 138 -66.5 217.5t-177.5 79.5q-80 0 -144.5 -37t-104.5 -94t-67.5 -130t-38 -140.5
t-10.5 -130.5q0 -146 66 -223.5t184 -77.5q109 0 192 73.5t125 194.5t42 268zM952 1360l-413 -260h-95l250 260h258z" />
    <glyph glyph-name="ocircumflex.sc" unicode="&#xf7f4;" horiz-adv-x="903" 
d="M852 598q0 -163 -56.5 -302t-162.5 -223.5t-238 -84.5q-165 0 -254.5 109t-89.5 302q0 60 11 125t33 133.5t60 129.5t87 109t119 76.5t151 28.5q158 0 249 -109t91 -294zM756 614q0 138 -66.5 217.5t-177.5 79.5q-80 0 -144.5 -37t-104.5 -94t-67.5 -130t-38 -140.5
t-10.5 -130.5q0 -146 66 -223.5t184 -77.5q109 0 192 73.5t125 194.5t42 268zM672 1370l184 -270h-106l-156 178l-307 -178h-105l326 270h164z" />
    <glyph glyph-name="otilde.sc" unicode="&#xf7f5;" horiz-adv-x="903" 
d="M852 598q0 -163 -56.5 -302t-162.5 -223.5t-238 -84.5q-165 0 -254.5 109t-89.5 302q0 60 11 125t33 133.5t60 129.5t87 109t119 76.5t151 28.5q158 0 249 -109t91 -294zM756 614q0 138 -66.5 217.5t-177.5 79.5q-80 0 -144.5 -37t-104.5 -94t-67.5 -130t-38 -140.5
t-10.5 -130.5q0 -146 66 -223.5t184 -77.5q109 0 192 73.5t125 194.5t42 268zM309 1116h-84q4 67 8.5 89.5t16.5 49.5q24 44 65 74.5t97 30.5q48 0 85 -15t107 -57q2 -1 15 -8t22 -12t24.5 -12t27.5 -11.5t26 -8t24 -3.5q22 0 37.5 10t24.5 31t12.5 38.5t7.5 45.5h78
q4 -121 -51 -183.5t-133 -62.5q-39 0 -78 14.5t-100 49.5q-79 45 -104.5 56t-45.5 11q-23 0 -40 -13.5t-25.5 -35.5t-12 -41t-4.5 -37z" />
    <glyph glyph-name="odieresis.sc" unicode="&#xf7f6;" horiz-adv-x="903" 
d="M852 598q0 -163 -56.5 -302t-162.5 -223.5t-238 -84.5q-165 0 -254.5 109t-89.5 302q0 60 11 125t33 133.5t60 129.5t87 109t119 76.5t151 28.5q158 0 249 -109t91 -294zM756 614q0 138 -66.5 217.5t-177.5 79.5q-80 0 -144.5 -37t-104.5 -94t-67.5 -130t-38 -140.5
t-10.5 -130.5q0 -146 66 -223.5t184 -77.5q109 0 192 73.5t125 194.5t42 268zM928 1239q0 -33 -26 -62.5t-66 -29.5q-37 0 -64 27.5t-27 64.5t26 62.5t63 25.5q41 0 67.5 -25.5t26.5 -62.5zM424 1239q0 -36 -25 -63t-65 -27q-37 0 -62.5 27t-25.5 65t25 64t61 26
q40 0 66 -27.5t26 -64.5z" />
    <glyph glyph-name="oslash.sc" unicode="&#xf7f8;" horiz-adv-x="903" 
d="M856 1042l-96 -149q92 -109 92 -295q0 -163 -56.5 -302t-162.5 -223.5t-238 -84.5q-111 0 -190 51l-90 -139l-66 39l98 151q-96 110 -96 309q0 60 11 125t33 133.5t60 129.5t87 109t119 76.5t151 28.5q114 0 190 -55l91 139zM756 614q0 124 -49 197l-451 -694
q56 -39 141 -39q109 0 192 73.5t125 194.5t42 268zM651 868q-58 43 -139 43q-80 0 -144.5 -37t-104.5 -94t-67.5 -130t-38 -140.5t-10.5 -130.5q0 -131 54 -207z" />
    <glyph glyph-name="ugrave.sc" unicode="&#xf7f9;" horiz-adv-x="905" 
d="M877 989l-89 -639q-11 -76 -39 -138t-67 -103t-87.5 -69t-98.5 -40t-103 -12q-146 0 -241.5 104t-73.5 268l86 629h90l-86 -622q-20 -144 50.5 -218.5t184.5 -74.5q67 0 122 25.5t89.5 67.5t55.5 91t28 102l90 629h89zM209 1360h258l250 -260h-94z" />
    <glyph glyph-name="uacute.sc" unicode="&#xf7fa;" horiz-adv-x="905" 
d="M877 989l-89 -639q-11 -76 -39 -138t-67 -103t-87.5 -69t-98.5 -40t-103 -12q-146 0 -241.5 104t-73.5 268l86 629h90l-86 -622q-20 -144 50.5 -218.5t184.5 -74.5q67 0 122 25.5t89.5 67.5t55.5 91t28 102l90 629h89zM954 1360l-413 -260h-95l250 260h258z" />
    <glyph glyph-name="ucircumflex.sc" unicode="&#xf7fb;" horiz-adv-x="905" 
d="M877 989l-89 -639q-11 -76 -39 -138t-67 -103t-87.5 -69t-98.5 -40t-103 -12q-146 0 -241.5 104t-73.5 268l86 629h90l-86 -622q-20 -144 50.5 -218.5t184.5 -74.5q67 0 122 25.5t89.5 67.5t55.5 91t28 102l90 629h89zM674 1370l184 -270h-106l-156 178l-307 -178h-105
l326 270h164z" />
    <glyph glyph-name="udieresis.sc" unicode="&#xf7fc;" horiz-adv-x="905" 
d="M877 989l-89 -639q-11 -76 -39 -138t-67 -103t-87.5 -69t-98.5 -40t-103 -12q-146 0 -241.5 104t-73.5 268l86 629h90l-86 -622q-20 -144 50.5 -218.5t184.5 -74.5q67 0 122 25.5t89.5 67.5t55.5 91t28 102l90 629h89zM909 1239q0 -33 -26 -62.5t-66 -29.5
q-37 0 -63.5 27.5t-26.5 64.5t25.5 62.5t62.5 25.5q41 0 67.5 -25.5t26.5 -62.5zM406 1239q0 -35 -25.5 -62.5t-65.5 -27.5q-37 0 -62.5 27t-25.5 65t25 64t61 26q40 0 66.5 -27.5t26.5 -64.5z" />
    <glyph glyph-name="yacute.sc" unicode="&#xf7fd;" horiz-adv-x="747" 
d="M786 989l-364 -483l-68 -506h-90l68 510l-242 479h98l199 -389l289 389h110zM874 1360l-413 -260h-94l249 260h258z" />
    <glyph glyph-name="thorn.sc" unicode="&#xf7fe;" horiz-adv-x="700" 
d="M645 504q0 -54 -17.5 -103t-53.5 -91.5t-101 -67.5t-151 -25h-140l-30 -217h-91l136 991h92l-27 -217h107q124 0 200 -75.5t76 -194.5zM549 500q0 84 -51.5 136t-137.5 52h-112l-53 -385h120q68 0 116.5 18t72.5 49t34.5 62.5t10.5 67.5z" />
    <glyph glyph-name="ydieresis.sc" unicode="&#xf7ff;" horiz-adv-x="747" 
d="M786 989l-364 -483l-68 -506h-90l68 510l-242 479h98l199 -389l289 389h110zM829 1239q0 -33 -26 -62.5t-66 -29.5q-37 0 -63.5 27.5t-26.5 64.5t25.5 62.5t62.5 25.5q41 0 67.5 -25.5t26.5 -62.5zM326 1239q0 -36 -25 -63t-65 -27q-37 0 -63 27t-26 65t25 64t61 26
q40 0 66.5 -27.5t26.5 -64.5z" />
    </font>
</defs>
</svg>
